  0
SECTION
  2
HEADER
  9
$ACADVER
  1
AC1027
  9
$ACADMAINTVER
 70
   125
  9
$DWGCODEPAGE
  3
ANSI_932
  9
$LASTSAVEDBY
  1
SERIZAH
  9
$REQUIREDVERSIONS
160
                 0
  9
$INSBASE
 10
0.0
 20
0.0
 30
0.0
  9
$EXTMIN
 10
-1827.642725474746
 20
-424.1963174758902
 30
-0.0000000000112498
  9
$EXTMAX
 10
1135.431069577953
 20
1134.176105469176
 30
0.0000000000002956
  9
$LIMMIN
 10
-1249.479608370413
 20
-758.4627269689661
  9
$LIMMAX
 10
1273.505948089114
 20
1166.87415941288
  9
$ORTHOMODE
 70
     0
  9
$REGENMODE
 70
     1
  9
$FILLMODE
 70
     1
  9
$QTEXTMODE
 70
     0
  9
$MIRRTEXT
 70
     0
  9
$LTSCALE
 40
50.0
  9
$ATTMODE
 70
     1
  9
$TEXTSIZE
 40
64.0
  9
$TRACEWID
 40
0.05
  9
$TEXTSTYLE
  7
STANDARD
  9
$CLAYER
  8
SIZE
  9
$CELTYPE
  6
BYLAYER
  9
$CECOLOR
 62
   256
  9
$CELTSCALE
 40
1.0
  9
$DISPSILH
 70
     0
  9
$DIMSCALE
 40
1.0
  9
$DIMASZ
 40
10.0
  9
$DIMEXO
 40
10.0
  9
$DIMDLI
 40
200.0
  9
$DIMRND
 40
0.0
  9
$DIMDLE
 40
0.0
  9
$DIMEXE
 40
10.0
  9
$DIMTP
 40
0.0
  9
$DIMTM
 40
0.0
  9
$DIMTXT
 40
45.0
  9
$DIMCEN
 40
0.082
  9
$DIMTSZ
 40
0.0
  9
$DIMTOL
 70
     0
  9
$DIMLIM
 70
     0
  9
$DIMTIH
 70
     0
  9
$DIMTOH
 70
     0
  9
$DIMSE1
 70
     0
  9
$DIMSE2
 70
     0
  9
$DIMTAD
 70
     1
  9
$DIMZIN
 70
     8
  9
$DIMBLK
  1
ORIGIN
  9
$DIMASO
 70
     1
  9
$DIMSHO
 70
     0
  9
$DIMPOST
  1

  9
$DIMAPOST
  1

  9
$DIMALT
 70
     0
  9
$DIMALTD
 70
     2
  9
$DIMALTF
 40
25.4
  9
$DIMLFAC
 40
1.0
  9
$DIMTOFL
 70
     1
  9
$DIMTVP
 40
0.0
  9
$DIMTIX
 70
     0
  9
$DIMSOXD
 70
     0
  9
$DIMSAH
 70
     0
  9
$DIMBLK1
  1

  9
$DIMBLK2
  1

  9
$DIMSTYLE
  2
STANDARD
  9
$DIMCLRD
 70
   256
  9
$DIMCLRE
 70
   256
  9
$DIMCLRT
 70
   256
  9
$DIMTFAC
 40
1.0
  9
$DIMGAP
 40
10.0
  9
$DIMJUST
 70
     0
  9
$DIMSD1
 70
     0
  9
$DIMSD2
 70
     0
  9
$DIMTOLJ
 70
     1
  9
$DIMTZIN
 70
     0
  9
$DIMALTZ
 70
     0
  9
$DIMALTTZ
 70
     0
  9
$DIMUPT
 70
     0
  9
$DIMDEC
 70
     3
  9
$DIMTDEC
 70
     3
  9
$DIMALTU
 70
     2
  9
$DIMALTTD
 70
     2
  9
$DIMTXSTY
  7
STANDARD
  9
$DIMAUNIT
 70
     0
  9
$DIMADEC
 70
     0
  9
$DIMALTRND
 40
0.0
  9
$DIMAZIN
 70
     0
  9
$DIMDSEP
 70
    46
  9
$DIMATFIT
 70
     3
  9
$DIMFRAC
 70
     0
  9
$DIMLDRBLK
  1
ORIGIN
  9
$DIMLUNIT
 70
     2
  9
$DIMLWD
 70
    -1
  9
$DIMLWE
 70
    -2
  9
$DIMTMOVE
 70
     0
  9
$DIMFXL
 40
1.0
  9
$DIMFXLON
 70
     0
  9
$DIMJOGANG
 40
0.7853981633974483
  9
$DIMTFILL
 70
     0
  9
$DIMTFILLCLR
 70
   256
  9
$DIMARCSYM
 70
     0
  9
$DIMLTYPE
  6
BYLAYER
  9
$DIMLTEX1
  6

  9
$DIMLTEX2
  6

  9
$DIMTXTDIRECTION
 70
     0
  9
$LUNITS
 70
     2
  9
$LUPREC
 70
     1
  9
$SKETCHINC
 40
0.1
  9
$FILLETRAD
 40
10.0
  9
$AUNITS
 70
     1
  9
$AUPREC
 70
     3
  9
$MENU
  1
ACAD
  9
$ELEVATION
 40
0.0
  9
$PELEVATION
 40
0.0
  9
$THICKNESS
 40
0.0
  9
$LIMCHECK
 70
     0
  9
$CHAMFERA
 40
0.0
  9
$CHAMFERB
 40
0.0
  9
$CHAMFERC
 40
0.0
  9
$CHAMFERD
 40
0.0
  9
$SKPOLY
 70
     0
  9
$TDCREATE
 40
2450330.393194445
  9
$TDUCREATE
 40
2450330.018205995
  9
$TDUPDATE
 40
2459424.704780093
  9
$TDUUPDATE
 40
2459424.329780093
  9
$TDINDWG
 40
5.1228001736
  9
$TDUSRTIMER
 40
5.1227971991
  9
$USRTIMER
 70
     1
  9
$ANGBASE
 50
0.0
  9
$ANGDIR
 70
     0
  9
$PDMODE
 70
     3
  9
$PDSIZE
 40
-2.0
  9
$PLINEWID
 40
0.0
  9
$SPLFRAME
 70
     0
  9
$SPLINETYPE
 70
     6
  9
$SPLINESEGS
 70
     8
  9
$HANDSEED
  5
A7E02
  9
$SURFTAB1
 70
     6
  9
$SURFTAB2
 70
     6
  9
$SURFTYPE
 70
     6
  9
$SURFU
 70
     6
  9
$SURFV
 70
     6
  9
$UCSBASE
  2

  9
$UCSNAME
  2

  9
$UCSORG
 10
0.0
 20
0.0
 30
0.0
  9
$UCSXDIR
 10
1.0
 20
0.0
 30
0.0
  9
$UCSYDIR
 10
0.0
 20
1.0
 30
0.0
  9
$UCSORTHOREF
  2

  9
$UCSORTHOVIEW
 70
     0
  9
$UCSORGTOP
 10
0.0
 20
0.0
 30
0.0
  9
$UCSORGBOTTOM
 10
0.0
 20
0.0
 30
0.0
  9
$UCSORGLEFT
 10
0.0
 20
0.0
 30
0.0
  9
$UCSORGRIGHT
 10
0.0
 20
0.0
 30
0.0
  9
$UCSORGFRONT
 10
0.0
 20
0.0
 30
0.0
  9
$UCSORGBACK
 10
0.0
 20
0.0
 30
0.0
  9
$PUCSBASE
  2

  9
$PUCSNAME
  2

  9
$PUCSORG
 10
0.0
 20
0.0
 30
0.0
  9
$PUCSXDIR
 10
1.0
 20
0.0
 30
0.0
  9
$PUCSYDIR
 10
0.0
 20
1.0
 30
0.0
  9
$PUCSORTHOREF
  2

  9
$PUCSORTHOVIEW
 70
     0
  9
$PUCSORGTOP
 10
0.0
 20
0.0
 30
0.0
  9
$PUCSORGBOTTOM
 10
0.0
 20
0.0
 30
0.0
  9
$PUCSORGLEFT
 10
0.0
 20
0.0
 30
0.0
  9
$PUCSORGRIGHT
 10
0.0
 20
0.0
 30
0.0
  9
$PUCSORGFRONT
 10
0.0
 20
0.0
 30
0.0
  9
$PUCSORGBACK
 10
0.0
 20
0.0
 30
0.0
  9
$USERI1
 70
     0
  9
$USERI2
 70
     0
  9
$USERI3
 70
     0
  9
$USERI4
 70
     0
  9
$USERI5
 70
     0
  9
$USERR1
 40
20.0
  9
$USERR2
 40
0.0
  9
$USERR3
 40
0.0
  9
$USERR4
 40
0.0
  9
$USERR5
 40
0.0
  9
$WORLDVIEW
 70
     1
  9
$SHADEDGE
 70
     3
  9
$SHADEDIF
 70
    70
  9
$TILEMODE
 70
     1
  9
$MAXACTVP
 70
    64
  9
$PINSBASE
 10
0.0
 20
0.0
 30
0.0
  9
$PLIMCHECK
 70
     0
  9
$PEXTMIN
 10
1.000000000000000E+20
 20
1.000000000000000E+20
 30
1.000000000000000E+20
  9
$PEXTMAX
 10
-1.000000000000000E+20
 20
-1.000000000000000E+20
 30
-1.000000000000000E+20
  9
$PLIMMIN
 10
0.0
 20
0.0
  9
$PLIMMAX
 10
12.0
 20
9.0
  9
$UNITMODE
 70
     0
  9
$VISRETAIN
 70
     1
  9
$PLINEGEN
 70
     0
  9
$PSLTSCALE
 70
     1
  9
$TREEDEPTH
 70
  3020
  9
$CMLSTYLE
  2
STANDARD
  9
$CMLJUST
 70
     0
  9
$CMLSCALE
 40
1.0
  9
$PROXYGRAPHICS
 70
     1
  9
$MEASUREMENT
 70
     0
  9
$CELWEIGHT
370
    -1
  9
$ENDCAPS
280
     0
  9
$JOINSTYLE
280
     0
  9
$LWDISPLAY
290
     1
  9
$INSUNITS
 70
     0
  9
$HYPERLINKBASE
  1

  9
$STYLESHEET
  1
MONOCHROME.CTB
  9
$XEDIT
290
     1
  9
$CEPSNTYPE
380
     0
  9
$PSTYLEMODE
290
     1
  9
$FINGERPRINTGUID
  2
{97DA8DB6-C4F0-4C3D-ABEB-53C4FBBC7EFF}
  9
$VERSIONGUID
  2
{8D7DC09C-45BE-064B-82EA-A24321E80050}
  9
$EXTNAMES
290
     1
  9
$PSVPSCALE
 40
0.0
  9
$OLESTARTUP
290
     0
  9
$SORTENTS
280
   127
  9
$INDEXCTL
280
     0
  9
$HIDETEXT
280
     0
  9
$XCLIPFRAME
280
     2
  9
$HALOGAP
280
     0
  9
$OBSCOLOR
 70
   257
  9
$OBSLTYPE
280
     0
  9
$INTERSECTIONDISPLAY
280
     0
  9
$INTERSECTIONCOLOR
 70
   257
  9
$DIMASSOC
280
     1
  9
$PROJECTNAME
  1

  9
$CAMERADISPLAY
290
     0
  9
$LENSLENGTH
 40
50.0
  9
$CAMERAHEIGHT
 40
0.0
  9
$STEPSPERSEC
 40
2.0
  9
$STEPSIZE
 40
6.0
  9
$3DDWFPREC
 40
2.0
  9
$PSOLWIDTH
 40
0.25
  9
$PSOLHEIGHT
 40
4.0
  9
$LOFTANG1
 40
1.570795999999999
  9
$LOFTANG2
 40
1.570795999999999
  9
$LOFTMAG1
 40
0.0
  9
$LOFTMAG2
 40
0.0
  9
$LOFTPARAM
 70
     7
  9
$LOFTNORMALS
280
     1
  9
$LATITUDE
 40
37.795
  9
$LONGITUDE
 40
-122.394
  9
$NORTHDIRECTION
 40
0.0
  9
$TIMEZONE
 70
 -8000
  9
$LIGHTGLYPHDISPLAY
280
     1
  9
$TILEMODELIGHTSYNCH
280
     1
  9
$CMATERIAL
347
86E81
  9
$SOLIDHIST
280
     0
  9
$SHOWHIST
280
     1
  9
$DWFFRAME
280
     2
  9
$DGNFRAME
280
     0
  9
$REALWORLDSCALE
290
     1
  9
$INTERFERECOLOR
 62
     1
  9
$INTERFEREOBJVS
345
86EA3
  9
$INTERFEREVPVS
346
86EA0
  9
$CSHADOW
280
     0
  9
$SHADOWPLANELOCATION
 40
0.0
  0
ENDSEC
  0
SECTION
  2
CLASSES
  0
CLASS
  1
ACDBDICTIONARYWDFLT
  2
AcDbDictionaryWithDefault
  3
ObjectDBX Classes
 90
        0
 91
        1
280
     0
281
     0
  0
CLASS
  1
MATERIAL
  2
AcDbMaterial
  3
ObjectDBX Classes
 90
     1153
 91
        3
280
     0
281
     0
  0
CLASS
  1
VISUALSTYLE
  2
AcDbVisualStyle
  3
ObjectDBX Classes
 90
     4095
 91
       24
280
     0
281
     0
  0
CLASS
  1
TABLESTYLE
  2
AcDbTableStyle
  3
ObjectDBX Classes
 90
     4095
 91
        1
280
     0
281
     0
  0
CLASS
  1
SCALE
  2
AcDbScale
  3
ObjectDBX Classes
 90
     1153
 91
       17
280
     0
281
     0
  0
CLASS
  1
MLEADERSTYLE
  2
AcDbMLeaderStyle
  3
ACDB_MLEADERSTYLE_CLASS
 90
     4095
 91
        1
280
     0
281
     0
  0
CLASS
  1
ACDBSECTIONVIEWSTYLE
  2
AcDbSectionViewStyle
  3
ObjectDBX Classes
 90
     1025
 91
        2
280
     0
281
     0
  0
CLASS
  1
ACDBDETAILVIEWSTYLE
  2
AcDbDetailViewStyle
  3
ObjectDBX Classes
 90
     1025
 91
        2
280
     0
281
     0
  0
CLASS
  1
DICTIONARYVAR
  2
AcDbDictionaryVar
  3
ObjectDBX Classes
 90
        0
 91
        9
280
     0
281
     0
  0
CLASS
  1
CELLSTYLEMAP
  2
AcDbCellStyleMap
  3
ObjectDBX Classes
 90
     1152
 91
        2
280
     0
281
     0
  0
CLASS
  1
SORTENTSTABLE
  2
AcDbSortentsTable
  3
ObjectDBX Classes
 90
        0
 91
        1
280
     0
281
     0
  0
CLASS
  1
MULTILEADER
  2
AcDbMLeader
  3
ACDB_MLEADER_CLASS
 90
     1025
 91
        0
280
     0
281
     1
  0
CLASS
  1
AMGSETTINGSOBJ
  2
AmgSettingsObj
  3
"AcadM|Product Description: AutoCAD Mechanical|Company: Autodesk, Inc."
 90
     1024
 91
        0
280
     0
281
     0
  0
CLASS
  1
ACME_DOCUMENT
  2
AcMeDbDoc
  3
AcMeServices
 90
     1024
 91
        0
280
     0
281
     0
  0
CLASS
  1
ACMESCOPE
  2
AcMeScope
  3
AcMeServices
 90
     1024
 91
        0
280
     0
281
     0
  0
CLASS
  1
ACMECOMMANDHISTORY
  2
AcMeCommandHistory
  3
AcMeServices
 90
     1024
 91
        0
280
     0
281
     0
  0
CLASS
  1
ACIMSYSVARMAN
  2
AcImSysVarManager
  3
AcMeServices
 90
     1024
 91
        0
280
     0
281
     0
  0
CLASS
  1
ACIMINTSYSVAR
  2
AcImIntSysVar
  3
AcMeServices
 90
     1024
 91
        0
280
     0
281
     0
  0
CLASS
  1
ACMESTATEMGR
  2
AcMeStateMgr
  3
AcMeServices
 90
     1024
 91
        0
280
     0
281
     0
  0
CLASS
  1
ACDBENTITYCACHE
  2
AcMeEntityCache
  3
AcMeServices
 90
     1024
 91
        0
280
     0
281
     0
  0
CLASS
  1
ACGREFMASTER
  2
AcGrefMaster
  3
AcAttribServices
 90
     1024
 91
        0
280
     0
281
     0
  0
CLASS
  1
ACME_DATABASE
  2
AcMeDbDatabase
  3
AcMeServices
 90
     1024
 91
        0
280
     0
281
     0
  0
CLASS
  1
ACRFINSADJUSTERMGR
  2
AcRfInsAdjusterMgr
  3
AcMeServices
 90
     1024
 91
        0
280
     0
281
     0
  0
CLASS
  1
ACGREFACADMASTER
  2
AcGrefacadMaster
  3
AcGrefServices
 90
     1024
 91
        0
280
     0
281
     0
  0
CLASS
  1
AMIMASTER
  2
AmiMaster
  3
AmiServices
 90
     1024
 91
        0
280
     0
281
     0
  0
CLASS
  1
AMDTMENUSTATEMGR
  2
AmdtMenuStateMgr
  3
McadcomServices
 90
     1024
 91
        0
280
     0
281
     0
  0
CLASS
  1
AMDTMCOMMENUSTATE
  2
AmdtMcomMenuState
  3
McadcomServices
 90
     1024
 91
        0
280
     0
281
     0
  0
CLASS
  1
MAPIAMMOUDLE
  2
MApiAmModule
  3
MApiAmServices
 90
     1024
 91
        0
280
     0
281
     0
  0
CLASS
  1
ACIMSTRSYSVAR
  2
AcImStrSysVar
  3
AcMeServices
 90
     1024
 91
        0
280
     0
281
     0
  0
CLASS
  1
AMDTAMMENUSTATE
  2
AmdtAmMenuState
  3
DesignerAssemblies_arx
 90
     1024
 91
        0
280
     0
281
     0
  0
CLASS
  1
ACAMPROJECT
  2
AcAmProject
  3
DesignerAssemblies
 90
     1024
 91
        0
280
     0
281
     0
  0
CLASS
  1
ACAMGRCOMPDEF
  2
AcAmGrCompDef
  3
DesignerAssemblies
 90
     1024
 91
        0
280
     0
281
     0
  0
CLASS
  1
ACAMCOMPDEF
  2
AcAmCompDef
  3
DesignerAssemblies
 90
     1024
 91
        0
280
     0
281
     0
  0
CLASS
  1
ACAMCOMPDEFMGR
  2
AcAmCompDefMgr
  3
DesignerAssemblies
 90
     1024
 91
        0
280
     0
281
     0
  0
CLASS
  1
AMCONTEXTMGR
  2
AcAmContextMgr
  3
DesignerAssemblies
 90
     1024
 91
        0
280
     0
281
     0
  0
CLASS
  1
ACAMCONTEXTMODELER
  2
AcAmContextModeler
  3
DesignerAssemblies
 90
     1024
 91
        0
280
     0
281
     0
  0
CLASS
  1
ACMDATADICTIONARY
  2
AcmDataDictionary
  3
"AcmSymBB|Product Description: AutoCAD Mechanical|Company: Autodesk, Inc."
 90
     1024
 91
        0
280
     0
281
     0
  0
CLASS
  1
ACAMGRCOMPDEFSET
  2
AcAmGrCompDefSet
  3
DesignerAssemblies
 90
     1024
 91
        0
280
     0
281
     0
  0
CLASS
  1
AMDTBROWSERDBTAB
  2
AmdtBrowserDbTab
  3
McadcomServices
 90
     1024
 91
        0
280
     0
281
     0
  0
CLASS
  1
CBROWSERAPPOBJECT
  2
CBrowserAppObject
  3
McadcomServices
 90
     1024
 91
        0
280
     0
281
     0
  0
CLASS
  1
DM_PLACEHOLDER
  2
AcDmSelsetPlaceholder
  3
McadcomServices
 90
     1024
 91
        0
280
     0
281
     0
  0
CLASS
  1
ACMSTANDARDANSI
  2
AcmStandardANSI
  3
"Amdt_StdImp|Product Description: AutoCAD Mechanical|Company: Autodesk, Inc."
 90
     1024
 91
        0
280
     0
281
     0
  0
CLASS
  1
ACMSURFSTANDARDANSI
  2
AcmSurfTextStdANSI
  3
"Amdt_StdImp|Product Description: AutoCAD Mechanical|Company: Autodesk, Inc."
 90
     1024
 91
        0
280
     0
281
     0
  0
CLASS
  1
ACMFCFSTANDARDANSI
  2
AcmFCFStdANSI
  3
"Amdt_StdImp|Product Description: AutoCAD Mechanical|Company: Autodesk, Inc."
 90
     1024
 91
        0
280
     0
281
     0
  0
CLASS
  1
ACMWELDSTANDARDANSI
  2
AcmWeldingStdANSI
  3
"Amdt_StdImp|Product Description: AutoCAD Mechanical|Company: Autodesk, Inc."
 90
     1024
 91
        0
280
     0
281
     0
  0
CLASS
  1
ACMIDSTANDARDANSI
  2
AcmIdStdANSI
  3
"Amdt_StdImp|Product Description: AutoCAD Mechanical|Company: Autodesk, Inc."
 90
     1024
 91
        0
280
     0
281
     0
  0
CLASS
  1
ACMDATUMSTANDARDANSI
  2
AcmDatumStdANSI
  3
"Amdt_StdImp|Product Description: AutoCAD Mechanical|Company: Autodesk, Inc."
 90
     1024
 91
        0
280
     0
281
     0
  0
CLASS
  1
ACMBOMSTANDARDANSI
  2
AcmBOMStdANSI
  3
"Amdt_StdImp|Product Description: AutoCAD Mechanical|Company: Autodesk, Inc."
 90
     1024
 91
        0
280
     0
281
     0
  0
CLASS
  1
ACMDETAILSTANDARDANSI
  2
AmdtDetailSymStdANSI
  3
"Amdt_StdImp|Product Description: AutoCAD Mechanical|Company: Autodesk, Inc."
 90
     1024
 91
        0
280
     0
281
     0
  0
CLASS
  1
ACMSECTIONSTANDARDANSI
  2
AmdtSectionSymStdANSI
  3
"Amdt_StdImp|Product Description: AutoCAD Mechanical|Company: Autodesk, Inc."
 90
     1024
 91
        0
280
     0
281
     0
  0
CLASS
  1
ACMCENTERLINESTANDARDANSI
  2
AmdtCenterLineStdANSI
  3
"Amdt_StdImp|Product Description: AutoCAD Mechanical|Company: Autodesk, Inc."
 90
     1024
 91
        0
280
     0
281
     0
  0
CLASS
  1
ACMTHREADLINESTANDARDANSI
  2
AmdtThreadLineStdANSI
  3
"Amdt_StdImp|Product Description: AutoCAD Mechanical|Company: Autodesk, Inc."
 90
     1024
 91
        0
280
     0
281
     0
  0
CLASS
  1
ACMNOTESTANDARDANSI
  2
AmdtNoteStdANSI
  3
"Amdt_StdImp|Product Description: AutoCAD Mechanical|Company: Autodesk, Inc."
 90
     1024
 91
        0
280
     0
281
     0
  0
CLASS
  1
ACMTAPERSTANDARDANSI
  2
AcmTaperStdANSI
  3
"Amdt_StdImp|Product Description: AutoCAD Mechanical|Company: Autodesk, Inc."
 90
     1024
 91
        0
280
     0
281
     0
  0
CLASS
  1
ACMANOOTATIONVIEWSTANDARDANSI
  2
AmdtAnViewStdANSI
  3
"Amdt_StdImp|Product Description: AutoCAD Mechanical|Company: Autodesk, Inc."
 90
     1024
 91
        0
280
     0
281
     0
  0
CLASS
  1
ACAMGLAYSTD
  2
AcAmgLayStd
  3
"AmgLay|Product Description: AutoCAD Mechanical|Company: Autodesk, Inc."
 90
     1024
 91
        0
280
     0
281
     0
  0
CLASS
  1
ACAMGDIMSTD
  2
AcAmgDimStd
  3
"AmgDim|Product Description: AutoCAD Mechanical|Company: Autodesk, Inc."
 90
     1024
 91
        0
280
     0
281
     0
  0
CLASS
  1
AMGOBJPROPCFG
  2
AmgObjPropCfg
  3
"AmgLay|Product Description: AutoCAD Mechanical|Company: Autodesk, Inc."
 90
     1024
 91
        0
280
     0
281
     0
  0
CLASS
  1
ACAMGHOLECHARTSTDANSI
  2
AcAmgHoleChartStdANSI
  3
"AmgDim" "Product Description: AutoCAD Mechanical|Company: Autodesk, Inc."
 90
     1024
 91
        0
280
     0
281
     0
  0
CLASS
  1
ACAMGTITLESTD
  2
AcAmgTitleStd
  3
"AmgTitle|Product Description: AutoCAD Mechanical|Company: Autodesk, Inc."
 90
     1024
 91
        0
280
     0
281
     0
  0
CLASS
  1
ACMSECTIONSTANDARDCUSTOM
  2
AmdtSectionSymStdCustom
  3
"Amdt_StdImp|Product Description: AutoCAD Mechanical|Company: Autodesk, Inc."
 90
     1024
 91
        0
280
     0
281
     0
  0
CLASS
  1
ACMDETAILTANDARDCUSTOM
  2
AmdtDetailSymStdCustom
  3
"Amdt_StdImp|Product Description: AutoCAD Mechanical|Company: Autodesk, Inc."
 90
     1024
 91
        0
280
     0
281
     0
  0
CLASS
  1
FIELD
  2
AcDbField
  3
ObjectDBX Classes
 90
     1152
 91
        0
280
     0
281
     0
  0
CLASS
  1
FIELDLIST
  2
AcDbFieldList
  3
ObjectDBX Classes
 90
     1152
 91
        1
280
     0
281
     0
  0
CLASS
  1
AMDTNOTETEMPLATEDB
  2
AmdtNoteTemplateDB
  3
"AcmSymBB" "Product Description: AutoCAD Mechanical|Company: Autodesk, Inc."
 90
     1024
 91
        0
280
     0
281
     0
  0
CLASS
  1
ACAMGFILTERDAT
  2
AcAmgFilterDat
  3
"AcadM|Product Description: AutoCAD Mechanical|Company: Autodesk, Inc."
 90
     1024
 91
        0
280
     0
281
     0
  0
ENDSEC
  0
SECTION
  2
TABLES
  0
TABLE
  2
VPORT
  5
8
330
0
100
AcDbSymbolTable
 70
     1
1001
ACAD
1000
DbSaveVer
1071
      226
  0
VPORT
  5
86E7B
330
8
100
AcDbSymbolTableRecord
100
AcDbViewportTableRecord
  2
*Active
 70
     0
 10
0.0
 20
0.0
 11
1.0
 21
1.0
 12
-346.1058279483964
 22
354.989893996643
 13
0.0
 23
0.0
 14
50.0
 24
50.0
 15
100.0
 25
100.0
 16
0.0
 26
0.0
 36
1.0
 17
0.0
 27
0.0
 37
0.0
 40
1570.406186828812
 41
2.036082474226803
 42
50.0
 43
0.0
 44
0.0
 50
0.0
 51
0.0
 71
     0
 72
   500
 73
     1
 74
     2
 75
     0
 76
     0
 77
     0
 78
     0
281
     0
 65
     0
110
0.0
120
0.0
130
0.0
111
1.0
121
0.0
131
0.0
112
0.0
122
1.0
132
0.0
 79
     0
146
0.0
348
86E9F
 60
     3
 61
     5
292
     1
282
     1
141
0.0
142
0.0
 63
   250
421
  3355443
1001
ACAD_NAV_VCDISPLAY
1070
     3
  0
ENDTAB
  0
TABLE
  2
LTYPE
  5
5
330
0
100
AcDbSymbolTable
 70
    18
  0
LTYPE
  5
13
330
5
100
AcDbSymbolTableRecord
100
AcDbLinetypeTableRecord
  2
BYBLOCK
 70
     0
  3

 72
    65
 73
     0
 40
0.0
  0
LTYPE
  5
14
330
5
100
AcDbSymbolTableRecord
100
AcDbLinetypeTableRecord
  2
BYLAYER
 70
     0
  3

 72
    65
 73
     0
 40
0.0
  0
LTYPE
  5
15
330
5
100
AcDbSymbolTableRecord
100
AcDbLinetypeTableRecord
  2
CONTINUOUS
 70
     0
  3
実線
 72
    65
 73
     0
 40
0.0
  0
LTYPE
  5
8A62C
330
5
100
AcDbSymbolTableRecord
100
AcDbLinetypeTableRecord
  2
CENTER
 70
     0
  3
____ _ ____ _ ____ _ ____ _ ____ _ ____ _ ____
 72
    65
 73
     4
 40
0.6
 49
0.375
 74
     0
 49
-0.075
 74
     0
 49
0.075
 74
     0
 49
-0.075
 74
     0
  0
LTYPE
  5
A6081
330
5
100
AcDbSymbolTableRecord
100
AcDbLinetypeTableRecord
  2
CENTERX2
 70
     0
  3
Center (2x) ________  __  ________  __  _____
 72
    65
 73
     4
 40
4.0
 49
2.5
 74
     0
 49
-0.5
 74
     0
 49
0.5
 74
     0
 49
-0.5
 74
     0
  0
LTYPE
  5
A7BBD
330
5
100
AcDbSymbolTableRecord
100
AcDbLinetypeTableRecord
  2
HIDDEN
 70
     0
  3
Hidden __ __ __ __ __ __ __ __ __ __ __ __ __ _
 72
    65
 73
     2
 40
0.375
 49
0.25
 74
     0
 49
-0.125
 74
     0
  0
LTYPE
  5
A7BBE
330
5
100
AcDbSymbolTableRecord
100
AcDbLinetypeTableRecord
  2
PHANTOM2
 70
     0
  3
Phantom (.5x) ___ _ _ ___ _ _ ___ _ _ ___ _ _
 72
    65
 73
     6
 40
1.25
 49
0.625
 74
     0
 49
-0.125
 74
     0
 49
0.125
 74
     0
 49
-0.125
 74
     0
 49
0.125
 74
     0
 49
-0.125
 74
     0
  0
LTYPE
  5
A7BF7
330
5
100
AcDbSymbolTableRecord
100
AcDbLinetypeTableRecord
  2
AM_ISO02W050
 70
     0
  3
__ __ __ __ __ __ __ __ __ __ __ __ __ __ __
 72
    65
 73
     2
 40
7.5
 49
6.0
 74
     0
 49
-1.5
 74
     0
  0
LTYPE
  5
A7BF8
330
5
100
AcDbSymbolTableRecord
100
AcDbLinetypeTableRecord
  2
AM_ISO08W050
 70
     0
  3
____ . ____ . ____ . ____ . ____ . ____ . ____
 72
    65
 73
     4
 40
18.0
 49
12.0
 74
     0
 49
-1.5
 74
     0
 49
3.0
 74
     0
 49
-1.5
 74
     0
  0
LTYPE
  5
A7BF9
330
5
100
AcDbSymbolTableRecord
100
AcDbLinetypeTableRecord
  2
AM_ISO09W050
 70
     0
  3
_____ . . _____ . . _____ . . ____ .. ____
 72
    65
 73
     6
 40
22.5
 49
12.0
 74
     0
 49
-1.5
 74
     0
 49
3.0
 74
     0
 49
-1.5
 74
     0
 49
3.0
 74
     0
 49
-1.5
 74
     0
  0
LTYPE
  5
A7BFA
330
5
100
AcDbSymbolTableRecord
100
AcDbLinetypeTableRecord
  2
Amconstr
 70
     0
  3
_______________________
 72
    65
 73
     2
 40
9999.0
 49
9999.0
 74
     0
 49
0.0
 74
     0
  0
LTYPE
  5
A7BFB
330
5
100
AcDbSymbolTableRecord
100
AcDbLinetypeTableRecord
  2
AM_ISO08W050x2
 70
     0
  3
__ . __ . __ . __ . __ . __
 72
    65
 73
     4
 40
9.0
 49
6.0
 74
     0
 49
-0.75
 74
     0
 49
1.5
 74
     0
 49
-0.75
 74
     0
  0
LTYPE
  5
A7BFC
330
5
100
AcDbSymbolTableRecord
100
AcDbLinetypeTableRecord
  2
AM_ISO02W050x2
 70
     0
  3
 _ _ _ _ _ _ _ _ _ _ _ _
 72
    65
 73
     2
 40
3.75
 49
3.0
 74
     0
 49
-0.75
 74
     0
  0
LTYPE
  5
A7BFF
330
5
100
AcDbSymbolTableRecord
100
AcDbLinetypeTableRecord
  2
Amzigzag
 70
     0
  3
/\/-/\/-/\/-/\/-/\/-/\/
 72
    65
 73
     2
 40
11.0001
 49
0.0001
 74
     4
 75
   136
340
A7BFE
 46
0.04
 50
0.0
 44
0.0
 45
0.0
 49
-11.0
 74
     0
  0
LTYPE
  5
A7C00
330
5
100
AcDbSymbolTableRecord
100
AcDbLinetypeTableRecord
  2
CENTER2
 70
     0
  3
Center (.5x) ___ _ ___ _ ___ _ ___ _ ___ _ ___
 72
    65
 73
     4
 40
1.125
 49
0.75
 74
     0
 49
-0.125
 74
     0
 49
0.125
 74
     0
 49
-0.125
 74
     0
  0
LTYPE
  5
A7C01
330
5
100
AcDbSymbolTableRecord
100
AcDbLinetypeTableRecord
  2
HIDDEN2
 70
     0
  3
Hidden (.5x) _ _ _ _ _ _ _ _ _ _ _ _ _ _ _ _ _
 72
    65
 73
     2
 40
0.1875
 49
0.125
 74
     0
 49
-0.0625
 74
     0
  0
LTYPE
  5
A7C02
330
5
100
AcDbSymbolTableRecord
100
AcDbLinetypeTableRecord
  2
Amzigzag2
 70
     0
  3
/\/-/\/-/\/-/\/-/\/-/\/
 72
    65
 73
     2
 40
0.4401
 49
0.0001
 74
     4
 75
   136
340
A7BFE
 46
0.0016
 50
0.0
 44
0.0
 45
0.0
 49
-0.4400000000000003
 74
     0
  0
LTYPE
  5
A7C14
330
5
100
AcDbSymbolTableRecord
100
AcDbLinetypeTableRecord
  2
ACANSTGB
 70
     0
  3
__ . . __ . .
 72
    65
 73
     6
 40
0.35433070866
 49
0.15748031496
 74
     0
 49
-0.03937007874
 74
     0
 49
0.03937007874
 74
     0
 49
-0.03937007874
 74
     0
 49
0.03937007874
 74
     0
 49
-0.03937007874
 74
     0
  0
LTYPE
  5
A7C15
330
5
100
AcDbSymbolTableRecord
100
AcDbLinetypeTableRecord
  2
ACANSTGL
 70
     0
  3
_ _ _ _ _
 72
    65
 73
     2
 40
0.11811023622
 49
0.07874015748
 74
     0
 49
-0.03937007874
 74
     0
  0
ENDTAB
  0
TABLE
  2
LAYER
  5
2
102
{ACAD_XDICTIONARY
360
87810
102
}
330
0
100
AcDbSymbolTable
 70
    10
  0
LAYER
  5
10
102
{ACAD_XDICTIONARY
360
86EEC
102
}
330
2
100
AcDbSymbolTableRecord
100
AcDbLayerTableRecord
  2
0
 70
     0
 62
     7
  6
CONTINUOUS
370
    -3
390
F
347
86E91
348
0
  0
LAYER
  5
22
102
{ACAD_XDICTIONARY
360
86EEE
102
}
330
2
100
AcDbSymbolTableRecord
100
AcDbLayerTableRecord
  2
SIZE
 70
     0
 62
    30
  6
CONTINUOUS
370
    -3
390
F
347
86E91
348
0
  0
LAYER
  5
31
102
{ACAD_XDICTIONARY
360
86EF0
102
}
330
2
100
AcDbSymbolTableRecord
100
AcDbLayerTableRecord
  2
DETAIL
 70
     0
 62
     5
  6
CONTINUOUS
370
    -3
390
F
347
86E91
348
0
  0
LAYER
  5
32
102
{ACAD_XDICTIONARY
360
86EF2
102
}
330
2
100
AcDbSymbolTableRecord
100
AcDbLayerTableRecord
  2
OUTLINE
 70
     0
 62
     3
  6
CONTINUOUS
370
    -3
390
F
347
86E91
348
0
  0
LAYER
  5
33
102
{ACAD_XDICTIONARY
360
86EF4
102
}
330
2
100
AcDbSymbolTableRecord
100
AcDbLayerTableRecord
  2
BASIS
 70
     0
 62
     6
  6
CENTER
370
    -3
390
F
347
86E91
348
0
  0
LAYER
  5
34
102
{ACAD_XDICTIONARY
360
86EF6
102
}
330
2
100
AcDbSymbolTableRecord
100
AcDbLayerTableRecord
  2
NOTE
 70
     0
 62
     4
  6
CONTINUOUS
370
    -3
390
F
347
86E91
348
0
  0
LAYER
  5
35
102
{ACAD_XDICTIONARY
360
86EF8
102
}
330
2
100
AcDbSymbolTableRecord
100
AcDbLayerTableRecord
  2
ARRANGE
 70
     0
 62
     1
  6
CONTINUOUS
370
    -3
390
F
347
86E91
348
0
  0
LAYER
  5
37
102
{ACAD_XDICTIONARY
360
86EFA
102
}
330
2
100
AcDbSymbolTableRecord
100
AcDbLayerTableRecord
  2
ETC
 70
     0
 62
    61
  6
CONTINUOUS
370
    -3
390
F
347
86E91
348
0
  0
LAYER
  5
3A
330
2
100
AcDbSymbolTableRecord
100
AcDbLayerTableRecord
  2
DEFPOINTS
 70
     0
 62
     7
  6
CONTINUOUS
290
     0
370
    -3
390
F
347
86E91
348
0
  0
LAYER
  5
6ACAC
102
{ACAD_XDICTIONARY
360
86EFE
102
}
330
2
100
AcDbSymbolTableRecord
100
AcDbLayerTableRecord
  2
SERVICE_SPACE
 70
     0
 62
     2
  6
CONTINUOUS
370
    18
390
F
347
86E91
348
0
  0
ENDTAB
  0
TABLE
  2
STYLE
  5
3
330
0
100
AcDbSymbolTable
 70
     5
  0
STYLE
  5
11
330
3
100
AcDbSymbolTableRecord
100
AcDbTextStyleTableRecord
  2
STANDARD
 70
     0
 40
45.0
 41
0.9
 50
0.0
 71
     0
 42
64.0
  3
SIMPLEX.shx
  4
@extfont2.shx
  0
STYLE
  5
A6080
330
3
100
AcDbSymbolTableRecord
100
AcDbTextStyleTableRecord
  2

 70
     1
 40
0.0
 41
1.0
 50
0.0
 71
     0
 42
64.0
  3
ltypeshp.shx
  4

  0
STYLE
  5
A7BFE
330
3
100
AcDbSymbolTableRecord
100
AcDbTextStyleTableRecord
  2

 70
     1
 40
0.0
 41
1.0
 50
0.0
 71
     0
 42
64.0
  3
genltshp.shx
  4

  0
STYLE
  5
A7C12
330
3
100
AcDbSymbolTableRecord
100
AcDbTextStyleTableRecord
  2
ACANSTS
 70
     0
 40
0.0
 41
1.0
 50
0.0
 71
     0
 42
64.0
  3
romans.shx
  4

  0
STYLE
  5
A7C13
330
3
100
AcDbSymbolTableRecord
100
AcDbTextStyleTableRecord
  2
ACANSGDT
 70
     0
 40
0.0
 41
1.0
 50
0.0
 71
     0
 42
64.0
  3
amgdt.shx
  4

  0
ENDTAB
  0
TABLE
  2
VIEW
  5
6
330
0
100
AcDbSymbolTable
 70
     1
  0
VIEW
  5
3C
330
6
100
AcDbSymbolTableRecord
100
AcDbViewTableRecord
  2
ALL
 70
     0
 40
4282.62
 10
0.0
 20
41.30990399999999
 41
5940.0
 11
0.0
 21
0.0
 31
1.0
 12
0.0
 22
0.0
 32
0.0
 42
50.0
 43
0.0
 44
0.0
 50
0.0
 71
     0
281
     0
 72
     0
 73
     0
348
86E9F
  0
ENDTAB
  0
TABLE
  2
UCS
  5
7
330
0
100
AcDbSymbolTable
 70
     0
  0
ENDTAB
  0
TABLE
  2
APPID
  5
9
330
0
100
AcDbSymbolTable
 70
    13
  0
APPID
  5
12
330
9
100
AcDbSymbolTableRecord
100
AcDbRegAppTableRecord
  2
ACAD
 70
     0
  0
APPID
  5
86ECF
330
9
100
AcDbSymbolTableRecord
100
AcDbRegAppTableRecord
  2
ACAD_NAV_VCDISPLAY
 70
     0
  0
APPID
  5
86EE4
330
9
100
AcDbSymbolTableRecord
100
AcDbRegAppTableRecord
  2
ACAD_EXEMPT_FROM_CAD_STANDARDS
 70
     0
  0
APPID
  5
8A3A7
330
9
100
AcDbSymbolTableRecord
100
AcDbRegAppTableRecord
  2
AcadAnnoMonitorAlertIconDisabled
 70
     0
  0
APPID
  5
8A621
330
9
100
AcDbSymbolTableRecord
100
AcDbRegAppTableRecord
  2
ACAD_MLEADERVER
 70
     0
  0
APPID
  5
A43D5
330
9
100
AcDbSymbolTableRecord
100
AcDbRegAppTableRecord
  2
AcadAnnoPO
 70
     0
  0
APPID
  5
A43D6
330
9
100
AcDbSymbolTableRecord
100
AcDbRegAppTableRecord
  2
ACAD_DSTYLE_DIMJAG
 70
     0
  0
APPID
  5
A43D7
330
9
100
AcDbSymbolTableRecord
100
AcDbRegAppTableRecord
  2
ACAD_DSTYLE_DIMTALN
 70
     0
  0
APPID
  5
A7BB6
330
9
100
AcDbSymbolTableRecord
100
AcDbRegAppTableRecord
  2
MCAD_NO_VIS
 70
     0
  0
APPID
  5
A7BB7
330
9
100
AcDbSymbolTableRecord
100
AcDbRegAppTableRecord
  2
ACAD_TEMP_GRAPHIC
 70
     0
  0
APPID
  5
A7BC3
330
9
100
AcDbSymbolTableRecord
100
AcDbRegAppTableRecord
  2
ACATTRIBSERVICES
 70
     0
  0
APPID
  5
A7BDB
330
9
100
AcDbSymbolTableRecord
100
AcDbRegAppTableRecord
  2
DESIGNERASSEMBLIES
 70
     0
  0
APPID
  5
A7BF5
330
9
100
AcDbSymbolTableRecord
100
AcDbRegAppTableRecord
  2
ACAD_DSTYLE_DIMBREAK
 70
     0
  0
ENDTAB
  0
TABLE
  2
DIMSTYLE
  5
A
330
0
100
AcDbSymbolTable
 70
     7
100
AcDbDimStyleTable
 71
     1
340
213
  0
DIMSTYLE
105
213
102
{ACAD_REACTORS
330
A79D1
330
A79D2
330
A79D3
330
A79D4
330
A79D5
330
A79E4
330
A79E5
330
A7DC6
102
}
330
A
100
AcDbSymbolTableRecord
100
AcDbDimStyleTableRecord
  2
STANDARD
 70
     0
 41
10.0
 42
10.0
 43
200.0
 44
10.0
 73
     0
 74
     0
 77
     1
 78
     8
140
45.0
141
0.082
147
10.0
172
     1
176
   256
177
   256
178
   256
271
     3
272
     3
340
11
341
46
342
46
345
14
371
    -1
1001
ACAD_DSTYLE_DIMJAG
1070
   388
1040
1.5
1001
ACAD_DSTYLE_DIMTALN
1070
   392
1070
     0
  0
DIMSTYLE
105
A7BF4
330
A
100
AcDbSymbolTableRecord
100
AcDbDimStyleTableRecord
  2
AM_ANSI
 70
     0
  4
mm
 41
0.12
 42
0.05
 43
0.5
 44
0.1
 47
0.1
 48
0.1
 78
     7
 79
     2
 90
        1
140
0.12
141
0.0
146
0.71
147
0.06
176
   256
177
   256
178
     2
274
     4
284
     7
340
11
345
13
346
13
347
13
371
    -1
372
    -1
1001
ACAD_DSTYLE_DIMJAG
1070
   388
1040
1.5
1001
ACAD_DSTYLE_DIMBREAK
1070
   391
1040
0.125
  0
DIMSTYLE
105
A7C03
330
A
100
AcDbSymbolTableRecord
100
AcDbDimStyleTableRecord
  2
AM_ANSI$3
 70
     0
  4
mm
 41
0.12
 42
0.05
 43
0.5
 44
0.1
 47
0.1
 48
0.1
 78
     7
 79
     2
 90
        1
140
0.12
141
0.0
146
0.71
147
0.06
176
   256
177
   256
178
     2
274
     4
284
     7
288
     1
289
     0
340
11
345
13
346
13
347
13
371
    -1
372
    -1
1001
ACAD_DSTYLE_DIMBREAK
1070
   391
1040
0.125
1001
ACAD_DSTYLE_DIMJAG
1070
   388
1040
1.5
  0
DIMSTYLE
105
A7C04
330
A
100
AcDbSymbolTableRecord
100
AcDbDimStyleTableRecord
  2
AM_ANSI$4
 70
     0
  4
mm
 41
0.12
 42
0.05
 43
0.5
 44
0.1
 47
0.1
 48
0.1
 78
     7
 79
     2
 90
        1
140
0.12
141
0.0
146
0.71
147
0.06
176
   256
177
   256
178
     2
274
     4
284
     7
288
     1
289
     0
340
11
345
13
346
13
347
13
371
    -1
372
    -1
1001
ACAD_DSTYLE_DIMBREAK
1070
   391
1040
0.125
1001
ACAD_DSTYLE_DIMJAG
1070
   388
1040
1.5
  0
DIMSTYLE
105
A7C05
330
A
100
AcDbSymbolTableRecord
100
AcDbDimStyleTableRecord
  2
AM_ANSI$7
 70
     0
  4
mm
 41
0.12
 42
0.05
 43
0.5
 44
0.1
 47
0.1
 48
0.1
 78
     7
 79
     2
 90
        1
140
0.12
141
0.0
146
0.71
147
0.06
176
   256
177
   256
178
     2
274
     4
284
     7
340
11
345
13
346
13
347
13
371
    -1
372
    -1
1001
ACAD_DSTYLE_DIMBREAK
1070
   391
1040
0.125
1001
ACAD_DSTYLE_DIMJAG
1070
   388
1040
1.5
  0
DIMSTYLE
105
A7C06
330
A
100
AcDbSymbolTableRecord
100
AcDbDimStyleTableRecord
  2
AM_ANSI$SF
 70
     0
  4
mm
 41
0.12
 42
0.05
 43
0.5
 44
0.1
 47
0.1
 48
0.1
 75
     1
 76
     1
 78
     7
 79
     2
 90
        1
140
0.12
141
0.0
146
0.71
147
0.06
176
   256
177
   256
178
     2
274
     4
284
     7
340
11
345
13
346
13
347
13
371
    -1
372
    -1
1001
ACAD_DSTYLE_DIMBREAK
1070
   391
1040
0.125
1001
ACAD_DSTYLE_DIMJAG
1070
   388
1040
1.5
  0
DIMSTYLE
105
A7C0B
330
A
100
AcDbSymbolTableRecord
100
AcDbDimStyleTableRecord
  2
AM_ANSI$SH
 70
     0
  4
mm
 41
0.12
 42
0.05
 43
0.5
 44
0.1
 47
0.1
 48
0.1
 75
     1
 76
     1
 78
     7
 79
     2
 90
        1
140
0.12
141
0.0
146
0.71
147
0.06
173
     1
176
   256
177
   256
178
     2
274
     4
284
     7
340
11
343
A7C07
345
13
346
13
347
13
371
    -1
372
    -1
1001
ACAD_DSTYLE_DIMBREAK
1070
   391
1040
0.125
1001
ACAD_DSTYLE_DIMJAG
1070
   388
1040
1.5
  0
ENDTAB
  0
TABLE
  2
BLOCK_RECORD
  5
1
330
0
100
AcDbSymbolTable
 70
    16
  0
BLOCK_RECORD
  5
1E
102
{ACAD_XDICTIONARY
360
66E76
102
}
330
1
100
AcDbSymbolTableRecord
100
AcDbBlockTableRecord
  2
*MODEL_SPACE
340
851A5
 70
     0
280
     1
281
     0
  0
BLOCK_RECORD
  5
1A
102
{ACAD_XDICTIONARY
360
66E74
102
}
330
1
100
AcDbSymbolTableRecord
100
AcDbBlockTableRecord
  2
*PAPER_SPACE
340
851A6
 70
     0
280
     1
281
     0
  0
BLOCK_RECORD
  5
46
330
1
100
AcDbSymbolTableRecord
100
AcDbBlockTableRecord
  2
_ORIGIN
340
0
102
{BLKREFS
331
A7DA7
331
A7DA8
331
A7DB1
331
A7DB2
331
A7DBA
331
A7DBB
331
A7DCF
331
A7DD0
331
A7C84
331
A7C85
331
A7ACB
331
A7ACC
331
A7AD5
331
A7AD6
331
A7B05
331
A7B06
331
A7D82
331
A7D83
331
A7D8B
331
A7D8C
331
A7D94
331
A7D95
331
A7D9D
331
A7D9E
102
}
 70
     0
280
     1
281
     0
  0
BLOCK_RECORD
  5
A5C7D
330
1
100
AcDbSymbolTableRecord
100
AcDbBlockTableRecord
  2
_Open30
340
0
 70
     0
280
     1
281
     0
  0
BLOCK_RECORD
  5
A7A02
330
1
100
AcDbSymbolTableRecord
100
AcDbBlockTableRecord
  2
*D2
340
0
 70
     0
280
     1
281
     0
  0
BLOCK_RECORD
  5
A7A0E
330
1
100
AcDbSymbolTableRecord
100
AcDbBlockTableRecord
  2
*D3
340
0
 70
     0
280
     1
281
     0
  0
BLOCK_RECORD
  5
A7A1B
330
1
100
AcDbSymbolTableRecord
100
AcDbBlockTableRecord
  2
*D4
340
0
 70
     0
280
     1
281
     0
  0
BLOCK_RECORD
  5
A7A28
330
1
100
AcDbSymbolTableRecord
100
AcDbBlockTableRecord
  2
*D5
340
0
 70
     0
280
     1
281
     0
  0
BLOCK_RECORD
  5
A7A35
330
1
100
AcDbSymbolTableRecord
100
AcDbBlockTableRecord
  2
*D6
340
0
 70
     0
280
     1
281
     0
  0
BLOCK_RECORD
  5
A7A41
330
1
100
AcDbSymbolTableRecord
100
AcDbBlockTableRecord
  2
*D7
340
0
 70
     0
280
     1
281
     0
  0
BLOCK_RECORD
  5
A7A4D
330
1
100
AcDbSymbolTableRecord
100
AcDbBlockTableRecord
  2
*D8
340
0
 70
     0
280
     1
281
     0
  0
BLOCK_RECORD
  5
A7A5A
330
1
100
AcDbSymbolTableRecord
100
AcDbBlockTableRecord
  2
*D9
340
0
 70
     0
280
     1
281
     0
  0
BLOCK_RECORD
  5
A7A67
330
1
100
AcDbSymbolTableRecord
100
AcDbBlockTableRecord
  2
*D10
340
0
 70
     0
280
     1
281
     0
  0
BLOCK_RECORD
  5
A7A74
330
1
100
AcDbSymbolTableRecord
100
AcDbBlockTableRecord
  2
*D11
340
0
 70
     0
280
     1
281
     0
  0
BLOCK_RECORD
  5
A7A80
330
1
100
AcDbSymbolTableRecord
100
AcDbBlockTableRecord
  2
*D12
340
0
 70
     0
280
     1
281
     0
  0
BLOCK_RECORD
  5
A7C07
330
1
100
AcDbSymbolTableRecord
100
AcDbBlockTableRecord
  2
GENAXEH
340
0
 70
     0
280
     1
281
     0
  0
BLOCK_RECORD
  5
A7C17
330
1
100
AcDbSymbolTableRecord
100
AcDbBlockTableRecord
  2
_ACMFILLEDHALF
340
0
 70
     0
280
     1
281
     0
  0
BLOCK_RECORD
  5
A7DC7
330
1
100
AcDbSymbolTableRecord
100
AcDbBlockTableRecord
  2
*D15
340
0
 70
     0
280
     1
281
     0
  0
ENDTAB
  0
ENDSEC
  0
SECTION
  2
BLOCKS
  0
BLOCK
  5
1F
330
1E
100
AcDbEntity
  8
0
100
AcDbBlockBegin
  2
*MODEL_SPACE
 70
     0
 10
0.0
 20
0.0
 30
0.0
  3
*MODEL_SPACE
  1

  0
ENDBLK
  5
20
330
1E
100
AcDbEntity
  8
0
100
AcDbBlockEnd
  0
BLOCK
  5
1B
330
1A
100
AcDbEntity
 67
     1
  8
0
100
AcDbBlockBegin
  2
*PAPER_SPACE
 70
     0
 10
0.0
 20
0.0
 30
0.0
  3
*PAPER_SPACE
  1

  0
ENDBLK
  5
1C
330
1A
100
AcDbEntity
 67
     1
  8
0
100
AcDbBlockEnd
  0
BLOCK
  5
47
330
46
100
AcDbEntity
  8
0
100
AcDbBlockBegin
  2
_ORIGIN
 70
     0
 10
0.0
 20
0.0
 30
0.0
  3
_ORIGIN
  1

  0
CIRCLE
  5
48
330
46
100
AcDbEntity
  8
0
  6
ByBlock
 62
     0
100
AcDbCircle
 10
0.0
 20
0.0
 30
0.0
 40
0.5
  0
LINE
  5
49
330
46
100
AcDbEntity
  8
0
  6
ByBlock
 62
     0
100
AcDbLine
 10
0.0
 20
0.0
 30
0.0
 11
-1.0
 21
0.0
 31
0.0
  0
ENDBLK
  5
4A
330
46
100
AcDbEntity
  8
0
100
AcDbBlockEnd
  0
BLOCK
  5
A5C81
330
A5C7D
100
AcDbEntity
  8
0
100
AcDbBlockBegin
  2
_Open30
 70
     0
 10
0.0
 20
0.0
 30
0.0
  3
_Open30
  1

  0
LINE
  5
A5C7E
330
A5C7D
100
AcDbEntity
  8
0
  6
ByBlock
 62
     0
370
    -2
100
AcDbLine
 10
-1.0
 20
0.26794919
 30
0.0
 11
0.0
 21
0.0
 31
0.0
  0
LINE
  5
A5C7F
330
A5C7D
100
AcDbEntity
  8
0
  6
ByBlock
 62
     0
370
    -2
100
AcDbLine
 10
0.0
 20
0.0
 30
0.0
 11
-1.0
 21
-0.26794919
 31
0.0
  0
LINE
  5
A5C80
330
A5C7D
100
AcDbEntity
  8
0
  6
ByBlock
 62
     0
370
    -2
100
AcDbLine
 10
0.0
 20
0.0
 30
0.0
 11
-1.0
 21
0.0
 31
0.0
  0
ENDBLK
  5
A5C82
330
A5C7D
100
AcDbEntity
  8
0
100
AcDbBlockEnd
  0
BLOCK
  5
A7A03
330
A7A02
100
AcDbEntity
  8
0
100
AcDbBlockBegin
  2
*D2
 70
     1
 10
0.0
 20
0.0
 30
0.0
  3
*D2
  1

  0
LINE
  5
A7D7F
330
A7A02
100
AcDbEntity
  8
SIZE
440
 16777216
100
AcDbLine
 10
420.0
 20
18.39999999999932
 30
0.0
 11
420.0
 21
-424.1545442113722
 31
0.0
  0
LINE
  5
A7D80
330
A7A02
100
AcDbEntity
  8
SIZE
440
 16777216
100
AcDbLine
 10
-420.0
 20
18.39999999999995
 30
0.0
 11
-420.0
 21
-424.1545442113722
 31
0.0
  0
LINE
  5
A7D81
330
A7A02
100
AcDbEntity
  8
SIZE
440
 16777216
100
AcDbLine
 10
410.0
 20
-414.1545442113722
 30
0.0
 11
-410.0
 21
-414.1545442113722
 31
0.0
  0
INSERT
  5
A7D82
330
A7A02
100
AcDbEntity
  8
SIZE
440
 16777216
100
AcDbBlockReference
  2
_ORIGIN
 10
420.0
 20
-414.1545442113722
 30
0.0
 41
10.0
 42
10.0
 43
10.0
  0
INSERT
  5
A7D83
330
A7A02
100
AcDbEntity
  8
SIZE
440
 16777216
100
AcDbBlockReference
  2
_ORIGIN
 10
-420.0
 20
-414.1545442113722
 30
0.0
 41
10.0
 42
10.0
 43
10.0
 50
180.0
  0
MTEXT
  5
A7D84
330
A7A02
100
AcDbEntity
  8
SIZE
440
 16777216
100
AcDbMText
 10
-0.0000000000009075
 20
-381.6545442113723
 30
0.0
 40
45.0
 41
0.0
 46
0.0
 71
     5
 72
     1
  1
\A1;840
 73
     1
 44
1.0
  0
POINT
  5
A7D85
330
A7A02
100
AcDbEntity
  8
DEFPOINTS
 62
     0
440
 16777216
100
AcDbPoint
 10
420.0
 20
28.39999999999932
 30
0.0
  0
POINT
  5
A7D86
330
A7A02
100
AcDbEntity
  8
DEFPOINTS
 62
     0
440
 16777216
100
AcDbPoint
 10
-420.0
 20
28.39999999999995
 30
0.0
  0
POINT
  5
A7D87
330
A7A02
100
AcDbEntity
  8
DEFPOINTS
 62
     0
440
 16777216
100
AcDbPoint
 10
-420.0
 20
-414.1545442113722
 30
0.0
  0
ENDBLK
  5
A7A04
330
A7A02
100
AcDbEntity
  8
0
100
AcDbBlockEnd
  0
BLOCK
  5
A7A0F
330
A7A0E
100
AcDbEntity
  8
0
100
AcDbBlockBegin
  2
*D3
 70
     1
 10
0.0
 20
0.0
 30
0.0
  3
*D3
  1

  0
LINE
  5
A7D88
330
A7A0E
100
AcDbEntity
  8
SIZE
440
 16777216
100
AcDbLine
 10
-419.9999999999991
 20
18.39999999999995
 30
0.0
 11
-419.9999999999991
 21
-424.1545442113722
 31
0.0
  0
LINE
  5
A7D89
330
A7A0E
100
AcDbEntity
  8
SIZE
440
 16777216
100
AcDbLine
 10
-500.9999999988995
 20
59.00963527010063
 30
0.0
 11
-500.9999999988996
 21
-424.1545442113722
 31
0.0
  0
LINE
  5
A7D8A
330
A7A0E
100
AcDbEntity
  8
SIZE
440
 16777216
100
AcDbLine
 10
-429.9999999999991
 20
-414.1545442113722
 30
0.0
 11
-490.9999999988995
 21
-414.1545442113722
 31
0.0
  0
INSERT
  5
A7D8B
330
A7A0E
100
AcDbEntity
  8
SIZE
440
 16777216
100
AcDbBlockReference
  2
_ORIGIN
 10
-419.9999999999991
 20
-414.1545442113722
 30
0.0
 41
10.0
 42
10.0
 43
10.0
  0
INSERT
  5
A7D8C
330
A7A0E
100
AcDbEntity
  8
SIZE
440
 16777216
100
AcDbBlockReference
  2
_ORIGIN
 10
-500.9999999988996
 20
-414.1545442113722
 30
0.0
 41
10.0
 42
10.0
 43
10.0
 50
180.0
  0
MTEXT
  5
A7D8D
330
A7A0E
100
AcDbEntity
  8
SIZE
440
 16777216
100
AcDbMText
 10
-460.4999999994492
 20
-381.6545442113723
 30
0.0
 40
45.0
 41
0.0
 46
0.0
 71
     5
 72
     1
  1
\A1;81
 73
     1
 44
1.0
  0
POINT
  5
A7D8E
330
A7A0E
100
AcDbEntity
  8
DEFPOINTS
 62
     0
440
 16777216
100
AcDbPoint
 10
-419.9999999999991
 20
28.39999999999995
 30
0.0
  0
POINT
  5
A7D8F
330
A7A0E
100
AcDbEntity
  8
DEFPOINTS
 62
     0
440
 16777216
100
AcDbPoint
 10
-500.9999999988995
 20
69.00963527010063
 30
0.0
  0
POINT
  5
A7D90
330
A7A0E
100
AcDbEntity
  8
DEFPOINTS
 62
     0
440
 16777216
100
AcDbPoint
 10
-500.9999999988996
 20
-414.1545442113722
 30
0.0
  0
ENDBLK
  5
A7A10
330
A7A0E
100
AcDbEntity
  8
0
100
AcDbBlockEnd
  0
BLOCK
  5
A7A1C
330
A7A1B
100
AcDbEntity
  8
0
100
AcDbBlockBegin
  2
*D4
 70
     1
 10
0.0
 20
0.0
 30
0.0
  3
*D4
  1

  0
LINE
  5
A7DA3
330
A7A1B
100
AcDbEntity
  8
SIZE
440
 16777216
100
AcDbLine
 10
-285.4999999999992
 20
0.0000000000001974
 30
0.0
 11
-638.3639391144899
 21
0.0000000000001406
 31
0.0
  0
LINE
  5
A7DA4
330
A7A1B
100
AcDbEntity
  8
SIZE
440
 16777216
100
AcDbLine
 10
-464.2375002475575
 20
99.50000000000038
 30
0.0
 11
-638.3639391144899
 21
99.50000000000031
 31
0.0
  0
LINE
  5
A7DA5
330
A7A1B
100
AcDbEntity
  8
SIZE
440
 16777216
100
AcDbLine
 10
-628.3639391144897
 20
89.50000000000029
 30
0.0
 11
-628.3639391144897
 21
10.00000000000014
 31
0.0
  0
LINE
  5
A7DA6
330
A7A1B
100
AcDbEntity
  8
SIZE
440
 16777216
100
AcDbLine
 10
-628.3639391144897
 20
0.0000000000001423
 30
0.0
 11
-628.3639391144897
 21
-193.9285714285729
 31
0.0
  0
INSERT
  5
A7DA7
330
A7A1B
100
AcDbEntity
  8
SIZE
440
 16777216
100
AcDbBlockReference
  2
_ORIGIN
 10
-628.3639391144897
 20
99.50000000000031
 30
0.0
 41
10.0
 42
10.0
 43
10.0
 50
90.0
  0
INSERT
  5
A7DA8
330
A7A1B
100
AcDbEntity
  8
SIZE
440
 16777216
100
AcDbBlockReference
  2
_ORIGIN
 10
-628.3639391144897
 20
0.0000000000001423
 30
0.0
 41
10.0
 42
10.0
 43
10.0
 50
270.0
  0
MTEXT
  5
A7DA9
330
A7A1B
100
AcDbEntity
  8
SIZE
440
 16777216
100
AcDbMText
 10
-660.8639391144897
 20
-122.214285714287
 30
0.0
 40
45.0
 41
0.0
 46
0.0
 71
     5
 72
     1
  1
\A1;99.5
 11
0.0000000000000001
 21
1.0
 31
0.0
 73
     1
 44
1.0
  0
POINT
  5
A7DAA
330
A7A1B
100
AcDbEntity
  8
DEFPOINTS
 62
     0
440
 16777216
100
AcDbPoint
 10
-275.4999999999992
 20
0.000000000000199
 30
0.0
  0
POINT
  5
A7DAB
330
A7A1B
100
AcDbEntity
  8
DEFPOINTS
 62
     0
440
 16777216
100
AcDbPoint
 10
-454.2375002475575
 20
99.50000000000038
 30
0.0
  0
POINT
  5
A7DAC
330
A7A1B
100
AcDbEntity
  8
DEFPOINTS
 62
     0
440
 16777216
100
AcDbPoint
 10
-628.3639391144897
 20
99.50000000000031
 30
0.0
  0
ENDBLK
  5
A7A1D
330
A7A1B
100
AcDbEntity
  8
0
100
AcDbBlockEnd
  0
BLOCK
  5
A7A29
330
A7A28
100
AcDbEntity
  8
0
100
AcDbBlockBegin
  2
*D5
 70
     1
 10
0.0
 20
0.0
 30
0.0
  3
*D5
  1

  0
LINE
  5
A7DAD
330
A7A28
100
AcDbEntity
  8
SIZE
440
 16777216
100
AcDbLine
 10
-285.4999999999992
 20
0.0000000000001974
 30
0.0
 11
-759.6617242065933
 21
0.0000000000001211
 31
0.0
  0
LINE
  5
A7DAE
330
A7A28
100
AcDbEntity
  8
SIZE
440
 16777216
100
AcDbLine
 10
-464.2375002475575
 20
164.5000000000004
 30
0.0
 11
-759.6617242065933
 21
164.5000000000003
 31
0.0
  0
LINE
  5
A7DAF
330
A7A28
100
AcDbEntity
  8
SIZE
440
 16777216
100
AcDbLine
 10
-749.6617242065934
 20
154.5000000000003
 30
0.0
 11
-749.6617242065934
 21
10.00000000000012
 31
0.0
  0
LINE
  5
A7DB0
330
A7A28
100
AcDbEntity
  8
SIZE
440
 16777216
100
AcDbLine
 10
-749.6617242065934
 20
0.0000000000001227
 30
0.0
 11
-749.6617242065934
 21
-224.7857142857156
 31
0.0
  0
INSERT
  5
A7DB1
330
A7A28
100
AcDbEntity
  8
SIZE
440
 16777216
100
AcDbBlockReference
  2
_ORIGIN
 10
-749.6617242065934
 20
164.5000000000003
 30
0.0
 41
10.0
 42
10.0
 43
10.0
 50
90.0
  0
INSERT
  5
A7DB2
330
A7A28
100
AcDbEntity
  8
SIZE
440
 16777216
100
AcDbBlockReference
  2
_ORIGIN
 10
-749.6617242065934
 20
0.0000000000001227
 30
0.0
 41
10.0
 42
10.0
 43
10.0
 50
270.0
  0
MTEXT
  5
A7DB3
330
A7A28
100
AcDbEntity
  8
SIZE
440
 16777216
100
AcDbMText
 10
-782.1617242065931
 20
-137.6428571428583
 30
0.0
 40
45.0
 41
0.0
 46
0.0
 71
     5
 72
     1
  1
\A1;164.5
 11
0.0000000000000001
 21
1.0
 31
0.0
 73
     1
 44
1.0
  0
POINT
  5
A7DB4
330
A7A28
100
AcDbEntity
  8
DEFPOINTS
 62
     0
440
 16777216
100
AcDbPoint
 10
-275.4999999999992
 20
0.000000000000199
 30
0.0
  0
POINT
  5
A7DB5
330
A7A28
100
AcDbEntity
  8
DEFPOINTS
 62
     0
440
 16777216
100
AcDbPoint
 10
-454.2375002475575
 20
164.5000000000004
 30
0.0
  0
POINT
  5
A7DB6
330
A7A28
100
AcDbEntity
  8
DEFPOINTS
 62
     0
440
 16777216
100
AcDbPoint
 10
-749.6617242065934
 20
164.5000000000003
 30
0.0
  0
ENDBLK
  5
A7A2A
330
A7A28
100
AcDbEntity
  8
0
100
AcDbBlockEnd
  0
BLOCK
  5
A7A36
330
A7A35
100
AcDbEntity
  8
0
100
AcDbBlockBegin
  2
*D6
 70
     1
 10
0.0
 20
0.0
 30
0.0
  3
*D6
  1

  0
LINE
  5
A7DB7
330
A7A35
100
AcDbEntity
  8
SIZE
440
 16777216
100
AcDbLine
 10
274.500000000001
 20
-0.0000000000001689
 30
0.0
 11
900.5425949379924
 21
-0.0000000000000682
 31
0.0
  0
LINE
  5
A7DB8
330
A7A35
100
AcDbEntity
  8
SIZE
440
 16777216
100
AcDbLine
 10
367.3000000000021
 20
879.9999999999995
 30
0.0
 11
900.5425949379921
 21
879.9999999999997
 31
0.0
  0
LINE
  5
A7DB9
330
A7A35
100
AcDbEntity
  8
SIZE
440
 16777216
100
AcDbLine
 10
890.5425949379923
 20
9.999999999999928
 30
0.0
 11
890.5425949379921
 21
869.9999999999997
 31
0.0
  0
INSERT
  5
A7DBA
330
A7A35
100
AcDbEntity
  8
SIZE
440
 16777216
100
AcDbBlockReference
  2
_ORIGIN
 10
890.5425949379923
 20
-0.0000000000000698
 30
0.0
 41
10.0
 42
10.0
 43
10.0
 50
270.0
  0
INSERT
  5
A7DBB
330
A7A35
100
AcDbEntity
  8
SIZE
440
 16777216
100
AcDbBlockReference
  2
_ORIGIN
 10
890.5425949379921
 20
879.9999999999997
 30
0.0
 41
10.0
 42
10.0
 43
10.0
 50
90.0
  0
MTEXT
  5
A7DBC
330
A7A35
100
AcDbEntity
  8
SIZE
440
 16777216
100
AcDbMText
 10
858.0425949379922
 20
439.9999999999994
 30
0.0
 40
45.0
 41
0.0
 46
0.0
 71
     5
 72
     1
  1
\A1;880
 11
0.0000000000000001
 21
1.0
 31
0.0
 73
     1
 44
1.0
  0
POINT
  5
A7DBD
330
A7A35
100
AcDbEntity
  8
DEFPOINTS
 62
     0
440
 16777216
100
AcDbPoint
 10
264.500000000001
 20
-0.0000000000001705
 30
0.0
  0
POINT
  5
A7DBE
330
A7A35
100
AcDbEntity
  8
DEFPOINTS
 62
     0
440
 16777216
100
AcDbPoint
 10
357.3000000000021
 20
879.9999999999995
 30
0.0
  0
POINT
  5
A7DBF
330
A7A35
100
AcDbEntity
  8
DEFPOINTS
 62
     0
440
 16777216
100
AcDbPoint
 10
890.5425949379921
 20
879.9999999999997
 30
0.0
  0
ENDBLK
  5
A7A37
330
A7A35
100
AcDbEntity
  8
0
100
AcDbBlockEnd
  0
BLOCK
  5
A7A42
330
A7A41
100
AcDbEntity
  8
0
100
AcDbBlockBegin
  2
*D7
 70
     1
 10
0.0
 20
0.0
 30
0.0
  3
*D7
  1

  0
LINE
  5
A7B02
330
A7A41
100
AcDbEntity
  8
SIZE
440
 16777216
100
AcDbLine
 10
392.3000000000022
 20
880.0000000000999
 30
0.0
 11
933.0425949379923
 21
880.0000000001002
 31
0.0
  0
LINE
  5
A7B03
330
A7A41
100
AcDbEntity
  8
SIZE
440
 16777216
100
AcDbLine
 10
530.0000000000011
 20
1380.000000000004
 30
0.0
 11
933.0425949379923
 21
1380.000000000004
 31
0.0
  0
LINE
  5
A7B04
330
A7A41
100
AcDbEntity
  8
SIZE
440
 16777216
100
AcDbLine
 10
923.0425949379924
 20
890.0000000001002
 30
0.0
 11
923.0425949379924
 21
1370.000000000004
 31
0.0
  0
INSERT
  5
A7B05
330
A7A41
100
AcDbEntity
  8
SIZE
440
 16777216
100
AcDbBlockReference
  2
_ORIGIN
 10
923.0425949379924
 20
880.0000000001002
 30
0.0
 41
10.0
 42
10.0
 43
10.0
 50
270.0
  0
INSERT
  5
A7B06
330
A7A41
100
AcDbEntity
  8
SIZE
440
 16777216
100
AcDbBlockReference
  2
_ORIGIN
 10
923.0425949379924
 20
1380.000000000004
 30
0.0
 41
10.0
 42
10.0
 43
10.0
 50
90.0
  0
MTEXT
  5
A7B07
330
A7A41
100
AcDbEntity
  8
SIZE
440
 16777216
100
AcDbMText
 10
890.5425949379926
 20
1130.000000000051
 30
0.0
 40
45.0
 41
0.0
 46
0.0
 71
     5
 72
     1
  1
\A1;<500 or more>
 11
0.0000000000000001
 21
1.0
 31
0.0
 73
     1
 44
1.0
  0
POINT
  5
A7B08
330
A7A41
100
AcDbEntity
  8
DEFPOINTS
 62
     0
440
 16777216
100
AcDbPoint
 10
382.3000000000021
 20
880.0000000000999
 30
0.0
  0
POINT
  5
A7B09
330
A7A41
100
AcDbEntity
  8
DEFPOINTS
 62
     0
440
 16777216
100
AcDbPoint
 10
520.0000000000011
 20
1380.000000000004
 30
0.0
  0
POINT
  5
A7B0A
330
A7A41
100
AcDbEntity
  8
DEFPOINTS
 62
     0
440
 16777216
100
AcDbPoint
 10
923.0425949379924
 20
1380.000000000004
 30
0.0
  0
ENDBLK
  5
A7A43
330
A7A41
100
AcDbEntity
  8
0
100
AcDbBlockEnd
  0
BLOCK
  5
A7A4E
330
A7A4D
100
AcDbEntity
  8
0
100
AcDbBlockBegin
  2
*D8
 70
     1
 10
0.0
 20
0.0
 30
0.0
  3
*D8
  1

  0
LINE
  5
A7AC7
330
A7A4D
100
AcDbEntity
  8
SIZE
440
 16777216
100
AcDbLine
 10
520.0
 20
-10.00000000000037
 30
0.0
 11
520.0
 21
-603.3413913051902
 31
0.0
  0
LINE
  5
A7AC8
330
A7A4D
100
AcDbEntity
  8
SIZE
440
 16777216
100
AcDbLine
 10
420.0
 20
18.39999999999932
 30
0.0
 11
419.9999999999998
 21
-603.3413913051902
 31
0.0
  0
LINE
  5
A7AC9
330
A7A4D
100
AcDbEntity
  8
SIZE
440
 16777216
100
AcDbLine
 10
429.9999999999998
 20
-593.3413913051903
 30
0.0
 11
510.0
 21
-593.3413913051903
 31
0.0
  0
LINE
  5
A7ACA
330
A7A4D
100
AcDbEntity
  8
SIZE
440
 16777216
100
AcDbLine
 10
520.0
 20
-593.3413913051903
 30
0.0
 11
1016.714285714286
 21
-593.3413913051903
 31
0.0
  0
INSERT
  5
A7ACB
330
A7A4D
100
AcDbEntity
  8
SIZE
440
 16777216
100
AcDbBlockReference
  2
_ORIGIN
 10
419.9999999999998
 20
-593.3413913051903
 30
0.0
 41
10.0
 42
10.0
 43
10.0
 50
180.0
  0
INSERT
  5
A7ACC
330
A7A4D
100
AcDbEntity
  8
SIZE
440
 16777216
100
AcDbBlockReference
  2
_ORIGIN
 10
520.0
 20
-593.3413913051903
 30
0.0
 41
10.0
 42
10.0
 43
10.0
  0
MTEXT
  5
A7ACD
330
A7A4D
100
AcDbEntity
  8
SIZE
440
 16777216
100
AcDbMText
 10
773.3571428571431
 20
-560.8413913051903
 30
0.0
 40
45.0
 41
0.0
 46
0.0
 71
     5
 72
     1
  1
\A1;<100 or more>
 73
     1
 44
1.0
  0
POINT
  5
A7ACE
330
A7A4D
100
AcDbEntity
  8
DEFPOINTS
 62
     0
440
 16777216
100
AcDbPoint
 10
520.0
 20
-0.0000000000003695
 30
0.0
  0
POINT
  5
A7ACF
330
A7A4D
100
AcDbEntity
  8
DEFPOINTS
 62
     0
440
 16777216
100
AcDbPoint
 10
420.0
 20
28.39999999999932
 30
0.0
  0
POINT
  5
A7AD0
330
A7A4D
100
AcDbEntity
  8
DEFPOINTS
 62
     0
440
 16777216
100
AcDbPoint
 10
419.9999999999998
 20
-593.3413913051903
 30
0.0
  0
ENDBLK
  5
A7A4F
330
A7A4D
100
AcDbEntity
  8
0
100
AcDbBlockEnd
  0
BLOCK
  5
A7A5B
330
A7A5A
100
AcDbEntity
  8
0
100
AcDbBlockBegin
  2
*D9
 70
     1
 10
0.0
 20
0.0
 30
0.0
  3
*D9
  1

  0
LINE
  5
A7AD1
330
A7A5A
100
AcDbEntity
  8
SIZE
440
 16777216
100
AcDbLine
 10
-419.9999999999991
 20
18.39999999999995
 30
0.0
 11
-419.9999999999991
 21
-603.3413913051893
 31
0.0
  0
LINE
  5
A7AD2
330
A7A5A
100
AcDbEntity
  8
SIZE
440
 16777216
100
AcDbLine
 10
-770.0
 20
-9.999999999999461
 30
0.0
 11
-770.0
 21
-603.3413913051893
 31
0.0
  0
LINE
  5
A7AD3
330
A7A5A
100
AcDbEntity
  8
SIZE
440
 16777216
100
AcDbLine
 10
-429.9999999999991
 20
-593.3413913051891
 30
0.0
 11
-760.0
 21
-593.3413913051891
 31
0.0
  0
LINE
  5
A7AD4
330
A7A5A
100
AcDbEntity
  8
SIZE
440
 16777216
100
AcDbLine
 10
-770.0
 20
-593.3413913051891
 30
0.0
 11
-1221.714285714286
 21
-593.3413913051891
 31
0.0
  0
INSERT
  5
A7AD5
330
A7A5A
100
AcDbEntity
  8
SIZE
440
 16777216
100
AcDbBlockReference
  2
_ORIGIN
 10
-419.9999999999991
 20
-593.3413913051891
 30
0.0
 41
10.0
 42
10.0
 43
10.0
  0
INSERT
  5
A7AD6
330
A7A5A
100
AcDbEntity
  8
SIZE
440
 16777216
100
AcDbBlockReference
  2
_ORIGIN
 10
-770.0
 20
-593.3413913051891
 30
0.0
 41
10.0
 42
10.0
 43
10.0
 50
180.0
  0
MTEXT
  5
A7AD7
330
A7A5A
100
AcDbEntity
  8
SIZE
440
 16777216
100
AcDbMText
 10
-1000.857142857143
 20
-560.8413913051891
 30
0.0
 40
45.0
 41
0.0
 46
0.0
 71
     5
 72
     1
  1
\A1;{\W0.8;<350 or more>}
 73
     1
 44
1.0
  0
POINT
  5
A7AD8
330
A7A5A
100
AcDbEntity
  8
DEFPOINTS
 62
     0
440
 16777216
100
AcDbPoint
 10
-419.9999999999991
 20
28.39999999999995
 30
0.0
  0
POINT
  5
A7AD9
330
A7A5A
100
AcDbEntity
  8
DEFPOINTS
 62
     0
440
 16777216
100
AcDbPoint
 10
-770.0
 20
0.00000000000054
 30
0.0
  0
POINT
  5
A7ADA
330
A7A5A
100
AcDbEntity
  8
DEFPOINTS
 62
     0
440
 16777216
100
AcDbPoint
 10
-770.0
 20
-593.3413913051891
 30
0.0
  0
ENDBLK
  5
A7A5C
330
A7A5A
100
AcDbEntity
  8
0
100
AcDbBlockEnd
  0
BLOCK
  5
A7A68
330
A7A67
100
AcDbEntity
  8
0
100
AcDbBlockBegin
  2
*D10
 70
     1
 10
0.0
 20
0.0
 30
0.0
  3
*D10
  1

  0
LINE
  5
A7D91
330
A7A67
100
AcDbEntity
  8
SIZE
440
 16777216
100
AcDbLine
 10
420.0
 20
18.39999999999932
 30
0.0
 11
420.0
 21
-310.9351487326689
 31
0.0
  0
LINE
  5
A7D92
330
A7A67
100
AcDbEntity
  8
SIZE
440
 16777216
100
AcDbLine
 10
245.0
 20
-33.14479781211338
 30
0.0
 11
245.0
 21
-310.9351487326689
 31
0.0
  0
LINE
  5
A7D93
330
A7A67
100
AcDbEntity
  8
SIZE
440
 16777216
100
AcDbLine
 10
410.0
 20
-300.9351487326689
 30
0.0
 11
255.0
 21
-300.9351487326689
 31
0.0
  0
INSERT
  5
A7D94
330
A7A67
100
AcDbEntity
  8
SIZE
440
 16777216
100
AcDbBlockReference
  2
_ORIGIN
 10
420.0
 20
-300.9351487326689
 30
0.0
 41
10.0
 42
10.0
 43
10.0
  0
INSERT
  5
A7D95
330
A7A67
100
AcDbEntity
  8
SIZE
440
 16777216
100
AcDbBlockReference
  2
_ORIGIN
 10
245.0
 20
-300.9351487326689
 30
0.0
 41
10.0
 42
10.0
 43
10.0
 50
180.0
  0
MTEXT
  5
A7D96
330
A7A67
100
AcDbEntity
  8
SIZE
440
 16777216
100
AcDbMText
 10
332.5
 20
-268.4351487326689
 30
0.0
 40
45.0
 41
0.0
 46
0.0
 71
     5
 72
     1
  1
\A1;175
 73
     1
 44
1.0
  0
POINT
  5
A7D97
330
A7A67
100
AcDbEntity
  8
DEFPOINTS
 62
     0
440
 16777216
100
AcDbPoint
 10
420.0
 20
28.39999999999932
 30
0.0
  0
POINT
  5
A7D98
330
A7A67
100
AcDbEntity
  8
DEFPOINTS
 62
     0
440
 16777216
100
AcDbPoint
 10
245.0
 20
-23.14479781211338
 30
0.0
  0
POINT
  5
A7D99
330
A7A67
100
AcDbEntity
  8
DEFPOINTS
 62
     0
440
 16777216
100
AcDbPoint
 10
245.0
 20
-300.9351487326689
 30
0.0
  0
ENDBLK
  5
A7A69
330
A7A67
100
AcDbEntity
  8
0
100
AcDbBlockEnd
  0
BLOCK
  5
A7A75
330
A7A74
100
AcDbEntity
  8
0
100
AcDbBlockBegin
  2
*D11
 70
     1
 10
0.0
 20
0.0
 30
0.0
  3
*D11
  1

  0
LINE
  5
A7D9A
330
A7A74
100
AcDbEntity
  8
SIZE
440
 16777216
100
AcDbLine
 10
245.0
 20
-33.14479781211338
 30
0.0
 11
245.0
 21
-310.9351487326688
 31
0.0
  0
LINE
  5
A7D9B
330
A7A74
100
AcDbEntity
  8
SIZE
440
 16777216
100
AcDbLine
 10
-255.0
 20
-28.81593642231272
 30
0.0
 11
-255.0
 21
-310.9351487326688
 31
0.0
  0
LINE
  5
A7D9C
330
A7A74
100
AcDbEntity
  8
SIZE
440
 16777216
100
AcDbLine
 10
235.0
 20
-300.9351487326688
 30
0.0
 11
-245.0
 21
-300.9351487326688
 31
0.0
  0
INSERT
  5
A7D9D
330
A7A74
100
AcDbEntity
  8
SIZE
440
 16777216
100
AcDbBlockReference
  2
_ORIGIN
 10
245.0
 20
-300.9351487326688
 30
0.0
 41
10.0
 42
10.0
 43
10.0
  0
INSERT
  5
A7D9E
330
A7A74
100
AcDbEntity
  8
SIZE
440
 16777216
100
AcDbBlockReference
  2
_ORIGIN
 10
-255.0
 20
-300.9351487326688
 30
0.0
 41
10.0
 42
10.0
 43
10.0
 50
180.0
  0
MTEXT
  5
A7D9F
330
A7A74
100
AcDbEntity
  8
SIZE
440
 16777216
100
AcDbMText
 10
-5.000000000000026
 20
-268.4351487326688
 30
0.0
 40
45.0
 41
0.0
 46
0.0
 71
     5
 72
     1
  1
\A1;500
 73
     1
 44
1.0
  0
POINT
  5
A7DA0
330
A7A74
100
AcDbEntity
  8
DEFPOINTS
 62
     0
440
 16777216
100
AcDbPoint
 10
245.0
 20
-23.14479781211338
 30
0.0
  0
POINT
  5
A7DA1
330
A7A74
100
AcDbEntity
  8
DEFPOINTS
 62
     0
440
 16777216
100
AcDbPoint
 10
-255.0
 20
-18.81593642231272
 30
0.0
  0
POINT
  5
A7DA2
330
A7A74
100
AcDbEntity
  8
DEFPOINTS
 62
     0
440
 16777216
100
AcDbPoint
 10
-255.0
 20
-300.9351487326688
 30
0.0
  0
ENDBLK
  5
A7A76
330
A7A74
100
AcDbEntity
  8
0
100
AcDbBlockEnd
  0
BLOCK
  5
A7A81
330
A7A80
100
AcDbEntity
  8
0
100
AcDbBlockBegin
  2
*D12
 70
     1
 10
0.0
 20
0.0
 30
0.0
  3
*D12
  1

  0
LINE
  5
A7C7F
330
A7A80
100
AcDbEntity
  8
SIZE
440
 16777216
100
AcDbLine
 10
275.0
 20
-0.0000000000001689
 30
0.0
 11
735.3006966058252
 21
-0.0000000000000949
 31
0.0
  0
LINE
  5
A7C80
330
A7A80
100
AcDbEntity
  8
SIZE
440
 16777216
100
AcDbLine
 10
82.00692573950076
 20
9.999999999399706
 30
0.0
 11
735.3006966058252
 21
9.999999999399811
 31
0.0
  0
LINE
  5
A7C81
330
A7A80
100
AcDbEntity
  8
SIZE
440
 16777216
100
AcDbLine
 10
725.3006966058252
 20
-10.00000000000009
 30
0.0
 11
725.3006966058252
 21
-20.0000000000001
 31
0.0
  0
LINE
  5
A7C82
330
A7A80
100
AcDbEntity
  8
SIZE
440
 16777216
100
AcDbLine
 10
725.3006966058252
 20
19.99999999939981
 30
0.0
 11
725.3006966058252
 21
107.8571428565425
 31
0.0
  0
LINE
  5
A7C83
330
A7A80
100
AcDbEntity
  8
SIZE
440
 16777216
100
AcDbLine
 10
725.3006966058252
 20
-0.0000000000000965
 30
0.0
 11
725.3006966058252
 21
9.999999999399811
 31
0.0
  0
INSERT
  5
A7C84
330
A7A80
100
AcDbEntity
  8
SIZE
440
 16777216
100
AcDbBlockReference
  2
_ORIGIN
 10
725.3006966058252
 20
-0.0000000000000965
 30
0.0
 41
10.0
 42
10.0
 43
10.0
 50
90.0
  0
INSERT
  5
A7C85
330
A7A80
100
AcDbEntity
  8
SIZE
440
 16777216
100
AcDbBlockReference
  2
_ORIGIN
 10
725.3006966058252
 20
9.999999999399811
 30
0.0
 41
10.0
 42
10.0
 43
10.0
 50
270.0
  0
MTEXT
  5
A7C86
330
A7A80
100
AcDbEntity
  8
SIZE
440
 16777216
100
AcDbMText
 10
692.8006966058252
 20
68.92857142797102
 30
0.0
 40
45.0
 41
0.0
 46
0.0
 71
     5
 72
     1
  1
\A1;10
 11
0.0000000000000001
 21
1.0
 31
0.0
 73
     1
 44
1.0
  0
POINT
  5
A7C87
330
A7A80
100
AcDbEntity
  8
DEFPOINTS
 62
     0
440
 16777216
100
AcDbPoint
 10
265.0000000000001
 20
-0.0000000000001705
 30
0.0
  0
POINT
  5
A7C88
330
A7A80
100
AcDbEntity
  8
DEFPOINTS
 62
     0
440
 16777216
100
AcDbPoint
 10
72.00692573950076
 20
9.999999999399706
 30
0.0
  0
POINT
  5
A7C89
330
A7A80
100
AcDbEntity
  8
DEFPOINTS
 62
     0
440
 16777216
100
AcDbPoint
 10
725.3006966058252
 20
9.999999999399811
 30
0.0
  0
ENDBLK
  5
A7A82
330
A7A80
100
AcDbEntity
  8
0
100
AcDbBlockEnd
  0
BLOCK
  5
A7C09
330
A7C07
100
AcDbEntity
  8
0
100
AcDbBlockBegin
  2
GENAXEH
 70
     0
 10
0.0
 20
0.0
 30
0.0
  3
GENAXEH
  1

  0
LINE
  5
A7C08
330
A7C07
100
AcDbEntity
  8
0
100
AcDbLine
 10
-1.0
 20
0.0
 30
0.0
 11
1.0
 21
0.0
 31
0.0
  0
ENDBLK
  5
A7C0A
330
A7C07
100
AcDbEntity
  8
0
100
AcDbBlockEnd
  0
BLOCK
  5
A7C18
330
A7C17
100
AcDbEntity
  8
0
100
AcDbBlockBegin
  2
_ACMFILLEDHALF
 70
     0
 10
0.0
 20
0.0
 30
0.0
  3
_ACMFILLEDHALF
  1

  0
TRACE
  5
A7C1A
330
A7C17
100
AcDbEntity
  8
SIZE
 62
     0
100
AcDbTrace
 10
-0.8
 20
0.0
 30
0.0
 11
-1.0
 21
0.166666666
 31
0.0
 12
0.0
 22
0.0
 32
0.0
 13
0.0
 23
0.0
 33
0.0
  0
LINE
  5
A7C1B
330
A7C17
100
AcDbEntity
  8
SIZE
 62
     0
100
AcDbLine
 10
-1.0
 20
0.0
 30
0.0
 11
-0.8
 21
0.0
 31
0.0
  0
ENDBLK
  5
A7C19
330
A7C17
100
AcDbEntity
  8
0
100
AcDbBlockEnd
  0
BLOCK
  5
A7DC8
330
A7DC7
100
AcDbEntity
  8
0
100
AcDbBlockBegin
  2
*D15
 70
     1
 10
0.0
 20
0.0
 30
0.0
  3
*D15
  1

  0
LINE
  5
A7DCA
330
A7DC7
100
AcDbEntity
  8
SIZE
440
 16777216
370
    -2
100
AcDbLine
 10
275.0
 20
0.0000000000000016
 30
0.0
 11
714.0156662141055
 21
0.0000000000000722
 31
0.0
  0
LINE
  5
A7DCB
330
A7DC7
100
AcDbEntity
  8
SIZE
440
 16777216
370
    -2
100
AcDbLine
 10
267.0000000000001
 20
8.000000000000005
 30
0.0
 11
714.0156662141055
 21
8.000000000000076
 31
0.0
  0
LINE
  5
A7DCC
330
A7DC7
100
AcDbEntity
  8
SIZE
440
 16777216
100
AcDbLine
 10
704.0156662141055
 20
-9.999999999999928
 30
0.0
 11
704.0156662141055
 21
-19.99999999999993
 31
0.0
  0
LINE
  5
A7DCD
330
A7DC7
100
AcDbEntity
  8
SIZE
440
 16777216
100
AcDbLine
 10
704.0156662141055
 20
18.00000000000007
 30
0.0
 11
704.0156662141055
 21
75.00000000000007
 31
0.0
  0
LINE
  5
A7DCE
330
A7DC7
100
AcDbEntity
  8
SIZE
440
 16777216
100
AcDbLine
 10
704.0156662141055
 20
0.0000000000000706
 30
0.0
 11
704.0156662141055
 21
8.000000000000076
 31
0.0
  0
INSERT
  5
A7DCF
330
A7DC7
100
AcDbEntity
  8
SIZE
440
 16777216
100
AcDbBlockReference
  2
_ORIGIN
 10
704.0156662141055
 20
0.0000000000000706
 30
0.0
 41
10.0
 42
10.0
 43
10.0
 50
90.0
  0
INSERT
  5
A7DD0
330
A7DC7
100
AcDbEntity
  8
SIZE
440
 16777216
100
AcDbBlockReference
  2
_ORIGIN
 10
704.0156662141055
 20
8.000000000000076
 30
0.0
 41
10.0
 42
10.0
 43
10.0
 50
270.0
  0
MTEXT
  5
A7DD1
330
A7DC7
100
AcDbEntity
  8
SIZE
440
 16777216
100
AcDbMText
 10
671.5156662141054
 20
51.49999999999987
 30
0.0
 40
45.0
 41
0.0
 46
0.0
 71
     5
 72
     1
  1
\A1;8
 11
0.0000000000000001
 21
1.0
 31
0.0
 73
     1
 44
1.0
  0
POINT
  5
A7DD2
330
A7DC7
100
AcDbEntity
  8
DEFPOINTS
 62
     0
440
 16777216
100
AcDbPoint
 10
265.0000000000001
 20
0.0
 30
0.0
  0
POINT
  5
A7DD3
330
A7DC7
100
AcDbEntity
  8
DEFPOINTS
 62
     0
440
 16777216
100
AcDbPoint
 10
257.0000000000001
 20
8.000000000000001
 30
0.0
  0
POINT
  5
A7DD4
330
A7DC7
100
AcDbEntity
  8
DEFPOINTS
 62
     0
440
 16777216
100
AcDbPoint
 10
704.0156662141055
 20
8.000000000000076
 30
0.0
  0
ENDBLK
  5
A7DC9
330
A7DC7
100
AcDbEntity
  8
0
100
AcDbBlockEnd
  0
ENDSEC
  0
SECTION
  2
ENTITIES
  0
MTEXT
  5
38341
330
1E
100
AcDbEntity
  8
0
  6
Continuous
100
AcDbMText
 10
383.9605305094082
 20
4023.330445893031
 30
0.0
 40
64.0
 41
187.9848
 46
0.0
 71
     1
 72
     5
  1

 73
     1
 44
1.0
  0
LINE
  5
A4B86
330
1E
100
AcDbEntity
  8
BASIS
  6
CENTER
100
AcDbLine
 10
245.0
 20
43.47365920191349
 30
0.0
 11
245.0
 21
-18.81593642231291
 31
0.0
  0
LINE
  5
A4B91
330
1E
100
AcDbEntity
  8
DETAIL
100
AcDbLine
 10
406.3840620423007
 20
27.18700576660012
 30
0.0
 11
401.0987074947557
 21
21.9017001445594
 31
0.0
  0
LINE
  5
A4B94
330
1E
100
AcDbEntity
  8
DETAIL
100
AcDbLine
 10
424.0
 20
567.2016199508997
 30
0.0
 11
424.0
 21
599.9002175272996
 31
0.0
  0
LINE
  5
A4B95
330
1E
100
AcDbEntity
  8
DETAIL
100
AcDbLine
 10
423.0
 20
560.5435306952004
 30
0.0
 11
423.0
 21
608.2494181455004
 31
0.0
  0
LINE
  5
A4B96
330
1E
100
AcDbEntity
  8
DETAIL
100
AcDbLine
 10
418.3000000000011
 20
852.5000000000998
 30
0.0
 11
418.3000000000011
 21
868.1088347048927
 31
0.0
  0
LINE
  5
A4B97
330
1E
100
AcDbEntity
  8
DETAIL
100
AcDbLine
 10
417.3600000000005
 20
852.0999999999995
 30
0.0
 11
417.3600000000005
 21
852.5000000000998
 31
0.0
  0
LINE
  5
A4B98
330
1E
100
AcDbEntity
  8
DETAIL
100
AcDbLine
 10
401.9999999990004
 20
27.18700576670017
 30
0.0
 11
401.9999999990004
 21
27.19999999999982
 31
0.0
  0
LINE
  5
A4B99
330
1E
100
AcDbEntity
  8
DETAIL
100
AcDbLine
 10
423.9998709963002
 20
599.9096503747996
 30
0.0
 11
424.0
 21
599.8983904931992
 31
0.0
  0
LINE
  5
A4B9B
330
1E
100
AcDbEntity
  8
DETAIL
100
AcDbLine
 10
420.1757359313003
 20
611.5707384889993
 30
0.0
 11
422.6485281374007
 21
609.0979462828999
 31
0.0
  0
LINE
  5
A4B9C
330
1E
100
AcDbEntity
  8
DETAIL
100
AcDbLine
 10
-74.8583939597993
 20
10.0581942892004
 30
0.0
 11
-228.3522744084994
 21
19.44628219510014
 31
0.0
  0
LINE
  5
A4B9E
330
1E
100
AcDbEntity
  8
DETAIL
100
AcDbLine
 10
265.0
 20
0.0
 30
0.0
 11
225.0
 21
0.0
 31
0.0
  0
LINE
  5
A4B9F
330
1E
100
AcDbEntity
  8
DETAIL
100
AcDbLine
 10
-234.9999999999995
 20
0.0
 30
0.0
 11
-274.9999999999991
 21
0.0
 31
0.0
  0
LINE
  5
A4BA0
330
1E
100
AcDbEntity
  8
DETAIL
100
AcDbLine
 10
260.0
 20
8.0
 30
0.0
 11
230.0
 21
8.0
 31
0.0
  0
LINE
  5
A4BA1
330
1E
100
AcDbEntity
  8
DETAIL
100
AcDbLine
 10
-239.9999999999995
 20
8.0
 30
0.0
 11
-269.9999999999991
 21
8.0
 31
0.0
  0
LINE
  5
A4BA2
330
1E
100
AcDbEntity
  8
DETAIL
100
AcDbLine
 10
26.29996837740055
 20
8.499999999599822
 30
0.0
 11
-24.6999701424993
 21
8.499999999799911
 31
0.0
  0
LINE
  5
A4BA3
330
1E
100
AcDbEntity
  8
DETAIL
100
AcDbLine
 10
72.00692573950073
 20
9.999999999399731
 30
0.0
 11
-72.95367952629931
 21
10.0
 31
0.0
  0
LINE
  5
A4BA4
330
1E
100
AcDbEntity
  8
DETAIL
100
AcDbLine
 10
226.4522744069
 20
19.44628219330025
 30
0.0
 11
72.00692573950073
 21
9.999999999399731
 31
0.0
  0
LINE
  5
A4BA5
330
1E
100
AcDbEntity
  8
DETAIL
100
AcDbLine
 10
428.0953628557996
 20
569.6125613817002
 30
0.0
 11
432.8807854351007
 21
594.2397187274
 31
0.0
  0
LINE
  5
A4BA6
330
1E
100
AcDbEntity
  8
DETAIL
100
AcDbLine
 10
383.3000000000012
 20
878.7000000000999
 30
0.0
 11
383.3000000000012
 21
879.0000000001001
 31
0.0
  0
LINE
  5
A4BA7
330
1E
100
AcDbEntity
  8
DETAIL
100
AcDbLine
 10
373.3000000000012
 20
878.7000000000999
 30
0.0
 11
373.3000000000012
 21
879.0000000001001
 31
0.0
  0
LINE
  5
A4BA8
330
1E
100
AcDbEntity
  8
DETAIL
100
AcDbLine
 10
358.3000000000012
 20
878.6999999999999
 30
0.0
 11
358.3000000000012
 21
879.0
 31
0.0
  0
LINE
  5
A4BAA
330
1E
100
AcDbEntity
  8
DETAIL
100
AcDbLine
 10
226.4522744069
 20
19.44628219330025
 30
0.0
 11
395.3030676009522
 21
19.50000300212266
 31
0.0
  0
LINE
  5
A4BAB
330
1E
100
AcDbEntity
  8
DETAIL
100
AcDbLine
 10
-401.3799218308991
 20
25.08286555650011
 30
0.0
 11
-415.6607470529998
 21
25.08308835820026
 31
0.0
  0
LINE
  5
A4BB0
330
1E
100
AcDbEntity
  8
DETAIL
100
AcDbLine
 10
418.8000000000001
 20
27.19999999999982
 30
0.0
 11
-418.7999999999991
 21
27.19999999999982
 31
0.0
  0
ARC
  5
A4BB1
330
1E
100
AcDbEntity
  8
DETAIL
100
AcDbCircle
 10
418.8000000000001
 20
28.39999999999964
 30
0.0
 40
1.199999999999999
100
AcDbArc
 50
270.0
 51
0.0
  0
LINE
  5
A4BB9
330
1E
100
AcDbEntity
  8
DETAIL
100
AcDbLine
 10
-228.3522744084994
 20
19.44628219510014
 30
0.0
 11
-393.0005049878992
 21
19.50000000120053
 31
0.0
  0
LINE
  5
A4BBA
330
1E
100
AcDbEntity
  8
DETAIL
100
AcDbLine
 10
432.4335688574008
 20
595.1173622563
 30
0.0
 11
424.0
 21
599.0499999999992
 31
0.0
  0
LINE
  5
A4BC0
330
1E
100
AcDbEntity
  8
DETAIL
100
AcDbLine
 10
225.7665290583244
 20
16.70832300460872
 30
0.0
 11
225.0190265094998
 21
8.217473999199683
 31
0.0
  0
LINE
  5
A4BC1
330
1E
100
AcDbEntity
  8
DETAIL
100
AcDbLine
 10
265.0
 20
0.0
 30
0.0
 11
265.0
 21
7.781695285500062
 31
0.0
  0
LINE
  5
A4BC4
330
1E
100
AcDbEntity
  8
DETAIL
100
AcDbLine
 10
224.9999999999991
 20
7.781695285500062
 30
0.0
 11
225.0
 21
0.0
 31
0.0
  0
LINE
  5
A4BC6
330
1E
100
AcDbEntity
  8
DETAIL
100
AcDbLine
 10
264.2334708912727
 20
16.71866038027457
 30
0.0
 11
264.9809734905002
 21
8.217473999199683
 31
0.0
  0
LINE
  5
A4BC8
330
1E
100
AcDbEntity
  8
DETAIL
100
AcDbLine
 10
422.6485281374007
 20
559.6950025576997
 30
0.0
 11
420.1757359313003
 21
557.2222103515996
 31
0.0
  0
LINE
  5
A4BD1
330
1E
100
AcDbEntity
  8
DETAIL
100
AcDbLine
 10
26.79999999920074
 20
8.999999999599822
 30
0.0
 11
26.79999999920074
 21
9.499999999599822
 31
0.0
  0
LINE
  5
A4BD6
330
1E
100
AcDbEntity
  8
DETAIL
100
AcDbLine
 10
-25.20000000079927
 20
8.999999999799911
 30
0.0
 11
-25.20000000079927
 21
9.499999999799911
 31
0.0
  0
LINE
  5
A4BE0
330
1E
100
AcDbEntity
  8
DETAIL
100
AcDbLine
 10
423.6294156465008
 20
566.7186514141993
 30
0.0
 11
423.0
 21
566.5499999999992
 31
0.0
  0
LINE
  5
A4BE1
330
1E
100
AcDbEntity
  8
DETAIL
100
AcDbLine
 10
424.0
 20
568.0499999999993
 30
0.0
 11
427.5171244594003
 21
568.9924106586004
 31
0.0
  0
LINE
  5
A4C28
330
1E
100
AcDbEntity
  8
DETAIL
100
AcDbLine
 10
-274.2334709416747
 20
16.72190661126404
 30
0.0
 11
-274.9809734904993
 21
8.217473999199683
 31
0.0
  0
LINE
  5
A4C2A
330
1E
100
AcDbEntity
  8
DETAIL
100
AcDbLine
 10
-234.9999999999995
 20
0.0
 30
0.0
 11
-234.9999999999995
 21
7.781695285500062
 31
0.0
  0
LINE
  5
A4C2F
330
1E
100
AcDbEntity
  8
DETAIL
100
AcDbLine
 10
-274.9999999999991
 20
7.781695285500062
 30
0.0
 11
-274.9999999999991
 21
0.0
 31
0.0
  0
LINE
  5
A4C31
330
1E
100
AcDbEntity
  8
DETAIL
100
AcDbLine
 10
-235.7665286421312
 20
16.71130713727753
 30
0.0
 11
-235.0190265094989
 21
8.217473999199683
 31
0.0
  0
LINE
  5
A4C33
330
1E
100
AcDbEntity
  8
DETAIL
100
AcDbLine
 10
423.6331910406006
 20
600.3803209273001
 30
0.0
 11
423.0
 21
600.5499999999992
 31
0.0
  0
LINE
  5
A4C35
330
1E
100
AcDbEntity
  8
DETAIL
100
AcDbLine
 10
-356.8999999999996
 20
878.6999999999999
 30
0.0
 11
-356.8999999999996
 21
879.0
 31
0.0
  0
LINE
  5
A4C36
330
1E
100
AcDbEntity
  8
DETAIL
100
AcDbLine
 10
-371.8999999999987
 20
878.6999999999999
 30
0.0
 11
-371.8999999999987
 21
879.0
 31
0.0
  0
LINE
  5
A4C39
330
1E
100
AcDbEntity
  8
DETAIL
100
AcDbLine
 10
-381.8999999999996
 20
878.6999999999999
 30
0.0
 11
-381.8999999999996
 21
879.0
 31
0.0
  0
LINE
  5
A4C3B
330
1E
100
AcDbEntity
  8
DETAIL
100
AcDbLine
 10
-417.3999999999996
 20
852.5
 30
0.0
 11
-417.3999999999996
 21
852.0999999999995
 31
0.0
  0
LINE
  5
A4C3C
330
1E
100
AcDbEntity
  8
DETAIL
100
AcDbLine
 10
-418.3000000000001
 20
852.5
 30
0.0
 11
-418.3000000000001
 21
868.1186843159668
 31
0.0
  0
LINE
  5
A4C3D
330
1E
100
AcDbEntity
  8
DETAIL
100
AcDbLine
 10
-420.0
 20
28.39999999999964
 30
0.0
 11
-420.0
 21
850.3000000000001
 31
0.0
  0
LINE
  5
A4C56
330
1E
100
AcDbEntity
  8
DETAIL
100
AcDbLine
 10
418.8000000000001
 20
851.5
 30
0.0
 11
406.2000008826501
 21
851.4999999999997
 31
0.0
  0
LINE
  5
A4C57
330
1E
100
AcDbEntity
  8
DETAIL
100
AcDbLine
 10
418.3000000000011
 20
852.5000000000998
 30
0.0
 11
-418.3000000000001
 21
852.5
 31
0.0
  0
LINE
  5
A4C74
330
1E
100
AcDbEntity
  8
DETAIL
100
AcDbLine
 10
388.3000000000011
 20
878.5
 30
0.0
 11
-386.8999999999997
 21
878.5
 31
0.0
  0
LINE
  5
A4C75
330
1E
100
AcDbEntity
  8
DETAIL
100
AcDbLine
 10
357.3000000000011
 20
879.9999999999995
 30
0.0
 11
-355.8999999999987
 21
879.9999999999995
 31
0.0
  0
LINE
  5
A4C76
330
1E
100
AcDbEntity
  8
DETAIL
100
AcDbLine
 10
374.3000000000011
 20
880.0000000000999
 30
0.0
 11
382.3000000000011
 21
880.0000000000999
 31
0.0
  0
LINE
  5
A4C77
330
1E
100
AcDbEntity
  8
DETAIL
100
AcDbLine
 10
-372.8999999999996
 20
879.9999999999995
 30
0.0
 11
-380.8999999999987
 21
879.9999999999995
 31
0.0
  0
LINE
  5
A4C79
330
1E
100
AcDbEntity
  8
DETAIL
100
AcDbLine
 10
-401.9799218308988
 20
25.08286555650011
 30
0.0
 11
-398.7987804592994
 21
21.90172418489965
 31
0.0
  0
LINE
  5
A4C7A
330
1E
100
AcDbEntity
  8
DETAIL
100
AcDbLine
 10
-415.1618552018168
 20
872.7591040391674
 30
0.0
 11
-412.5041176233999
 21
873.8254564017998
 31
0.0
  0
ARC
  5
A4C7E
330
1E
100
AcDbEntity
  8
DETAIL
100
AcDbCircle
 10
260.0
 20
7.781695285500062
 30
0.0
 40
5.0
100
AcDbArc
 50
0.0
 51
4.999999999997346
  0
ARC
  5
A4C80
330
1E
100
AcDbEntity
  8
DETAIL
100
AcDbCircle
 10
261.2448872146996
 20
16.45719297748457
 30
0.0
 40
2.9999995991
100
AcDbArc
 50
5.000004016204924
 51
90.00000891131454
  0
ARC
  5
A4C8B
330
1E
100
AcDbEntity
  8
DETAIL
100
AcDbCircle
 10
421.8000000000001
 20
608.2494181455004
 30
0.0
 40
1.199999999999999
100
AcDbArc
 50
0.0
 51
44.99999999998964
  0
ARC
  5
A4C8C
330
1E
100
AcDbEntity
  8
DETAIL
100
AcDbCircle
 10
421.8000000000001
 20
560.5435306952004
 30
0.0
 40
1.199999999999999
100
AcDbArc
 50
315.0000000000104
 51
0.0
  0
ARC
  5
A4C8E
330
1E
100
AcDbEntity
  8
DETAIL
100
AcDbCircle
 10
427.3100518176006
 20
569.7651431826996
 30
0.0
 40
0.7999966457
100
AcDbArc
 50
285.0025064049151
 51
349.0055427237838
  0
ARC
  5
A4C8F
330
1E
100
AcDbEntity
  8
DETAIL
100
AcDbCircle
 10
432.0958498766003
 20
594.3923179198
 30
0.0
 40
0.7996313803000003
100
AcDbArc
 50
348.998409578596
 51
64.99996802223072
  0
ARC
  5
A4C91
330
1E
100
AcDbEntity
  8
DETAIL
100
AcDbCircle
 10
420.6000000000003
 20
611.9950025577
 30
0.0
 40
0.6
100
AcDbArc
 50
180.0
 51
224.9999999999896
  0
ARC
  5
A4C92
330
1E
100
AcDbEntity
  8
DETAIL
100
AcDbCircle
 10
420.6000000000003
 20
556.7979462828998
 30
0.0
 40
0.6
100
AcDbArc
 50
135.0000000000104
 51
180.0
  0
ARC
  5
A4C95
330
1E
100
AcDbEntity
  8
DETAIL
100
AcDbCircle
 10
423.5000007977005
 20
599.8983879257003
 30
0.0
 40
0.4999992022999999
100
AcDbArc
 50
359.9998730039059
 51
74.99987256972012
  0
ARC
  5
A4C96
330
1E
100
AcDbEntity
  8
DETAIL
100
AcDbCircle
 10
423.5000024874006
 20
567.2016107777999
 30
0.0
 40
0.4999975126
100
AcDbArc
 50
284.9998992213871
 51
359.9998992667993
  0
ARC
  5
A4C9A
330
1E
100
AcDbEntity
  8
DETAIL
100
AcDbCircle
 10
418.8000000000001
 20
850.3000000000001
 30
0.0
 40
1.199999999999999
100
AcDbArc
 50
0.0
 51
90.0
  0
ARC
  5
A4C9B
330
1E
100
AcDbEntity
  8
DETAIL
100
AcDbCircle
 10
417.9600000000008
 20
852.0999999999995
 30
0.0
 40
0.6
100
AcDbArc
 50
180.0
 51
270.0
  0
ARC
  5
A4C9C
330
1E
100
AcDbEntity
  8
DETAIL
100
AcDbCircle
 10
357.3000000000011
 20
879.0
 30
0.0
 40
1.0
100
AcDbArc
 50
0.0
 51
90.0
  0
ARC
  5
A4C9D
330
1E
100
AcDbEntity
  8
DETAIL
100
AcDbCircle
 10
382.3000000000011
 20
879.0000000001001
 30
0.0
 40
1.0
100
AcDbArc
 50
0.0
 51
90.0
  0
ARC
  5
A4C9E
330
1E
100
AcDbEntity
  8
DETAIL
100
AcDbCircle
 10
374.3000000000011
 20
879.0000000001001
 30
0.0
 40
1.0
100
AcDbArc
 50
90.0
 51
180.0
  0
ARC
  5
A4C9F
330
1E
100
AcDbEntity
  8
DETAIL
100
AcDbCircle
 10
358.5
 20
878.6999999999999
 30
0.0
 40
0.2
100
AcDbArc
 50
180.0
 51
270.0
  0
ARC
  5
A4CA0
330
1E
100
AcDbEntity
  8
DETAIL
100
AcDbCircle
 10
383.5
 20
878.7000000000999
 30
0.0
 40
0.2
100
AcDbArc
 50
180.0000000092235
 51
269.9999999998958
  0
ARC
  5
A4CA1
330
1E
100
AcDbEntity
  8
DETAIL
100
AcDbCircle
 10
373.1000000000004
 20
878.7000000000999
 30
0.0
 40
0.2
100
AcDbArc
 50
270.0
 51
359.9999999918187
  0
ARC
  5
A4CA3
330
1E
100
AcDbEntity
  8
DETAIL
100
AcDbCircle
 10
229.9999999999991
 20
7.781695285500062
 30
0.0
 40
5.0
100
AcDbArc
 50
175.0000000000026
 51
180.0
  0
ARC
  5
A4CA5
330
1E
100
AcDbEntity
  8
DETAIL
100
AcDbCircle
 10
228.7551131525997
 20
16.44685577636589
 30
0.0
 40
3.0
100
AcDbArc
 50
90.0
 51
175.0000000000026
  0
ARC
  5
A4CAB
330
1E
100
AcDbEntity
  8
DETAIL
100
AcDbCircle
 10
27.29999999920074
 20
9.499999999599822
 30
0.0
 40
0.5
100
AcDbArc
 50
89.99999999979158
 51
179.9999999997915
  0
ARC
  5
A4CAC
330
1E
100
AcDbEntity
  8
DETAIL
100
AcDbCircle
 10
-25.70000000079927
 20
9.499999999799911
 30
0.0
 40
0.5
100
AcDbArc
 50
359.9999999998177
 51
89.99999999979158
  0
ARC
  5
A4CAD
330
1E
100
AcDbEntity
  8
DETAIL
100
AcDbCircle
 10
-24.70000000079926
 20
8.999999999799911
 30
0.0
 40
0.5
100
AcDbArc
 50
180.0
 51
269.9999999997916
  0
ARC
  5
A4CAE
330
1E
100
AcDbEntity
  8
DETAIL
100
AcDbCircle
 10
26.29999999920074
 20
8.999999999599822
 30
0.0
 40
0.5
100
AcDbArc
 50
269.9999999997916
 51
359.9999999998177
  0
ARC
  5
A4CB1
330
1E
100
AcDbEntity
  8
DETAIL
100
AcDbCircle
 10
-72.95367952619926
 20
41.19999999999982
 30
0.0
 40
31.2
100
AcDbArc
 50
266.4999999998078
 51
269.9999999997916
  0
ARC
  5
A4CB5
330
1E
100
AcDbEntity
  8
DETAIL
100
AcDbCircle
 10
-239.9999999999995
 20
7.781695285500062
 30
0.0
 40
5.0
100
AcDbArc
 50
0.0
 51
4.999999999997346
  0
ARC
  5
A4CB6
330
1E
100
AcDbEntity
  8
DETAIL
100
AcDbCircle
 10
-269.9999999999991
 20
7.781695285500062
 30
0.0
 40
5.0
100
AcDbArc
 50
175.0000000000026
 51
180.0
  0
ARC
  5
A4CB9
330
1E
100
AcDbEntity
  8
DETAIL
100
AcDbCircle
 10
-271.2448868473994
 20
16.4604393830212
 30
0.0
 40
3.0
100
AcDbArc
 50
90.0
 51
175.0000000000026
  0
ARC
  5
A4CBA
330
1E
100
AcDbEntity
  8
DETAIL
100
AcDbCircle
 10
-238.7551123187041
 20
16.44983973448753
 30
0.0
 40
2.9999995991
100
AcDbArc
 50
5.000004016204924
 51
90.00000891131454
  0
ARC
  5
A4CCC
330
1E
100
AcDbEntity
  8
DETAIL
100
AcDbCircle
 10
-393.0005051647995
 20
27.69999975810061
 30
0.0
 40
8.1999997569
100
AcDbArc
 50
225.000001168056
 51
270.0000011876958
  0
ARC
  5
A4CCF
330
1E
100
AcDbEntity
  8
DETAIL
100
AcDbCircle
 10
-418.7999999999991
 20
28.39999999999964
 30
0.0
 40
1.199999999999999
100
AcDbArc
 50
180.0
 51
270.0
  0
ARC
  5
A4CEE
330
1E
100
AcDbEntity
  8
DETAIL
100
AcDbCircle
 10
-386.9123534946512
 20
806.1090186953752
 30
0.0
 40
72.39098235868403
100
AcDbArc
 50
89.99022249614153
 51
110.702853869693
  0
ARC
  5
A4CEF
330
1E
100
AcDbEntity
  8
DETAIL
100
AcDbCircle
 10
-372.8999999999996
 20
879.0
 30
0.0
 40
1.0
100
AcDbArc
 50
0.0
 51
90.0
  0
ARC
  5
A4CF0
330
1E
100
AcDbEntity
  8
DETAIL
100
AcDbCircle
 10
-380.8999999999987
 20
879.0
 30
0.0
 40
1.0
100
AcDbArc
 50
90.0
 51
180.0
  0
ARC
  5
A4CF1
330
1E
100
AcDbEntity
  8
DETAIL
100
AcDbCircle
 10
-355.8999999999987
 20
879.0
 30
0.0
 40
1.0
100
AcDbArc
 50
90.0
 51
180.0
  0
ARC
  5
A4CF2
330
1E
100
AcDbEntity
  8
DETAIL
100
AcDbCircle
 10
-371.6999999999988
 20
878.6999999999999
 30
0.0
 40
0.2
100
AcDbArc
 50
180.0
 51
270.0
  0
ARC
  5
A4CF3
330
1E
100
AcDbEntity
  8
DETAIL
100
AcDbCircle
 10
-382.0999999999994
 20
878.6999999999999
 30
0.0
 40
0.2
100
AcDbArc
 50
270.0000000001042
 51
0.0
  0
ARC
  5
A4CF4
330
1E
100
AcDbEntity
  8
DETAIL
100
AcDbCircle
 10
-357.0999999999994
 20
878.6999999999999
 30
0.0
 40
0.2
100
AcDbArc
 50
270.0000000001042
 51
359.9999999923138
  0
ARC
  5
A4CF5
330
1E
100
AcDbEntity
  8
DETAIL
100
AcDbCircle
 10
-418.7999999999991
 20
850.3000000000001
 30
0.0
 40
1.199999999999999
100
AcDbArc
 50
90.0
 51
180.0
  0
ARC
  5
A4CF6
330
1E
100
AcDbEntity
  8
DETAIL
100
AcDbCircle
 10
-418.0
 20
852.0999999999995
 30
0.0
 40
0.6
100
AcDbArc
 50
275.6298665849111
 51
0.0
  0
LINE
  5
A4EB3
330
1E
100
AcDbEntity
  8
BASIS
  6
CENTERX2
100
AcDbLine
 10
0.0
 20
950.0
 30
0.0
 11
0.0
 21
-50.0
 31
0.0
  0
POINT
  5
A4EB4
330
1E
100
AcDbEntity
  8
ARRANGE
100
AcDbPoint
 10
0.0
 20
0.0
 30
0.0
 50
0.0000016514376077
  0
CIRCLE
  5
A4EB5
330
1E
100
AcDbEntity
  8
ARRANGE
100
AcDbCircle
 10
0.0
 20
0.0
 30
0.0
 40
40.0
  0
LINE
  5
A4EB7
330
1E
100
AcDbEntity
  8
DETAIL
100
AcDbLine
 10
420.0
 20
850.3000000000001
 30
0.0
 11
420.0
 21
28.39999999999964
 31
0.0
  0
ARC
  5
A4EB9
330
1E
100
AcDbEntity
  8
DETAIL
100
AcDbCircle
 10
389.3684774615822
 20
817.7852549462652
 30
0.0
 40
60.72414602961426
100
AcDbArc
 50
64.56644197159396
 51
91.00820534269331
  0
LINE
  5
A5234
330
1E
100
AcDbEntity
  8
DETAIL
100
AcDbLine
 10
-463.3999991179494
 20
390.2562494855001
 30
0.0
 11
-463.3999991179494
 21
346.0365649644
 31
0.0
  0
LINE
  5
A5235
330
1E
100
AcDbEntity
  8
DETAIL
100
AcDbLine
 10
-181.1583730626494
 20
16.51455221290007
 30
0.0
 11
-181.1312362358494
 21
16.51368166869997
 31
0.0
  0
LINE
  5
A5236
330
1E
100
AcDbEntity
  8
DETAIL
100
AcDbLine
 10
-181.1583921109495
 20
16.51322977180007
 30
0.0
 11
-181.1312587275497
 21
16.51209206210024
 31
0.0
  0
LINE
  5
A5237
330
1E
100
AcDbEntity
  8
DETAIL
100
AcDbLine
 10
-181.1585554229496
 20
16.51144972669999
 30
0.0
 11
-181.1314464583493
 21
16.51010386140024
 31
0.0
  0
LINE
  5
A5238
330
1E
100
AcDbEntity
  8
DETAIL
100
AcDbLine
 10
-181.1585271827498
 20
16.51118834120007
 30
0.0
 11
-181.1314102381498
 21
16.50971326939998
 31
0.0
  0
LINE
  5
A5239
330
1E
100
AcDbEntity
  8
DETAIL
100
AcDbLine
 10
-209.6055690497496
 20
18.25098724220015
 30
0.0
 11
-209.6337251414498
 21
18.25288074180025
 31
0.0
  0
LINE
  5
A523A
330
1E
100
AcDbEntity
  8
DETAIL
100
AcDbLine
 10
-209.6052814281498
 20
18.25305644700029
 30
0.0
 11
-209.6333700131499
 21
18.25539006279996
 31
0.0
  0
LINE
  5
A523B
330
1E
100
AcDbEntity
  8
DETAIL
100
AcDbLine
 10
-209.6332749352496
 20
18.25627533629995
 30
0.0
 11
-209.6052037788495
 21
18.25378436549999
 31
0.0
  0
LINE
  5
A523F
330
1E
100
AcDbEntity
  8
DETAIL
100
AcDbLine
 10
-317.6569210556663
 20
28.30000000088486
 30
0.0
 11
-227.7754825176494
 21
28.30000000050543
 31
0.0
  0
LINE
  5
A5240
330
1E
100
AcDbEntity
  8
DETAIL
100
AcDbLine
 10
-163.2245157184497
 20
28.30000000029844
 30
0.0
 11
415.0000008818499
 21
28.29999999810025
 31
0.0
  0
LINE
  5
A5241
330
1E
100
AcDbEntity
  8
DETAIL
100
AcDbLine
 10
420.0000000000001
 20
28.39999999999964
 30
0.0
 11
415.8402522282503
 21
28.40000000000009
 31
0.0
  0
LINE
  5
A5242
330
1E
100
AcDbEntity
  8
DETAIL
100
AcDbLine
 10
415.9050134454433
 20
29.30000000000018
 30
0.0
 11
393.8000008825502
 21
29.30000000000018
 31
0.0
  0
LINE
  5
A5243
330
1E
100
AcDbEntity
  8
DETAIL
100
AcDbLine
 10
-170.1228010344493
 20
43.49719767689459
 30
0.0
 11
-220.8771861328496
 21
43.49719767710593
 31
0.0
  0
LINE
  5
A5244
330
1E
100
AcDbEntity
  8
DETAIL
100
AcDbLine
 10
204.5642144443836
 20
43.49719767551071
 30
0.0
 11
315.4357873195503
 21
43.4971976750892
 31
0.0
  0
LINE
  5
A5245
330
1E
100
AcDbEntity
  8
DETAIL
100
AcDbLine
 10
-222.7754825176304
 20
47.18993643590393
 30
0.0
 11
-168.2245157184306
 21
47.18993643569617
 31
0.0
  0
LINE
  5
A5246
330
1E
100
AcDbEntity
  8
DETAIL
100
AcDbLine
 10
202.7245174823683
 20
47.18993643420897
 30
0.0
 11
317.2754842815684
 21
47.18993643379135
 31
0.0
  0
LINE
  5
A5247
330
1E
100
AcDbEntity
  8
DETAIL
100
AcDbLine
 10
180.7089330701501
 20
51.499999999
 30
0.0
 11
-177.7254825175496
 21
51.50000000030013
 31
0.0
  0
LINE
  5
A5248
330
1E
100
AcDbEntity
  8
DETAIL
100
AcDbLine
 10
339.3434208135504
 20
51.49999999830015
 30
0.0
 11
390.6647600489505
 21
51.4999999982001
 31
0.0
  0
LINE
  5
A5249
330
1E
100
AcDbEntity
  8
DETAIL
100
AcDbLine
 10
389.8000008825502
 20
52.0
 30
0.0
 11
375.3181682968502
 21
52.0
 31
0.0
  0
LINE
  5
A524A
330
1E
100
AcDbEntity
  8
DETAIL
100
AcDbLine
 10
-319.1084382998497
 20
60.0999999999999
 30
0.0
 11
386.8595833294503
 21
60.0999999999999
 31
0.0
  0
LINE
  5
A524C
330
1E
100
AcDbEntity
  8
DETAIL
100
AcDbLine
 10
-391.2945922304493
 20
93.09999999999993
 30
0.0
 11
-391.2945922304493
 21
818.0999999999997
 31
0.0
  0
LINE
  5
A524E
330
1E
100
AcDbEntity
  8
DETAIL
100
AcDbLine
 10
-319.1084382998497
 20
62.5
 30
0.0
 11
-303.7999991174497
 21
62.5
 31
0.0
  0
LINE
  5
A524F
330
1E
100
AcDbEntity
  8
DETAIL
100
AcDbLine
 10
-239.3920866366493
 20
67.09999999999991
 30
0.0
 11
-249.8920866366493
 21
67.09999999999991
 31
0.0
  0
LINE
  5
A5250
330
1E
100
AcDbEntity
  8
DETAIL
100
AcDbLine
 10
-379.8301261363495
 20
81.63553390600009
 30
0.0
 11
-344.8301261363495
 21
81.63553390600009
 31
0.0
  0
LINE
  5
A5251
330
1E
100
AcDbEntity
  8
DETAIL
100
AcDbLine
 10
-188.396550329021
 20
60.0999999999999
 30
0.0
 11
-181.2610164235493
 21
52.9644660944
 31
0.0
  0
LINE
  5
A5252
330
1E
100
AcDbEntity
  8
DETAIL
100
AcDbLine
 10
-333.3656600423497
 20
818.0999999999997
 30
0.0
 11
-333.3656600423497
 21
93.09999999999993
 31
0.0
  0
LINE
  5
A5256
330
1E
100
AcDbEntity
  8
DETAIL
100
AcDbLine
 10
-319.1084382998497
 20
852.5000000000117
 30
0.0
 11
-319.1084382998497
 21
27.19999999999982
 31
0.0
  0
LINE
  5
A5258
330
1E
100
AcDbEntity
  8
DETAIL
100
AcDbLine
 10
-315.7309392251495
 20
852.5
 30
0.0
 11
-315.7309392251495
 21
62.5
 31
0.0
  0
LINE
  5
A525B
330
1E
100
AcDbEntity
  8
DETAIL
100
AcDbLine
 10
-314.7999991174497
 20
845.0999999999996
 30
0.0
 11
-314.7999991174497
 21
852.5
 31
0.0
  0
LINE
  5
A525C
330
1E
100
AcDbEntity
  8
DETAIL
100
AcDbLine
 10
-310.7999991174497
 20
840.2018050058
 30
0.0
 11
-310.7999991174497
 21
725.0
 31
0.0
  0
LINE
  5
A525D
330
1E
100
AcDbEntity
  8
DETAIL
100
AcDbLine
 10
-310.7999991174497
 20
680.2999999999997
 30
0.0
 11
-310.7999991174497
 21
217.0
 31
0.0
  0
LINE
  5
A525E
330
1E
100
AcDbEntity
  8
DETAIL
100
AcDbLine
 10
-310.7999991174497
 20
173.3999999999999
 30
0.0
 11
-310.7999991174497
 21
69.0
 31
0.0
  0
LINE
  5
A525F
330
1E
100
AcDbEntity
  8
DETAIL
100
AcDbLine
 10
-308.7999991174497
 20
840.0999999999996
 30
0.0
 11
-308.7999991174497
 21
725.0
 31
0.0
  0
LINE
  5
A5260
330
1E
100
AcDbEntity
  8
DETAIL
100
AcDbLine
 10
-308.7999991174497
 20
680.2999999999997
 30
0.0
 11
-308.7999991174497
 21
217.0
 31
0.0
  0
LINE
  5
A5261
330
1E
100
AcDbEntity
  8
DETAIL
100
AcDbLine
 10
-308.7999991174497
 20
173.3999999999999
 30
0.0
 11
-308.7999991174497
 21
69.0
 31
0.0
  0
LINE
  5
A5262
330
1E
100
AcDbEntity
  8
DETAIL
100
AcDbLine
 10
-303.7999991174497
 20
60.0999999999999
 30
0.0
 11
-303.7999991174497
 21
64.0065939801002
 31
0.0
  0
LINE
  5
A5263
330
1E
100
AcDbEntity
  8
DETAIL
100
AcDbLine
 10
-303.3999991174496
 20
840.0999999999996
 30
0.0
 11
-303.3999991174496
 21
65.5
 31
0.0
  0
LINE
  5
A5264
330
1E
100
AcDbEntity
  8
DETAIL
100
AcDbLine
 10
-298.9644652115499
 20
852.5
 30
0.0
 11
-298.9644652115499
 21
867.1156203082999
 31
0.0
  0
LINE
  5
A526F
330
1E
100
AcDbEntity
  8
DETAIL
100
AcDbLine
 10
-313.7999546420656
 20
179.4
 30
0.0
 11
386.8595833294503
 21
179.4
 31
0.0
  0
LINE
  5
A528D
330
1E
100
AcDbEntity
  8
DETAIL
100
AcDbLine
 10
-236.0355330233497
 20
852.5
 30
0.0
 11
-236.0355330233497
 21
867.1156203082999
 31
0.0
  0
LINE
  5
A528E
330
1E
100
AcDbEntity
  8
DETAIL
100
AcDbLine
 10
-232.8920866366493
 20
55.59999999999989
 30
0.0
 11
-232.8920866366493
 21
840.0999999999996
 31
0.0
  0
LINE
  5
A528F
330
1E
100
AcDbEntity
  8
DETAIL
100
AcDbLine
 10
-227.7754825176494
 20
42.18993643590393
 30
0.0
 11
-227.7754825176494
 21
28.30000000049995
 31
0.0
  0
LINE
  5
A5292
330
1E
100
AcDbEntity
  8
DETAIL
100
AcDbLine
 10
-163.2245157184497
 20
42.18993643569617
 30
0.0
 11
-163.2245157184497
 21
28.30000000029844
 31
0.0
  0
LINE
  5
A5293
330
1E
100
AcDbEntity
  8
DETAIL
100
AcDbLine
 10
-421.9999999999918
 20
329.6324144475802
 30
0.0
 11
-449.1850384615495
 21
331.0571219431001
 31
0.0
  0
LINE
  5
A5297
330
1E
100
AcDbEntity
  8
DETAIL
100
AcDbLine
 10
-449.5803390053496
 20
409.2773798113998
 30
0.0
 11
-422.0
 21
418.2387751830263
 31
0.0
  0
LINE
  5
A5298
330
1E
100
AcDbEntity
  8
DETAIL
100
AcDbLine
 10
-249.8920866366493
 20
347.4000000000001
 30
0.0
 11
386.8595833294503
 21
347.4000000000001
 31
0.0
  0
LINE
  5
A5299
330
1E
100
AcDbEntity
  8
DETAIL
100
AcDbLine
 10
-239.3920866366493
 20
354.4000000000001
 30
0.0
 11
-249.8920866366493
 21
354.4000000000001
 31
0.0
  0
LINE
  5
A529A
330
1E
100
AcDbEntity
  8
DETAIL
100
AcDbLine
 10
-49.89208663664975
 20
55.59999999999989
 30
0.0
 11
-49.89208663664975
 21
840.0999999999996
 31
0.0
  0
LINE
  5
A529C
330
1E
100
AcDbEntity
  8
DETAIL
100
AcDbLine
 10
328.6723530000504
 20
60.0999999999999
 30
0.0
 11
335.8078869076503
 21
52.96446609240001
 31
0.0
  0
LINE
  5
A529D
330
1E
100
AcDbEntity
  8
DETAIL
100
AcDbLine
 10
-249.8920866366493
 20
516.1000000000004
 30
0.0
 11
386.8963135223503
 21
516.1000000000004
 31
0.0
  0
LINE
  5
A529E
330
1E
100
AcDbEntity
  8
DETAIL
100
AcDbLine
 10
-239.3920866366493
 20
523.1000000000001
 30
0.0
 11
-249.8920866366493
 21
523.1000000000001
 31
0.0
  0
LINE
  5
A52A1
330
1E
100
AcDbEntity
  8
DETAIL
100
AcDbLine
 10
85.18553478845023
 20
852.5
 30
0.0
 11
85.18553478845023
 21
867.1156203082999
 31
0.0
  0
LINE
  5
A52A2
330
1E
100
AcDbEntity
  8
DETAIL
100
AcDbLine
 10
133.1144669766504
 20
852.5
 30
0.0
 11
133.1144669766504
 21
867.1156203082999
 31
0.0
  0
LINE
  5
A52A4
330
1E
100
AcDbEntity
  8
DETAIL
100
AcDbLine
 10
197.7245174823501
 20
42.18993643420897
 30
0.0
 11
197.7245174823501
 21
28.2999999989263
 31
0.0
  0
LINE
  5
A52A5
330
1E
100
AcDbEntity
  8
DETAIL
100
AcDbLine
 10
204.5642144443836
 20
43.49719767551071
 30
0.0
 11
204.564214444209
 21
28.29999999890015
 31
0.0
  0
LINE
  5
A52A6
330
1E
100
AcDbEntity
  8
DETAIL
100
AcDbLine
 10
-313.7999697200835
 20
686.2972663880801
 30
0.0
 11
386.8595833294503
 21
686.2999999999997
 31
0.0
  0
LINE
  5
A52AF
330
1E
100
AcDbEntity
  8
DETAIL
100
AcDbLine
 10
298.2000008825505
 20
60.0999999999999
 30
0.0
 11
298.2000008825504
 21
840.0999999999996
 31
0.0
  0
LINE
  5
A52BF
330
1E
100
AcDbEntity
  8
DETAIL
100
AcDbLine
 10
316.1079133633502
 20
60.0999999999999
 30
0.0
 11
316.1079133633502
 21
840.0999999999996
 31
0.0
  0
LINE
  5
A52C0
330
1E
100
AcDbEntity
  8
DETAIL
100
AcDbLine
 10
315.4357873195503
 20
28.2999999984786
 30
0.0
 11
315.4357873195503
 21
43.4971976750892
 31
0.0
  0
LINE
  5
A52C1
330
1E
100
AcDbEntity
  8
DETAIL
100
AcDbLine
 10
322.2754842815502
 20
28.29999999845268
 30
0.0
 11
322.2754842815502
 21
42.18993643379135
 31
0.0
  0
LINE
  5
A52C2
330
1E
100
AcDbEntity
  8
DETAIL
100
AcDbLine
 10
353.6323530016503
 20
51.49999999830015
 30
0.0
 11
353.6323530015502
 21
28.29999999829988
 31
0.0
  0
LINE
  5
A52E5
330
1E
100
AcDbEntity
  8
DETAIL
100
AcDbLine
 10
-339.8301261363495
 20
824.5644660941001
 30
0.0
 11
-384.8301261363495
 21
824.5644660941001
 31
0.0
  0
LINE
  5
A52E6
330
1E
100
AcDbEntity
  8
DETAIL
100
AcDbLine
 10
390.6422844359504
 20
828.0999999999997
 30
0.0
 11
403.2000008826503
 21
828.0999999999997
 31
0.0
  0
LINE
  5
A52EA
330
1E
100
AcDbEntity
  8
DETAIL
100
AcDbLine
 10
358.7707703974502
 20
51.49999999830015
 30
0.0
 11
358.7707703973315
 21
28.29999999831398
 31
0.0
  0
LINE
  5
A52EB
330
1E
100
AcDbEntity
  8
DETAIL
100
AcDbLine
 10
361.5420516895501
 20
51.49999999830015
 30
0.0
 11
361.5420516894502
 21
28.29999999829988
 31
0.0
  0
LINE
  5
A52ED
330
1E
100
AcDbEntity
  8
DETAIL
100
AcDbLine
 10
370.3181682968502
 20
56.99999999999999
 30
0.0
 11
370.3181682968493
 21
840.0999999999996
 31
0.0
  0
LINE
  5
A52EE
330
1E
100
AcDbEntity
  8
DETAIL
100
AcDbLine
 10
373.2140807204505
 20
28.29999999825896
 30
0.0
 11
373.2140807204505
 21
51.4999999982001
 31
0.0
  0
LINE
  5
A52EF
330
1E
100
AcDbEntity
  8
DETAIL
100
AcDbLine
 10
375.7544219048323
 20
28.2999999982494
 30
0.0
 11
375.75442190495
 21
51.4999999982001
 31
0.0
  0
LINE
  5
A52F0
330
1E
100
AcDbEntity
  8
DETAIL
100
AcDbLine
 10
387.6422844359504
 20
832.0999999999996
 30
0.0
 11
387.6422844359504
 21
831.0999999999996
 31
0.0
  0
LINE
  5
A52F1
330
1E
100
AcDbEntity
  8
DETAIL
100
AcDbLine
 10
388.3050261357503
 20
829.2223150926002
 30
0.0
 11
388.3050261357503
 21
52.0
 31
0.0
  0
LINE
  5
A52F2
330
1E
100
AcDbEntity
  8
DETAIL
100
AcDbLine
 10
390.8000008825502
 20
32.30000000000018
 30
0.0
 11
390.8000008825502
 21
51.0
 31
0.0
  0
LINE
  5
A52F3
330
1E
100
AcDbEntity
  8
DETAIL
100
AcDbLine
 10
191.3800008830498
 20
60.0999999999999
 30
0.0
 11
184.2444669760501
 21
52.96446609300025
 31
0.0
  0
LINE
  5
A52F6
330
1E
100
AcDbEntity
  8
DETAIL
100
AcDbLine
 10
379.6422844359504
 20
840.0999999999996
 30
0.0
 11
-309.7999991174497
 21
840.0999999999996
 31
0.0
  0
LINE
  5
A52F9
330
1E
100
AcDbEntity
  8
DETAIL
100
AcDbLine
 10
-295.4289313055497
 20
871.7560400315001
 30
0.0
 11
-239.5710669293499
 21
871.7560400315001
 31
0.0
  0
LINE
  5
A52FA
330
1E
100
AcDbEntity
  8
DETAIL
100
AcDbLine
 10
88.72106869444996
 20
871.7560400315001
 30
0.0
 11
129.5789330706502
 21
871.7560400315001
 31
0.0
  0
LINE
  5
A52FC
330
1E
100
AcDbEntity
  8
DETAIL
100
AcDbLine
 10
406.2000008826502
 20
831.0999999999996
 30
0.0
 11
406.2000008826502
 21
852.5000000000998
 31
0.0
  0
LINE
  5
A52FD
330
1E
100
AcDbEntity
  8
DETAIL
100
AcDbLine
 10
415.9000008825501
 20
29.40000000000009
 30
0.0
 11
415.9000008825501
 21
851.5
 31
0.0
  0
ARC
  5
A5301
330
1E
100
AcDbEntity
  8
DETAIL
100
AcDbCircle
 10
-379.8301261363495
 20
93.09999999999993
 30
0.0
 40
11.4644660941
100
AcDbArc
 50
180.0
 51
270.0
  0
ARC
  5
A5302
330
1E
100
AcDbEntity
  8
DETAIL
100
AcDbCircle
 10
-443.3999991179494
 20
390.2562494855001
 30
0.0
 40
20.0
100
AcDbArc
 50
108.0000000000196
 51
180.0
  0
ARC
  5
A5303
330
1E
100
AcDbEntity
  8
DETAIL
100
AcDbCircle
 10
-448.3999991179492
 20
346.0365649644
 30
0.0
 40
15.0
100
AcDbArc
 50
180.0
 51
266.9999999999944
  0
ARC
  5
A5304
330
1E
100
AcDbEntity
  8
DETAIL
100
AcDbCircle
 10
-344.8301261363495
 20
93.09999999999993
 30
0.0
 40
11.4644660941
100
AcDbArc
 50
270.0
 51
0.0
  0
ARC
  5
A5305
330
1E
100
AcDbEntity
  8
DETAIL
100
AcDbCircle
 10
-306.3999991174496
 20
65.5
 30
0.0
 40
3.0
100
AcDbArc
 50
270.0
 51
0.0
  0
ARC
  5
A5306
330
1E
100
AcDbEntity
  8
DETAIL
100
AcDbCircle
 10
-309.7999991174497
 20
69.0
 30
0.0
 40
1.0
100
AcDbArc
 50
180.0
 51
0.0
  0
CIRCLE
  5
A5307
330
1E
100
AcDbEntity
  8
DETAIL
100
AcDbCircle
 10
-309.7999991174497
 20
201.0
 30
0.0
 40
2.5
  0
ARC
  5
A5308
330
1E
100
AcDbEntity
  8
DETAIL
100
AcDbCircle
 10
-309.7999991174497
 20
173.3999999999999
 30
0.0
 40
1.0
100
AcDbArc
 50
0.0
 51
180.0
  0
ARC
  5
A5309
330
1E
100
AcDbEntity
  8
DETAIL
100
AcDbCircle
 10
-249.8920866366493
 20
63.59999999999989
 30
0.0
 40
3.500000000000013
100
AcDbArc
 50
90.0
 51
270.0
  0
ARC
  5
A530A
330
1E
100
AcDbEntity
  8
DETAIL
100
AcDbCircle
 10
-249.8920866366493
 20
350.9000000000002
 30
0.0
 40
3.5
100
AcDbArc
 50
90.0
 51
270.0
  0
ARC
  5
A530B
330
1E
100
AcDbEntity
  8
DETAIL
100
AcDbCircle
 10
-309.7999991174497
 20
217.0
 30
0.0
 40
1.0
100
AcDbArc
 50
180.0
 51
0.0
  0
ARC
  5
A530C
330
1E
100
AcDbEntity
  8
DETAIL
100
AcDbCircle
 10
-384.8301261363495
 20
818.0999999999997
 30
0.0
 40
6.464466094099996
100
AcDbArc
 50
90.0
 51
180.0
  0
ARC
  5
A530D
330
1E
100
AcDbEntity
  8
DETAIL
100
AcDbCircle
 10
-249.8920866366493
 20
519.6000000000004
 30
0.0
 40
3.500000000000131
100
AcDbArc
 50
90.0
 51
270.0
  0
CIRCLE
  5
A530E
330
1E
100
AcDbEntity
  8
DETAIL
100
AcDbCircle
 10
-309.7999991174497
 20
709.0
 30
0.0
 40
2.5
  0
ARC
  5
A530F
330
1E
100
AcDbEntity
  8
DETAIL
100
AcDbCircle
 10
-309.7999991174497
 20
680.2999999999997
 30
0.0
 40
1.0
100
AcDbArc
 50
0.0
 51
180.0
  0
ARC
  5
A5310
330
1E
100
AcDbEntity
  8
DETAIL
100
AcDbCircle
 10
-309.7999991174497
 20
725.0
 30
0.0
 40
1.0
100
AcDbArc
 50
180.0
 51
0.0
  0
ARC
  5
A5311
330
1E
100
AcDbEntity
  8
DETAIL
100
AcDbCircle
 10
-339.8301261363495
 20
818.0999999999997
 30
0.0
 40
6.464466094099996
100
AcDbArc
 50
0.0
 51
90.0
  0
ARC
  5
A5312
330
1E
100
AcDbEntity
  8
DETAIL
100
AcDbCircle
 10
-309.7999991174497
 20
845.0999999999996
 30
0.0
 40
5.0
100
AcDbArc
 50
180.0
 51
270.0
  0
ARC
  5
A532F
330
1E
100
AcDbEntity
  8
DETAIL
100
AcDbCircle
 10
-208.2491123983496
 20
38.63090584359998
 30
0.0
 40
20.4250105715
100
AcDbArc
 50
266.1920957309912
 51
266.5042329361006
  0
ARC
  5
A5330
330
1E
100
AcDbEntity
  8
DETAIL
100
AcDbCircle
 10
-180.0452062391496
 20
36.72866288280011
 30
0.0
 40
20.2481051055
100
AcDbArc
 50
266.4876157001971
 51
266.8480617761878
  0
ARC
  5
A5331
330
1E
100
AcDbEntity
  8
DETAIL
100
AcDbCircle
 10
-208.7458867889495
 20
30.45933337970018
 30
0.0
 40
12.2383976379
100
AcDbArc
 50
265.9736894068096
 51
266.4929968716827
  0
ARC
  5
A5332
330
1E
100
AcDbEntity
  8
DETAIL
100
AcDbCircle
 10
-180.5387554795496
 20
28.72127844550005
 30
0.0
 40
12.2255498572
100
AcDbArc
 50
266.4972214775971
 51
267.0940243151167
  0
ARC
  5
A5334
330
1E
100
AcDbEntity
  8
DETAIL
100
AcDbCircle
 10
-177.7254825175496
 20
56.50000000030013
 30
0.0
 40
5.0
100
AcDbArc
 50
224.9999999998065
 51
269.9999999996874
  0
ARC
  5
A5335
330
1E
100
AcDbEntity
  8
DETAIL
100
AcDbCircle
 10
180.7089330701501
 20
56.499999999
 30
0.0
 40
5.0
100
AcDbArc
 50
269.9999999997916
 51
314.9999999997882
  0
ARC
  5
A533A
330
1E
100
AcDbEntity
  8
DETAIL
100
AcDbCircle
 10
393.8000008825502
 20
32.30000000000018
 30
0.0
 40
3.0
100
AcDbArc
 50
180.0
 51
270.0
  0
ARC
  5
A533B
330
1E
100
AcDbEntity
  8
DETAIL
100
AcDbCircle
 10
339.3434208135504
 20
56.49999999830015
 30
0.0
 40
5.0
100
AcDbArc
 50
224.9999999998065
 51
269.9999999997916
  0
ARC
  5
A533C
330
1E
100
AcDbEntity
  8
DETAIL
100
AcDbCircle
 10
389.8000008825502
 20
51.0
 30
0.0
 40
1.0
100
AcDbArc
 50
0.0
 51
90.0
  0
ARC
  5
A533D
330
1E
100
AcDbEntity
  8
DETAIL
100
AcDbCircle
 10
379.6422844359504
 20
832.0999999999996
 30
0.0
 40
8.0
100
AcDbArc
 50
0.0
 51
90.0
  0
ARC
  5
A533E
330
1E
100
AcDbEntity
  8
DETAIL
100
AcDbCircle
 10
403.2000008826503
 20
831.0999999999996
 30
0.0
 40
3.0
100
AcDbArc
 50
270.0
 51
0.0
  0
ARC
  5
A533F
330
1E
100
AcDbEntity
  8
DETAIL
100
AcDbCircle
 10
390.6422844359504
 20
831.0999999999996
 30
0.0
 40
3.0
100
AcDbArc
 50
180.0
 51
270.0
  0
ARC
  5
A5341
330
1E
100
AcDbEntity
  8
DETAIL
100
AcDbCircle
 10
415.0000008818495
 20
31.89999999810077
 30
0.0
 40
3.600000000000603
100
AcDbArc
 50
269.9999999997937
 51
283.5362028665718
  0
ARC
  5
A5343
330
1E
100
AcDbEntity
  8
DETAIL
100
AcDbCircle
 10
416.9000008825499
 20
29.40000000000009
 30
0.0
 40
1.0
100
AcDbArc
 50
180.0
 51
270.0
  0
SPLINE
  5
A5397
330
1E
100
AcDbEntity
  8
DETAIL
100
AcDbSpline
210
0.0
220
0.0
230
1.0
 70
     8
 71
     3
 72
    11
 73
     7
 74
     0
 42
0.0000001
 43
0.0000000001
 40
0.0
 40
0.0
 40
0.0
 40
0.0
 40
0.2332823262
 40
0.4830174789
 40
0.7416233464000001
 40
1.0
 40
1.0
 40
1.0
 40
1.0
 10
87.76002513455024
 20
871.2615191606001
 30
0.0
 10
87.44075479945058
 20
871.0413282216
 30
0.0
 10
86.83500190165025
 20
870.5025343970001
 30
0.0
 10
86.09081804735025
 20
869.5110232319001
 30
0.0
 10
85.51725701675058
 20
868.3655353168001
 30
0.0
 10
85.27002598785021
 20
867.5367858507
 30
0.0
 10
85.18553478845023
 20
867.1156203082999
 30
0.0
  0
SPLINE
  5
A5398
330
1E
100
AcDbEntity
  8
DETAIL
100
AcDbSpline
210
0.0
220
0.0
230
1.0
 70
     8
 71
     3
 72
     9
 73
     5
 74
     0
 42
0.0000001
 43
0.0000000001
 40
0.0
 40
0.0
 40
0.0
 40
0.0
 40
0.2406268091
 40
1.0
 40
1.0
 40
1.0
 40
1.0
 10
88.72106869444996
 20
871.7560400315001
 30
0.0
 10
88.63898845005044
 20
871.7276737898997
 30
0.0
 10
88.30238920575039
 20
871.5968483049
 30
0.0
 10
87.98563510725035
 20
871.4171154258998
 30
0.0
 10
87.76002513455024
 20
871.2615191606001
 30
0.0
  0
SPLINE
  5
A5399
330
1E
100
AcDbEntity
  8
DETAIL
100
AcDbSpline
210
0.0
220
0.0
230
1.0
 70
     8
 71
     3
 72
     9
 73
     5
 74
     0
 42
0.0000001
 43
0.0000000001
 40
0.0
 40
0.0
 40
0.0
 40
0.0
 40
0.2412868655
 40
1.0
 40
1.0
 40
1.0
 40
1.0
 10
129.5789330706502
 20
871.7560400315001
 30
0.0
 10
129.65483693025
 20
871.7298082964999
 30
0.0
 10
129.9655677325504
 20
871.6100563937002
 30
0.0
 10
130.2595208602502
 20
871.4483855841999
 30
0.0
 10
130.4699936832503
 20
871.3088477116
 30
0.0
  0
SPLINE
  5
A539A
330
1E
100
AcDbEntity
  8
DETAIL
100
AcDbSpline
210
0.0
220
0.0
230
1.0
 70
     8
 71
     3
 72
    11
 73
     7
 74
     0
 42
0.0000001
 43
0.0000000001
 40
0.0
 40
0.0
 40
0.0
 40
0.0
 40
0.2324501783
 40
0.4820504802000001
 40
0.7410423234
 40
1.0
 40
1.0
 40
1.0
 40
1.0
 10
130.4699936832503
 20
871.3088477116
 30
0.0
 10
130.7975140569501
 20
871.0917104320996
 30
0.0
 10
131.4202028555501
 20
870.5532919955997
 30
0.0
 10
132.1852532634502
 20
869.5522494408002
 30
0.0
 10
132.7749824871503
 20
868.3888799476999
 30
0.0
 10
133.0283598968503
 20
867.5448405726998
 30
0.0
 10
133.1144669766504
 20
867.1156203082999
 30
0.0
  0
SPLINE
  5
A539B
330
1E
100
AcDbEntity
  8
DETAIL
100
AcDbSpline
210
0.0
220
0.0
230
1.0
 70
     8
 71
     3
 72
    11
 73
     7
 74
     0
 42
0.0000001
 43
0.0000000001
 40
0.0
 40
0.0
 40
0.0
 40
0.0
 40
0.2324501762
 40
0.4820504783
 40
0.7410423221000002
 40
1.0
 40
1.0
 40
1.0
 40
1.0
 10
-296.3199919181498
 20
871.3088477116
 30
0.0
 10
-296.6475122889497
 20
871.0917104341001
 30
0.0
 10
-297.2702010855496
 20
870.5532920005001
 30
0.0
 10
-298.0352514936494
 20
869.5522494486002
 30
0.0
 10
-298.6249807202498
 20
868.3888799528999
 30
0.0
 10
-298.8783581313496
 20
867.5448405749003
 30
0.0
 10
-298.9644652115499
 20
867.1156203082999
 30
0.0
  0
SPLINE
  5
A539C
330
1E
100
AcDbEntity
  8
DETAIL
100
AcDbSpline
210
0.0
220
0.0
230
1.0
 70
     8
 71
     3
 72
    11
 73
     7
 74
     0
 42
0.0000001
 43
0.0000000001
 40
0.0
 40
0.0
 40
0.0
 40
0.0
 40
0.2351585036
 40
0.4851529288
 40
0.7428667216
 40
1.0
 40
1.0
 40
1.0
 40
1.0
 10
-238.4461128770495
 20
871.1432415434002
 30
0.0
 10
-238.1465279581498
 20
870.9173623210999
 30
0.0
 10
-237.5805797594507
 20
870.3799327792999
 30
0.0
 10
-236.8852113076496
 20
869.4129040761
 30
0.0
 10
-236.3491757291495
 20
868.3104562186002
 30
0.0
 10
-236.1162281492497
 20
867.5178634617996
 30
0.0
 10
-236.0355330233497
 20
867.1156203082999
 30
0.0
  0
SPLINE
  5
A539D
330
1E
100
AcDbEntity
  8
DETAIL
100
AcDbSpline
210
0.0
220
0.0
230
1.0
 70
     8
 71
     3
 72
     9
 73
     5
 74
     0
 42
0.0000001
 43
0.0000000001
 40
0.0
 40
0.0
 40
0.0
 40
0.0
 40
0.2391267497
 40
1.0
 40
1.0
 40
1.0
 40
1.0
 10
-239.5710669293499
 20
871.7560400315001
 30
0.0
 10
-239.4743299198494
 20
871.7226085351999
 30
0.0
 10
-239.0760831523494
 20
871.5647157008998
 30
0.0
 10
-238.7061509471496
 20
871.3393034722997
 30
0.0
 10
-238.4461128770495
 20
871.1432415434002
 30
0.0
  0
SPLINE
  5
A539E
330
1E
100
AcDbEntity
  8
DETAIL
100
AcDbSpline
210
0.0
220
0.0
230
1.0
 70
     8
 71
     3
 72
     9
 73
     5
 74
     0
 42
0.0000001
 43
0.0000000001
 40
0.0
 40
0.0
 40
0.0
 40
0.0
 40
0.2412868655
 40
1.0
 40
1.0
 40
1.0
 40
1.0
 10
-295.4289313055497
 20
871.7560400315001
 30
0.0
 10
-295.5048351652495
 20
871.7298082964999
 30
0.0
 10
-295.8155659674499
 20
871.6100563937002
 30
0.0
 10
-296.1095190952497
 20
871.4483855841999
 30
0.0
 10
-296.3199919181498
 20
871.3088477116
 30
0.0
  0
SPLINE
  5
A53A4
330
1E
100
AcDbEntity
  8
DETAIL
100
AcDbSpline
210
0.0
220
0.0
230
1.0
 70
     8
 71
     3
 72
     9
 73
     5
 74
     0
 42
0.0000001
 43
0.0000000001
 40
0.0
 40
0.0
 40
0.0
 40
0.0
 40
0.5109258144
 40
1.0
 40
1.0
 40
1.0
 40
1.0
 10
-220.8771861328496
 20
27.07786156869997
 30
0.0
 10
-220.8770920627499
 20
26.39767291499993
 30
0.0
 10
-220.7411664382494
 20
25.06307392850022
 30
0.0
 10
-220.3527801653499
 20
23.78094698970017
 30
0.0
 10
-220.1081280780495
 20
23.17756170109988
 30
0.0
  0
SPLINE
  5
A53A6
330
1E
100
AcDbEntity
  8
DETAIL
100
AcDbSpline
210
0.0
220
0.0
230
1.0
 70
     8
 71
     3
 72
    18
 73
    14
 74
     0
 42
0.0000001
 43
0.0000000001
 40
0.0
 40
0.0
 40
0.0
 40
0.0
 40
0.0325568508
 40
0.0653382685
 40
0.1303738334
 40
0.1944207867
 40
0.2577357221
 40
0.3205318274
 40
0.3828887119
 40
0.5066961248
 40
0.6299390986
 40
0.7530239431999999
 40
1.0
 40
1.0
 40
1.0
 40
1.0
 10
-220.1081373248494
 20
23.17755420260029
 30
0.0
 10
-220.0637862458498
 20
23.11679484149999
 30
0.0
 10
-219.9814726893496
 20
22.99011274270015
 30
0.0
 10
-219.8170297963493
 20
22.73779410570023
 30
0.0
 10
-219.6013593662497
 20
22.43185884720015
 30
0.0
 10
-219.3182557179493
 20
22.08861861030027
 30
0.0
 10
-219.0180529389495
 20
21.76751675469995
 30
0.0
 10
-218.7047513538496
 20
21.46478157140018
 30
0.0
 10
-218.2699036106505
 20
21.08783839509988
 30
0.0
 10
-217.6947378431496
 20
20.66129057440003
 30
0.0
 10
-216.9651241450497
 20
20.21331416580006
 30
0.0
 10
-215.9498190582494
 20
19.6934456365002
 30
0.0
 10
-215.1492530120495
 20
19.38471511490024
 30
0.0
 10
-214.6063649318498
 20
19.20888433229993
 30
0.0
  0
SPLINE
  5
A53A8
330
1E
100
AcDbEntity
  8
DETAIL
100
AcDbSpline
210
0.0
220
0.0
230
1.0
 70
     8
 71
     3
 72
     9
 73
     5
 74
     0
 42
0.0000001
 43
0.0000000001
 40
0.0
 40
0.0
 40
0.0
 40
0.0
 40
0.2508266976
 40
1.0
 40
1.0
 40
1.0
 40
1.0
 10
-209.6337251414498
 20
18.25288074180025
 30
0.0
 10
-210.0567109998496
 20
18.2816195907003
 30
0.0
 10
-211.7390565526493
 20
18.44844091640016
 30
0.0
 10
-213.4017771854496
 20
18.81838047680003
 30
0.0
 10
-214.6063490115498
 20
19.20890148519993
 30
0.0
  0
SPLINE
  5
A53A9
330
1E
100
AcDbEntity
  8
DETAIL
100
AcDbSpline
210
0.0
220
0.0
230
1.0
 70
     8
 71
     3
 72
     9
 73
     5
 74
     0
 42
0.0000001
 43
0.0000000001
 40
0.0
 40
0.0
 40
0.0
 40
0.0
 40
0.4839901847000001
 40
1.0
 40
1.0
 40
1.0
 40
1.0
 10
-171.2999031326494
 20
19.48508547319988
 30
0.0
 10
-170.9242332793496
 20
20.16754441090006
 30
0.0
 10
-170.3245464734495
 20
21.6812859099
 30
0.0
 10
-170.1226575932496
 20
23.29823636819992
 30
0.0
 10
-170.1228010344493
 20
24.1287984753003
 30
0.0
  0
SPLINE
  5
A53AA
330
1E
100
AcDbEntity
  8
DETAIL
100
AcDbSpline
210
0.0
220
0.0
230
1.0
 70
     8
 71
     3
 72
    17
 73
    13
 74
     0
 42
0.0000001
 43
0.0000000001
 40
0.0
 40
0.0
 40
0.0
 40
0.0
 40
0.0645405443
 40
0.128561215
 40
0.1918390568
 40
0.2546837849
 40
0.3171174952
 40
0.3792548016
 40
0.5029761613
 40
0.6265184202000002
 40
0.7503405301999999
 40
1.0
 40
1.0
 40
1.0
 40
1.0
 10
-171.2999360373496
 20
19.48512169959986
 30
0.0
 10
-171.3743988906499
 20
19.40719758639989
 30
0.0
 10
-171.5067497176496
 20
19.23755721040015
 30
0.0
 10
-171.7280217177495
 20
19.00545670720021
 30
0.0
 10
-171.9594141725497
 20
18.78788935550028
 30
0.0
 10
-172.1975720800496
 20
18.5817035140999
 30
0.0
 10
-172.4450345964496
 20
18.38984396149999
 30
0.0
 10
-172.7842235450493
 20
18.15114475849987
 30
0.0
 10
-173.2264779810493
 20
17.88260145089998
 30
0.0
 10
-173.7813044140498
 20
17.60515916050008
 30
0.0
 10
-174.5493124469499
 20
17.28893660030007
 30
0.0
 10
-175.1483509343497
 20
17.10849324619994
 30
0.0
 10
-175.5532641681496
 20
17.00912737650014
 30
0.0
  0
SPLINE
  5
A53AB
330
1E
100
AcDbEntity
  8
DETAIL
100
AcDbSpline
210
0.0
220
0.0
230
1.0
 70
     8
 71
     3
 72
     9
 73
     5
 74
     0
 42
0.0000001
 43
0.0000000001
 40
0.0
 40
0.0
 40
0.0
 40
0.0
 40
0.2531709529
 40
1.0
 40
1.0
 40
1.0
 40
1.0
 10
-181.1314102381498
 20
16.50971326939998
 30
0.0
 10
-180.6585318782495
 20
16.48430785600021
 30
0.0
 10
-178.7881506394496
 20
16.44867532170019
 30
0.0
 10
-176.9099456337499
 20
16.67615145810032
 30
0.0
 10
-175.5532479735493
 20
17.00910290330012
 30
0.0
  0
LINE
  5
A53CF
330
1E
100
AcDbEntity
  8
DETAIL
100
AcDbLine
 10
133.1079133633502
 20
55.59999999999989
 30
0.0
 11
133.1079133633502
 21
840.0999999999996
 31
0.0
  0
LINE
  5
A5404
330
1E
100
AcDbEntity
  8
DETAIL
100
AcDbLine
 10
397.7000008825503
 20
37.76350832690014
 30
0.0
 11
397.7000008825503
 21
39.20000000000027
 31
0.0
  0
LINE
  5
A5405
330
1E
100
AcDbEntity
  8
DETAIL
100
AcDbLine
 10
397.7000008825503
 20
40.20000000000027
 30
0.0
 11
397.7000008825503
 21
41.6364916732
 31
0.0
  0
LINE
  5
A5406
330
1E
100
AcDbEntity
  8
DETAIL
100
AcDbLine
 10
398.7000008825503
 20
41.6364916732
 30
0.0
 11
398.7000008825503
 21
40.20000000000027
 31
0.0
  0
LINE
  5
A5407
330
1E
100
AcDbEntity
  8
DETAIL
100
AcDbLine
 10
398.7000008825503
 20
39.20000000000027
 30
0.0
 11
398.7000008825503
 21
37.76350832690014
 31
0.0
  0
LINE
  5
A5408
330
1E
100
AcDbEntity
  8
DETAIL
100
AcDbLine
 10
400.1364925556502
 20
39.20000000000027
 30
0.0
 11
398.7000008825503
 21
39.20000000000027
 31
0.0
  0
LINE
  5
A5409
330
1E
100
AcDbEntity
  8
DETAIL
100
AcDbLine
 10
397.7000008825503
 20
39.20000000000027
 30
0.0
 11
396.2635092094511
 21
39.20000000000027
 31
0.0
  0
LINE
  5
A540A
330
1E
100
AcDbEntity
  8
DETAIL
100
AcDbLine
 10
396.2635092094511
 20
40.20000000000027
 30
0.0
 11
397.7000008825503
 21
40.20000000000027
 31
0.0
  0
LINE
  5
A540B
330
1E
100
AcDbEntity
  8
DETAIL
100
AcDbLine
 10
398.7000008825503
 20
40.20000000000027
 30
0.0
 11
400.1364925556502
 21
40.20000000000027
 31
0.0
  0
CIRCLE
  5
A540C
330
1E
100
AcDbEntity
  8
DETAIL
100
AcDbCircle
 10
398.2000008825503
 20
39.70000000000027
 30
0.0
 40
4.7
  0
LINE
  5
A540D
330
1E
100
AcDbEntity
  8
DETAIL
100
AcDbLine
 10
397.7000008825503
 20
41.6364916732
 30
0.0
 11
398.7000008825503
 21
41.6364916732
 31
0.0
  0
LINE
  5
A540E
330
1E
100
AcDbEntity
  8
DETAIL
100
AcDbLine
 10
396.2635092094511
 20
40.20000000000027
 30
0.0
 11
396.2635092094511
 21
39.20000000000027
 31
0.0
  0
LINE
  5
A540F
330
1E
100
AcDbEntity
  8
DETAIL
100
AcDbLine
 10
397.7000008825503
 20
37.76350832690014
 30
0.0
 11
398.7000008825503
 21
37.76350832690014
 31
0.0
  0
LINE
  5
A5410
330
1E
100
AcDbEntity
  8
DETAIL
100
AcDbLine
 10
400.1364925556502
 20
39.20000000000027
 30
0.0
 11
400.1364925556502
 21
40.20000000000027
 31
0.0
  0
LINE
  5
A5411
330
1E
100
AcDbEntity
  8
DETAIL
100
AcDbLine
 10
-220.8771861328496
 20
27.07786156869997
 30
0.0
 11
-220.8771861328496
 21
43.49719767710593
 31
0.0
  0
LINE
  5
A5412
330
1E
100
AcDbEntity
  8
DETAIL
100
AcDbLine
 10
-170.1228010344493
 20
24.1287984753003
 30
0.0
 11
-170.1228010344493
 21
43.49719767689459
 31
0.0
  0
ARC
  5
A5656
330
1E
100
AcDbEntity
  8
DETAIL
100
AcDbCircle
 10
-413.3
 20
868.1186843159668
 30
0.0
 40
5.0
100
AcDbArc
 50
111.861919995757
 51
180.0
  0
ARC
  5
A5657
330
1E
100
AcDbEntity
  8
DETAIL
100
AcDbCircle
 10
413.3000000000011
 20
868.1088347048927
 30
0.0
 40
5.0
100
AcDbArc
 50
0.0
 51
64.56644197159426
  0
LINE
  5
A565E
330
1E
100
AcDbEntity
  8
DETAIL
100
AcDbLine
 10
-418.7999999999991
 20
851.5000000000004
 30
0.0
 11
-319.1084382998497
 21
851.5000000000004
 31
0.0
  0
ARC
  5
A565F
330
1E
100
AcDbEntity
  8
DETAIL
100
AcDbCircle
 10
395.3004587259702
 20
27.70000258710871
 30
0.0
 40
8.199999999999999
100
AcDbArc
 50
270.0182289668617
 51
314.9997348108017
  0
ARC
  5
A5672
330
1E
100
AcDbEntity
  8
DETAIL
100
AcDbCircle
 10
375.3181682968502
 20
57.0
 30
0.0
 40
5.0
100
AcDbArc
 50
180.0000000000001
 51
270.0
  0
ARC
  5
A5673
330
1E
100
AcDbEntity
  8
DETAIL
100
AcDbCircle
 10
317.2754842815502
 20
42.18993643379135
 30
0.0
 40
5.0
100
AcDbArc
 50
0.0
 51
89.99999999979113
  0
ARC
  5
A5674
330
1E
100
AcDbEntity
  8
DETAIL
100
AcDbCircle
 10
202.7245174823501
 20
42.18993643420897
 30
0.0
 40
5.0
100
AcDbArc
 50
89.99999999979113
 51
180.0
  0
ARC
  5
A5675
330
1E
100
AcDbEntity
  8
DETAIL
100
AcDbCircle
 10
-168.2245157184496
 20
42.18993643569617
 30
0.0
 40
5.0
100
AcDbArc
 50
0.0
 51
89.99999999978179
  0
ARC
  5
A5676
330
1E
100
AcDbEntity
  8
DETAIL
100
AcDbCircle
 10
-222.7754825176494
 20
42.18993643590393
 30
0.0
 40
5.0
100
AcDbArc
 50
89.99999999978177
 51
180.0
  0
ARC
  5
A5678
330
1E
100
AcDbEntity
  8
DETAIL
100
AcDbCircle
 10
260.0
 20
3.0
 30
0.0
 40
5.0
100
AcDbArc
 50
0.0
 51
90.0
  0
ARC
  5
A5679
330
1E
100
AcDbEntity
  8
DETAIL
100
AcDbCircle
 10
230.0
 20
3.0
 30
0.0
 40
5.0
100
AcDbArc
 50
90.0
 51
180.0
  0
ARC
  5
A567C
330
1E
100
AcDbEntity
  8
DETAIL
100
AcDbCircle
 10
-239.9999999999995
 20
3.0
 30
0.0
 40
5.0
100
AcDbArc
 50
0.0
 51
90.0
  0
ARC
  5
A567D
330
1E
100
AcDbEntity
  8
DETAIL
100
AcDbCircle
 10
-269.9999999999991
 20
3.0
 30
0.0
 40
5.0
100
AcDbArc
 50
90.0
 51
180.0
  0
ARC
  5
A567E
330
1E
100
AcDbEntity
  8
DETAIL
100
AcDbCircle
 10
-415.6506421383077
 20
28.73060531602579
 30
0.0
 40
3.64753095489614
100
AcDbArc
 50
204.6095221446289
 51
269.8412707905878
  0
LINE
  5
A569B
330
1E
100
AcDbEntity
  8
DETAIL
100
AcDbLine
 10
-422.0
 20
741.0
 30
0.0
 11
-421.9999999999918
 21
29.0213450568395
 31
0.0
  0
LINE
  5
A56FE
330
1E
100
AcDbEntity
  8
DETAIL
100
AcDbLine
 10
-421.5089606880892
 20
28.52188583620409
 30
0.0
 11
-420.0
 21
28.49508629540014
 31
0.0
  0
LINE
  5
A56FF
330
1E
100
AcDbEntity
  8
DETAIL
100
AcDbLine
 10
-422.0
 20
308.0698415399002
 30
0.0
 11
-424.5174497487516
 21
308.1577528222902
 31
0.0
  0
ARC
  5
A5700
330
1E
100
AcDbEntity
  8
DETAIL
100
AcDbCircle
 10
-424.500000000399
 20
308.6574482357997
 30
0.0
 40
0.5
100
AcDbArc
 50
180.0
 51
267.9999999998529
  0
LINE
  5
A5707
330
1E
100
AcDbEntity
  8
DETAIL
100
AcDbLine
 10
-425.000000000399
 20
313.1572233373999
 30
0.0
 11
-425.000000000399
 21
308.6574482357997
 31
0.0
  0
LINE
  5
A5708
330
1E
100
AcDbEntity
  8
DETAIL
100
AcDbLine
 10
-470.0000000004993
 20
427.2688252867001
 30
0.0
 11
-470.0000000004989
 21
550.1964475128366
 31
0.0
  0
ARC
  5
A5709
330
1E
100
AcDbEntity
  8
DETAIL
100
AcDbCircle
 10
-465.0000000004991
 20
550.1964475128366
 30
0.0
 40
5.0
100
AcDbArc
 50
115.2122624355609
 51
179.9999999999998
  0
ARC
  5
A570B
330
1E
100
AcDbEntity
  8
DETAIL
100
AcDbCircle
 10
-421.5002373531996
 20
29.0215723962001
 30
0.0
 40
0.4997626985000001
100
AcDbArc
 50
180.0260635488135
 51
268.9998540157918
  0
ARC
  5
A5711
330
1E
100
AcDbEntity
  8
DETAIL
100
AcDbCircle
 10
-420.0
 20
741.0
 30
0.0
 40
2.0
100
AcDbArc
 50
90.0
 51
180.0
  0
LINE
  5
A5714
330
1E
100
AcDbEntity
  8
DETAIL
100
AcDbLine
 10
-422.1482361909716
 20
32.53480606309458
 30
0.0
 11
-486.1763809020413
 21
49.69109573125694
 31
0.0
  0
ARC
  5
A5715
330
1E
100
AcDbEntity
  8
DETAIL
100
AcDbCircle
 10
-481.0
 20
69.0096122570407
 30
0.0
 40
20.0
100
AcDbArc
 50
180.0
 51
255.0000000000325
  0
LINE
  5
A5716
330
1E
100
AcDbEntity
  8
DETAIL
100
AcDbLine
 10
-422.0
 20
312.9999999995302
 30
0.0
 11
-470.5233595628272
 21
315.5430015175648
 31
0.0
  0
ARC
  5
A5717
330
1E
100
AcDbEntity
  8
DETAIL
100
AcDbCircle
 10
-470.000000000399
 20
325.5292968651106
 30
0.0
 40
10.0
100
AcDbArc
 50
180.0
 51
267.0000000000074
  0
LINE
  5
A5718
330
1E
100
AcDbEntity
  8
DETAIL
100
AcDbLine
 10
-486.8474340944501
 20
232.669236078891
 30
0.0
 11
-422.0
 21
252.4950862954172
 31
0.0
  0
LINE
  5
A5719
330
1E
100
AcDbEntity
  8
DETAIL
100
AcDbLine
 10
-465.1001957831903
 20
578.7508222467405
 30
0.0
 11
-461.6396426492513
 21
579.5497538890047
 31
0.0
  0
ARC
  5
A571A
330
1E
100
AcDbEntity
  8
DETAIL
100
AcDbCircle
 10
-466.0000000004993
 20
582.6483025058966
 30
0.0
 40
4.0
100
AcDbArc
 50
180.0
 51
282.9999999990213
  0
LINE
  5
A571B
330
1E
100
AcDbEntity
  8
DETAIL
100
AcDbLine
 10
-460.4162680490524
 20
561.0522997386931
 30
0.0
 11
-460.4146915952672
 21
578.5753576255302
 31
0.0
  0
ARC
  5
A571C
330
1E
100
AcDbEntity
  8
DETAIL
100
AcDbCircle
 10
-465.4162679264381
 20
561.0534070521318
 30
0.0
 40
5.0
100
AcDbArc
 50
295.2122624355609
 51
359.9873111225714
  0
ARC
  5
A571D
330
1E
100
AcDbEntity
  8
DETAIL
100
AcDbCircle
 10
-461.414691594924
 20
578.5753838242156
 30
0.0
 40
1.0
100
AcDbArc
 50
359.998498925911
 51
102.9999999990212
  0
LINE
  5
A571E
330
1E
100
AcDbEntity
  8
DETAIL
100
AcDbLine
 10
-461.1010496466549
 20
713.5910910713938
 30
0.0
 11
-422.0000000004993
 21
730.9999999995997
 31
0.0
  0
LINE
  5
A571F
330
1E
100
AcDbEntity
  8
DETAIL
100
AcDbLine
 10
-470.0000000004993
 20
582.6483025058966
 30
0.0
 11
-470.0000000004993
 21
699.8879092067633
 31
0.0
  0
ARC
  5
A5720
330
1E
100
AcDbEntity
  8
DETAIL
100
AcDbCircle
 10
-455.0000000004994
 20
699.8879092067633
 30
0.0
 40
15.0
100
AcDbArc
 50
114.0000000000759
 51
180.0
  0
LINE
  5
A5721
330
1E
100
AcDbEntity
  8
DETAIL
100
AcDbLine
 10
-480.0000000003993
 20
414.6042233413251
 30
0.0
 11
-480.0000000003993
 21
325.5292968651106
 31
0.0
  0
ARC
  5
A5722
330
1E
100
AcDbEntity
  8
DETAIL
100
AcDbCircle
 10
-470.000000000399
 20
414.6042233413251
 30
0.0
 40
10.0
100
AcDbArc
 50
106.0000000004623
 51
180.0
  0
LINE
  5
A5723
330
1E
100
AcDbEntity
  8
DETAIL
100
AcDbLine
 10
-501.0
 20
213.543140959629
 30
0.0
 11
-501.0
 21
69.00961225704069
 31
0.0
  0
ARC
  5
A5724
330
1E
100
AcDbEntity
  8
DETAIL
100
AcDbCircle
 10
-481.0
 20
213.543140959629
 30
0.0
 40
20.0
100
AcDbArc
 50
106.9999999999815
 51
180.0
  0
ARC
  5
A5725
330
1E
100
AcDbEntity
  8
DETAIL
100
AcDbCircle
 10
-473.0000000004991
 20
427.2678798502258
 30
0.0
 40
3.0
100
AcDbArc
 50
286.0000000004623
 51
0.0
  0
LINE
  5
A5726
330
1E
100
AcDbEntity
  8
DETAIL
100
AcDbLine
 10
-467.1298646644236
 20
554.7201270454038
 30
0.0
 11
-463.2864032625136
 21
556.5297275195648
 31
0.0
  0
LINE
  5
A5727
330
1E
100
AcDbEntity
  8
DETAIL
100
AcDbLine
 10
-472.1730879330253
 20
424.3840947624176
 30
0.0
 11
-472.7563735586458
 21
424.2168403006862
 31
0.0
  0
ARC
  5
A5756
330
1E
100
AcDbEntity
  8
DETAIL
100
AcDbCircle
 10
-422.1999999999919
 20
32.34162089783679
 30
0.0
 40
0.2
100
AcDbArc
 50
0.0000000000011704
 51
75.00000000002656
  0
LINE
  5
A5A5E
330
1E
100
AcDbEntity
  8
BASIS
  6
CENTER
100
AcDbLine
 10
-255.0000000000002
 20
43.47365920191349
 30
0.0
 11
-255.0000000000002
 21
-18.81593642231291
 31
0.0
  0
MTEXT
  5
A5C85
330
1E
100
AcDbEntity
  8
NOTE
100
AcDbMText
 10
-797.8724640269968
 20
424.8010111478157
 30
0.0
 40
45.0
 41
0.0
 46
0.0
 71
     3
 72
     5
  1

 73
     1
 44
1.0
  0
MTEXT
  5
A5C8A
330
1E
100
AcDbEntity
  8
NOTE
100
AcDbMText
 10
-810.3272544381473
 20
566.9624474947378
 30
0.0
 40
45.0
 41
0.0
 46
0.0
 71
     3
 72
     5
  1

 73
     1
 44
1.0
  0
LINE
  5
A5DC7
330
1E
100
AcDbEntity
  8
OUTLINE
100
AcDbLine
 10
406.3840620423007
 20
27.18700576660012
 30
0.0
 11
401.0987074947561
 21
21.9017001445594
 31
0.0
  0
LINE
  5
A5DC8
330
1E
100
AcDbEntity
  8
OUTLINE
100
AcDbLine
 10
424.0
 20
567.2016199508997
 30
0.0
 11
424.0
 21
568.0499999999993
 31
0.0
  0
LINE
  5
A5DC9
330
1E
100
AcDbEntity
  8
OUTLINE
100
AcDbLine
 10
423.0
 20
560.5435306952004
 30
0.0
 11
423.0
 21
566.5499999999992
 31
0.0
  0
LINE
  5
A5DCA
330
1E
100
AcDbEntity
  8
OUTLINE
100
AcDbLine
 10
418.3000000000011
 20
852.5000000000998
 30
0.0
 11
418.3000000000011
 21
868.1088347048927
 31
0.0
  0
LINE
  5
A5DCB
330
1E
100
AcDbEntity
  8
OUTLINE
100
AcDbLine
 10
417.3600000000005
 20
852.0999999999995
 30
0.0
 11
417.3600000000005
 21
852.5000000000998
 31
0.0
  0
LINE
  5
A5DCC
330
1E
100
AcDbEntity
  8
OUTLINE
100
AcDbLine
 10
401.9999999990004
 20
27.18700576670017
 30
0.0
 11
401.9999999990004
 21
27.19999999999982
 31
0.0
  0
LINE
  5
A5DCD
330
1E
100
AcDbEntity
  8
OUTLINE
100
AcDbLine
 10
423.9998709963002
 20
599.9096503747996
 30
0.0
 11
424.0
 21
599.8983904931992
 31
0.0
  0
LINE
  5
A5DCE
330
1E
100
AcDbEntity
  8
OUTLINE
100
AcDbLine
 10
420.1757359313003
 20
611.5707384889993
 30
0.0
 11
422.6485281374007
 21
609.0979462828999
 31
0.0
  0
LINE
  5
A5DCF
330
1E
100
AcDbEntity
  8
OUTLINE
100
AcDbLine
 10
-74.8583939597993
 20
10.0581942892004
 30
0.0
 11
-228.3522744084994
 21
19.44628219510014
 31
0.0
  0
LINE
  5
A5DD0
330
1E
100
AcDbEntity
  8
OUTLINE
100
AcDbLine
 10
265.0
 20
0.0
 30
0.0
 11
225.0
 21
0.0
 31
0.0
  0
LINE
  5
A5DD1
330
1E
100
AcDbEntity
  8
OUTLINE
100
AcDbLine
 10
-234.9999999999996
 20
0.0
 30
0.0
 11
-274.9999999999991
 21
0.0
 31
0.0
  0
LINE
  5
A5DD2
330
1E
100
AcDbEntity
  8
OUTLINE
100
AcDbLine
 10
260.0
 20
8.0
 30
0.0
 11
230.0
 21
8.0
 31
0.0
  0
ARC
  5
A5DD3
330
1E
100
AcDbEntity
  8
OUTLINE
100
AcDbCircle
 10
230.0
 20
3.0
 30
0.0
 40
5.0
100
AcDbArc
 50
90.0
 51
180.0
  0
LINE
  5
A5DD4
330
1E
100
AcDbEntity
  8
OUTLINE
100
AcDbLine
 10
-239.9999999999995
 20
8.0
 30
0.0
 11
-269.9999999999991
 21
8.0
 31
0.0
  0
ARC
  5
A5DD5
330
1E
100
AcDbEntity
  8
OUTLINE
100
AcDbCircle
 10
-269.9999999999991
 20
3.0
 30
0.0
 40
5.0
100
AcDbArc
 50
90.0
 51
180.0
  0
LINE
  5
A5DD7
330
1E
100
AcDbEntity
  8
OUTLINE
100
AcDbLine
 10
72.00692573950073
 20
9.999999999399731
 30
0.0
 11
0.0
 21
9.999999999697902
 31
0.0
  0
LINE
  5
A5DD8
330
1E
100
AcDbEntity
  8
OUTLINE
100
AcDbLine
 10
226.4522744069
 20
19.44628219330025
 30
0.0
 11
72.00692573950073
 21
9.999999999399731
 31
0.0
  0
LINE
  5
A5DD9
330
1E
100
AcDbEntity
  8
OUTLINE
100
AcDbLine
 10
428.0953628557996
 20
569.6125613817002
 30
0.0
 11
432.8807854351007
 21
594.2397187274
 31
0.0
  0
LINE
  5
A5DDA
330
1E
100
AcDbEntity
  8
OUTLINE
100
AcDbLine
 10
383.3000000000012
 20
878.7000000000999
 30
0.0
 11
383.3000000000012
 21
879.0000000001001
 31
0.0
  0
LINE
  5
A5DDB
330
1E
100
AcDbEntity
  8
OUTLINE
100
AcDbLine
 10
373.3000000000012
 20
878.7000000000999
 30
0.0
 11
373.3000000000012
 21
879.0000000001001
 31
0.0
  0
LINE
  5
A5DDC
330
1E
100
AcDbEntity
  8
OUTLINE
100
AcDbLine
 10
358.3000000000012
 20
878.6999999999999
 30
0.0
 11
358.3000000000012
 21
879.0
 31
0.0
  0
LINE
  5
A5DDD
330
1E
100
AcDbEntity
  8
OUTLINE
100
AcDbLine
 10
226.4522744069
 20
19.44628219330025
 30
0.0
 11
395.3030676009522
 21
19.50000300212266
 31
0.0
  0
ARC
  5
A5DDE
330
1E
100
AcDbEntity
  8
OUTLINE
100
AcDbCircle
 10
395.3004587259702
 20
27.70000258710871
 30
0.0
 40
8.199999999999999
100
AcDbArc
 50
270.0182289668427
 51
314.9997348108079
  0
LINE
  5
A5DDF
330
1E
100
AcDbEntity
  8
OUTLINE
100
AcDbLine
 10
-401.3799218308991
 20
25.08286555650011
 30
0.0
 11
-415.6607470529998
 21
25.08308835820026
 31
0.0
  0
LINE
  5
A5DE0
330
1E
100
AcDbEntity
  8
OUTLINE
100
AcDbLine
 10
418.8000000000001
 20
27.19999999999982
 30
0.0
 11
-418.7999999999991
 21
27.19999999999982
 31
0.0
  0
ARC
  5
A5DE1
330
1E
100
AcDbEntity
  8
OUTLINE
100
AcDbCircle
 10
418.8000000000001
 20
28.39999999999964
 30
0.0
 40
1.199999999999999
100
AcDbArc
 50
270.0
 51
0.0
  0
LINE
  5
A5DE2
330
1E
100
AcDbEntity
  8
OUTLINE
100
AcDbLine
 10
-228.3522744084994
 20
19.44628219510014
 30
0.0
 11
-393.0005049878992
 21
19.50000000120053
 31
0.0
  0
LINE
  5
A5DE3
330
1E
100
AcDbEntity
  8
OUTLINE
100
AcDbLine
 10
432.4335688574008
 20
595.1173622563
 30
0.0
 11
424.0
 21
599.0499999999992
 31
0.0
  0
LINE
  5
A5DE4
330
1E
100
AcDbEntity
  8
OUTLINE
100
AcDbLine
 10
225.7665290583245
 20
16.70832300460873
 30
0.0
 11
225.0190265094998
 21
8.217473999199683
 31
0.0
  0
LINE
  5
A5DE5
330
1E
100
AcDbEntity
  8
OUTLINE
100
AcDbLine
 10
265.0
 20
0.0
 30
0.0
 11
265.0
 21
7.781695285500062
 31
0.0
  0
ARC
  5
A5DE6
330
1E
100
AcDbEntity
  8
OUTLINE
100
AcDbCircle
 10
260.0
 20
3.0
 30
0.0
 40
5.0
100
AcDbArc
 50
0.0
 51
90.0
  0
LINE
  5
A5DE7
330
1E
100
AcDbEntity
  8
OUTLINE
100
AcDbLine
 10
224.9999999999991
 20
7.781695285500062
 30
0.0
 11
225.0
 21
0.0
 31
0.0
  0
LINE
  5
A5DE8
330
1E
100
AcDbEntity
  8
OUTLINE
100
AcDbLine
 10
264.2334708912727
 20
16.71866038027457
 30
0.0
 11
264.9809734905002
 21
8.217473999199683
 31
0.0
  0
LINE
  5
A5DE9
330
1E
100
AcDbEntity
  8
OUTLINE
100
AcDbLine
 10
422.6485281374007
 20
559.6950025576997
 30
0.0
 11
420.1757359313003
 21
557.2222103515996
 31
0.0
  0
LINE
  5
A5DEC
330
1E
100
AcDbEntity
  8
OUTLINE
100
AcDbLine
 10
423.6294156465008
 20
566.7186514141993
 30
0.0
 11
423.0
 21
566.5499999999992
 31
0.0
  0
LINE
  5
A5DED
330
1E
100
AcDbEntity
  8
OUTLINE
100
AcDbLine
 10
424.0
 20
568.0499999999993
 30
0.0
 11
427.5171244594003
 21
568.9924106586004
 31
0.0
  0
LINE
  5
A5DEE
330
1E
100
AcDbEntity
  8
OUTLINE
100
AcDbLine
 10
-274.2334709416746
 20
16.72190661126404
 30
0.0
 11
-274.9809734904993
 21
8.217473999199683
 31
0.0
  0
LINE
  5
A5DEF
330
1E
100
AcDbEntity
  8
OUTLINE
100
AcDbLine
 10
-234.9999999999996
 20
0.0
 30
0.0
 11
-234.9999999999996
 21
7.781695285500062
 31
0.0
  0
ARC
  5
A5DF0
330
1E
100
AcDbEntity
  8
OUTLINE
100
AcDbCircle
 10
-239.9999999999995
 20
3.0
 30
0.0
 40
5.0
100
AcDbArc
 50
0.0
 51
90.0
  0
LINE
  5
A5DF1
330
1E
100
AcDbEntity
  8
OUTLINE
100
AcDbLine
 10
-274.9999999999991
 20
7.781695285500062
 30
0.0
 11
-274.9999999999991
 21
0.0
 31
0.0
  0
LINE
  5
A5DF2
330
1E
100
AcDbEntity
  8
OUTLINE
100
AcDbLine
 10
-235.7665286421311
 20
16.71130713727753
 30
0.0
 11
-235.0190265094989
 21
8.217473999199683
 31
0.0
  0
LINE
  5
A5DF3
330
1E
100
AcDbEntity
  8
OUTLINE
100
AcDbLine
 10
423.6331910406006
 20
600.3803209273001
 30
0.0
 11
423.0
 21
600.5499999999992
 31
0.0
  0
LINE
  5
A5DF4
330
1E
100
AcDbEntity
  8
OUTLINE
100
AcDbLine
 10
-356.8999999999996
 20
878.6999999999999
 30
0.0
 11
-356.8999999999996
 21
879.0
 31
0.0
  0
LINE
  5
A5DF5
330
1E
100
AcDbEntity
  8
OUTLINE
100
AcDbLine
 10
-371.8999999999987
 20
878.6999999999999
 30
0.0
 11
-371.8999999999987
 21
879.0
 31
0.0
  0
LINE
  5
A5DF6
330
1E
100
AcDbEntity
  8
OUTLINE
100
AcDbLine
 10
-381.8999999999996
 20
878.6999999999999
 30
0.0
 11
-381.8999999999996
 21
879.0
 31
0.0
  0
LINE
  5
A5DF7
330
1E
100
AcDbEntity
  8
OUTLINE
100
AcDbLine
 10
-417.3999999999996
 20
852.5
 30
0.0
 11
-417.3999999999996
 21
852.0999999999995
 31
0.0
  0
LINE
  5
A5DF8
330
1E
100
AcDbEntity
  8
OUTLINE
100
AcDbLine
 10
-418.3000000000001
 20
852.5
 30
0.0
 11
-418.3000000000001
 21
868.1186843159668
 31
0.0
  0
ARC
  5
A5DF9
330
1E
100
AcDbEntity
  8
OUTLINE
100
AcDbCircle
 10
-413.3
 20
868.1186843159668
 30
0.0
 40
5.0
100
AcDbArc
 50
111.8619199957512
 51
180.0
  0
LINE
  5
A5DFA
330
1E
100
AcDbEntity
  8
OUTLINE
100
AcDbLine
 10
-420.0
 20
28.39999999999964
 30
0.0
 11
-420.0
 21
850.3000000000001
 31
0.0
  0
LINE
  5
A5DFB
330
1E
100
AcDbEntity
  8
OUTLINE
100
AcDbLine
 10
418.8000000000001
 20
851.5
 30
0.0
 11
417.9600000000008
 21
851.5
 31
0.0
  0
LINE
  5
A5DFC
330
1E
100
AcDbEntity
  8
OUTLINE
100
AcDbLine
 10
418.3000000000011
 20
852.5000000000998
 30
0.0
 11
-418.3000000000001
 21
852.5
 31
0.0
  0
LINE
  5
A5DFD
330
1E
100
AcDbEntity
  8
OUTLINE
100
AcDbLine
 10
-357.0999999999994
 20
878.5000000000001
 30
0.0
 11
-371.6999999999988
 21
878.5000000000001
 31
0.0
  0
LINE
  5
A5DFE
330
1E
100
AcDbEntity
  8
OUTLINE
100
AcDbLine
 10
357.3000000000011
 20
879.9999999999995
 30
0.0
 11
-355.8999999999987
 21
879.9999999999995
 31
0.0
  0
LINE
  5
A5DFF
330
1E
100
AcDbEntity
  8
OUTLINE
100
AcDbLine
 10
374.3000000000011
 20
880.0000000000999
 30
0.0
 11
382.3000000000011
 21
880.0000000000999
 31
0.0
  0
LINE
  5
A5E00
330
1E
100
AcDbEntity
  8
OUTLINE
100
AcDbLine
 10
-372.8999999999996
 20
879.9999999999995
 30
0.0
 11
-380.8999999999987
 21
879.9999999999995
 31
0.0
  0
LINE
  5
A5E01
330
1E
100
AcDbEntity
  8
OUTLINE
100
AcDbLine
 10
-401.9799218308985
 20
25.08286555650011
 30
0.0
 11
-398.7987804592994
 21
21.90172418489965
 31
0.0
  0
LINE
  5
A5E02
330
1E
100
AcDbEntity
  8
OUTLINE
100
AcDbLine
 10
-415.1618552018168
 20
872.7591040391674
 30
0.0
 11
-412.5041176233999
 21
873.8254564017998
 31
0.0
  0
ARC
  5
A5E03
330
1E
100
AcDbEntity
  8
OUTLINE
100
AcDbCircle
 10
260.0
 20
7.781695285500062
 30
0.0
 40
5.0
100
AcDbArc
 50
0.0
 51
4.999999999997346
  0
ARC
  5
A5E04
330
1E
100
AcDbEntity
  8
OUTLINE
100
AcDbCircle
 10
261.2448872146996
 20
16.45719297748456
 30
0.0
 40
2.9999995991
100
AcDbArc
 50
5.000004016204924
 51
90.00000891131454
  0
ARC
  5
A5E05
330
1E
100
AcDbEntity
  8
OUTLINE
100
AcDbCircle
 10
421.8000000000001
 20
608.2494181455004
 30
0.0
 40
1.199999999999999
100
AcDbArc
 50
0.0
 51
44.99999999998964
  0
ARC
  5
A5E06
330
1E
100
AcDbEntity
  8
OUTLINE
100
AcDbCircle
 10
421.8000000000001
 20
560.5435306952004
 30
0.0
 40
1.199999999999999
100
AcDbArc
 50
315.0000000000104
 51
0.0
  0
ARC
  5
A5E07
330
1E
100
AcDbEntity
  8
OUTLINE
100
AcDbCircle
 10
427.3100518176006
 20
569.7651431826996
 30
0.0
 40
0.7999966457
100
AcDbArc
 50
285.0025064049151
 51
349.0055427237838
  0
ARC
  5
A5E08
330
1E
100
AcDbEntity
  8
OUTLINE
100
AcDbCircle
 10
432.0958498766003
 20
594.3923179198
 30
0.0
 40
0.7996313803000003
100
AcDbArc
 50
348.998409578596
 51
64.99996802223072
  0
ARC
  5
A5E09
330
1E
100
AcDbEntity
  8
OUTLINE
100
AcDbCircle
 10
420.6000000000003
 20
611.9950025577
 30
0.0
 40
0.6
100
AcDbArc
 50
180.0
 51
224.9999999999896
  0
ARC
  5
A5E0A
330
1E
100
AcDbEntity
  8
OUTLINE
100
AcDbCircle
 10
420.6000000000003
 20
556.7979462828998
 30
0.0
 40
0.6
100
AcDbArc
 50
135.0000000000104
 51
180.0
  0
ARC
  5
A5E0B
330
1E
100
AcDbEntity
  8
OUTLINE
100
AcDbCircle
 10
423.5000007977005
 20
599.8983879257003
 30
0.0
 40
0.4999992022999999
100
AcDbArc
 50
359.9998730039059
 51
74.99987256972012
  0
ARC
  5
A5E0C
330
1E
100
AcDbEntity
  8
OUTLINE
100
AcDbCircle
 10
423.5000024874006
 20
567.2016107777999
 30
0.0
 40
0.4999975126
100
AcDbArc
 50
284.9998992213871
 51
359.9998992667993
  0
ARC
  5
A5E0D
330
1E
100
AcDbEntity
  8
OUTLINE
100
AcDbCircle
 10
418.8000000000001
 20
850.3000000000001
 30
0.0
 40
1.199999999999999
100
AcDbArc
 50
0.0
 51
90.0
  0
ARC
  5
A5E0E
330
1E
100
AcDbEntity
  8
OUTLINE
100
AcDbCircle
 10
417.9600000000008
 20
852.0999999999995
 30
0.0
 40
0.6
100
AcDbArc
 50
180.0
 51
270.0
  0
ARC
  5
A5E0F
330
1E
100
AcDbEntity
  8
OUTLINE
100
AcDbCircle
 10
357.3000000000011
 20
879.0
 30
0.0
 40
1.0
100
AcDbArc
 50
0.0
 51
90.0
  0
ARC
  5
A5E10
330
1E
100
AcDbEntity
  8
OUTLINE
100
AcDbCircle
 10
382.3000000000011
 20
879.0000000001001
 30
0.0
 40
1.0
100
AcDbArc
 50
0.0
 51
90.0
  0
ARC
  5
A5E11
330
1E
100
AcDbEntity
  8
OUTLINE
100
AcDbCircle
 10
374.3000000000011
 20
879.0000000001001
 30
0.0
 40
1.0
100
AcDbArc
 50
90.0
 51
180.0
  0
ARC
  5
A5E12
330
1E
100
AcDbEntity
  8
OUTLINE
100
AcDbCircle
 10
358.5
 20
878.6999999999999
 30
0.0
 40
0.2
100
AcDbArc
 50
180.0
 51
270.0
  0
ARC
  5
A5E13
330
1E
100
AcDbEntity
  8
OUTLINE
100
AcDbCircle
 10
383.5
 20
878.7000000000999
 30
0.0
 40
0.2
100
AcDbArc
 50
180.0000000092235
 51
269.9999999998958
  0
ARC
  5
A5E14
330
1E
100
AcDbEntity
  8
OUTLINE
100
AcDbCircle
 10
373.1000000000004
 20
878.7000000000999
 30
0.0
 40
0.2
100
AcDbArc
 50
270.0
 51
359.9999999918187
  0
ARC
  5
A5E15
330
1E
100
AcDbEntity
  8
OUTLINE
100
AcDbCircle
 10
229.9999999999991
 20
7.781695285500062
 30
0.0
 40
5.0
100
AcDbArc
 50
175.0000000000026
 51
180.0
  0
ARC
  5
A5E16
330
1E
100
AcDbEntity
  8
OUTLINE
100
AcDbCircle
 10
228.7551131525997
 20
16.44685577636588
 30
0.0
 40
3.0
100
AcDbArc
 50
90.0
 51
175.0000000000026
  0
ARC
  5
A5E1B
330
1E
100
AcDbEntity
  8
OUTLINE
100
AcDbCircle
 10
-72.95367952619926
 20
41.19999999999982
 30
0.0
 40
31.2
100
AcDbArc
 50
266.4999999998078
 51
269.9999999997916
  0
ARC
  5
A5E1C
330
1E
100
AcDbEntity
  8
OUTLINE
100
AcDbCircle
 10
-239.9999999999995
 20
7.781695285500062
 30
0.0
 40
5.0
100
AcDbArc
 50
0.0
 51
4.999999999997346
  0
ARC
  5
A5E1D
330
1E
100
AcDbEntity
  8
OUTLINE
100
AcDbCircle
 10
-269.9999999999991
 20
7.781695285500062
 30
0.0
 40
5.0
100
AcDbArc
 50
175.0000000000026
 51
180.0
  0
ARC
  5
A5E1E
330
1E
100
AcDbEntity
  8
OUTLINE
100
AcDbCircle
 10
-271.2448868473994
 20
16.46043938302119
 30
0.0
 40
3.0
100
AcDbArc
 50
90.0
 51
175.0000000000026
  0
ARC
  5
A5E1F
330
1E
100
AcDbEntity
  8
OUTLINE
100
AcDbCircle
 10
-238.7551123187041
 20
16.44983973448754
 30
0.0
 40
2.9999995991
100
AcDbArc
 50
5.000004016204924
 51
90.00000891131454
  0
ARC
  5
A5E20
330
1E
100
AcDbEntity
  8
OUTLINE
100
AcDbCircle
 10
-393.0005051647995
 20
27.69999975810061
 30
0.0
 40
8.1999997569
100
AcDbArc
 50
225.000001168056
 51
270.0000011876958
  0
ARC
  5
A5E21
330
1E
100
AcDbEntity
  8
OUTLINE
100
AcDbCircle
 10
-418.7999999999991
 20
28.39999999999964
 30
0.0
 40
1.199999999999999
100
AcDbArc
 50
180.0
 51
270.0
  0
ARC
  5
A5E22
330
1E
100
AcDbEntity
  8
OUTLINE
100
AcDbCircle
 10
-386.9123534946512
 20
806.1090186953752
 30
0.0
 40
72.39098235868403
100
AcDbArc
 50
89.99022249614153
 51
110.702853869693
  0
ARC
  5
A5E23
330
1E
100
AcDbEntity
  8
OUTLINE
100
AcDbCircle
 10
-372.8999999999996
 20
879.0
 30
0.0
 40
1.0
100
AcDbArc
 50
0.0
 51
90.0
  0
ARC
  5
A5E24
330
1E
100
AcDbEntity
  8
OUTLINE
100
AcDbCircle
 10
-380.8999999999987
 20
879.0
 30
0.0
 40
1.0
100
AcDbArc
 50
90.0
 51
180.0
  0
ARC
  5
A5E25
330
1E
100
AcDbEntity
  8
OUTLINE
100
AcDbCircle
 10
-355.8999999999987
 20
879.0
 30
0.0
 40
1.0
100
AcDbArc
 50
90.0
 51
180.0
  0
ARC
  5
A5E26
330
1E
100
AcDbEntity
  8
OUTLINE
100
AcDbCircle
 10
-371.6999999999988
 20
878.6999999999999
 30
0.0
 40
0.2
100
AcDbArc
 50
180.0
 51
270.0
  0
ARC
  5
A5E27
330
1E
100
AcDbEntity
  8
OUTLINE
100
AcDbCircle
 10
-382.0999999999994
 20
878.6999999999999
 30
0.0
 40
0.2
100
AcDbArc
 50
270.0000000001042
 51
0.0
  0
ARC
  5
A5E28
330
1E
100
AcDbEntity
  8
OUTLINE
100
AcDbCircle
 10
-357.0999999999994
 20
878.6999999999999
 30
0.0
 40
0.2
100
AcDbArc
 50
270.0000000001042
 51
359.9999999923138
  0
ARC
  5
A5E29
330
1E
100
AcDbEntity
  8
OUTLINE
100
AcDbCircle
 10
-418.7999999999991
 20
850.3000000000001
 30
0.0
 40
1.199999999999999
100
AcDbArc
 50
90.0
 51
180.0
  0
ARC
  5
A5E2A
330
1E
100
AcDbEntity
  8
OUTLINE
100
AcDbCircle
 10
-418.0
 20
852.0999999999995
 30
0.0
 40
0.6
100
AcDbArc
 50
275.6298665849111
 51
0.0
  0
LINE
  5
A5E2E
330
1E
100
AcDbEntity
  8
OUTLINE
100
AcDbLine
 10
420.0
 20
850.3000000000001
 30
0.0
 11
420.0
 21
28.39999999999964
 31
0.0
  0
ARC
  5
A5E2F
330
1E
100
AcDbEntity
  8
OUTLINE
100
AcDbCircle
 10
389.3684774615822
 20
817.7852549462652
 30
0.0
 40
60.72414602961426
100
AcDbArc
 50
64.56644197159874
 51
91.00820534269331
  0
ARC
  5
A5E30
330
1E
100
AcDbEntity
  8
OUTLINE
100
AcDbCircle
 10
413.3000000000008
 20
868.1088347048927
 30
0.0
 40
5.0
100
AcDbArc
 50
0.0
 51
64.56644197159874
  0
LINE
  5
A5E50
330
1E
100
AcDbEntity
  8
OUTLINE
100
AcDbLine
 10
-319.1084382998497
 20
852.5000000000117
 30
0.0
 11
-319.1084382998497
 21
27.19999999999982
 31
0.0
  0
LINE
  5
A5EC1
330
1E
100
AcDbEntity
  8
OUTLINE
100
AcDbLine
 10
-418.7999999999991
 20
851.5000000000004
 30
0.0
 11
-417.941138998656
 21
851.502894161374
 31
0.0
  0
ARC
  5
A5EC2
330
1E
100
AcDbEntity
  8
OUTLINE
100
AcDbCircle
 10
-415.6506421383078
 20
28.73060531602579
 30
0.0
 40
3.64753095489614
100
AcDbArc
 50
204.6095221446289
 51
269.8412707905717
  0
LINE
  5
A5EC3
330
1E
100
AcDbEntity
  8
OUTLINE
100
AcDbLine
 10
-422.0
 20
741.0
 30
0.0
 11
-421.9999999999997
 21
730.9999999998219
 31
0.0
  0
LINE
  5
A5EC4
330
1E
100
AcDbEntity
  8
OUTLINE
100
AcDbLine
 10
-421.5089606880892
 20
28.52188583620409
 30
0.0
 11
-420.0
 21
28.49508629540014
 31
0.0
  0
LINE
  5
A5EC5
330
1E
100
AcDbEntity
  8
OUTLINE
100
AcDbLine
 10
-422.0
 20
308.0698415399002
 30
0.0
 11
-424.5174497487516
 21
308.1577528222902
 31
0.0
  0
ARC
  5
A5EC6
330
1E
100
AcDbEntity
  8
OUTLINE
100
AcDbCircle
 10
-424.500000000399
 20
308.6574482357997
 30
0.0
 40
0.5
100
AcDbArc
 50
180.0
 51
267.9999999998399
  0
LINE
  5
A5EC7
330
1E
100
AcDbEntity
  8
OUTLINE
100
AcDbLine
 10
-425.000000000399
 20
313.1572233373999
 30
0.0
 11
-425.000000000399
 21
308.6574482357997
 31
0.0
  0
LINE
  5
A5EC8
330
1E
100
AcDbEntity
  8
OUTLINE
100
AcDbLine
 10
-470.0000000004993
 20
427.2688252867001
 30
0.0
 11
-470.0000000004989
 21
550.1964475128366
 31
0.0
  0
ARC
  5
A5EC9
330
1E
100
AcDbEntity
  8
OUTLINE
100
AcDbCircle
 10
-465.0000000004991
 20
550.1964475128366
 30
0.0
 40
5.0
100
AcDbArc
 50
115.2122624355487
 51
180.0
  0
ARC
  5
A5ECA
330
1E
100
AcDbEntity
  8
OUTLINE
100
AcDbCircle
 10
-421.5002373531996
 20
29.0215723962001
 30
0.0
 40
0.4997626985000001
100
AcDbArc
 50
180.0260635488135
 51
268.9998540157918
  0
ARC
  5
A5ECB
330
1E
100
AcDbEntity
  8
OUTLINE
100
AcDbCircle
 10
-420.0
 20
741.0
 30
0.0
 40
2.0
100
AcDbArc
 50
90.0
 51
180.0
  0
LINE
  5
A5ECC
330
1E
100
AcDbEntity
  8
OUTLINE
100
AcDbLine
 10
-422.1482361909716
 20
32.53480606309458
 30
0.0
 11
-486.1763809020413
 21
49.69109573125694
 31
0.0
  0
ARC
  5
A5ECF
330
1E
100
AcDbEntity
  8
OUTLINE
100
AcDbCircle
 10
-481.0
 20
69.0096122570407
 30
0.0
 40
20.0
100
AcDbArc
 50
180.0
 51
255.0000000000324
  0
LINE
  5
A5ED0
330
1E
100
AcDbEntity
  8
OUTLINE
100
AcDbLine
 10
-425.000000000399
 20
313.1572233373999
 30
0.0
 11
-470.5233595628272
 21
315.5430015175648
 31
0.0
  0
ARC
  5
A5ED1
330
1E
100
AcDbEntity
  8
OUTLINE
100
AcDbCircle
 10
-470.000000000399
 20
325.5292968651106
 30
0.0
 40
10.0
100
AcDbArc
 50
180.0
 51
266.9999999999944
  0
LINE
  5
A5ED2
330
1E
100
AcDbEntity
  8
OUTLINE
100
AcDbLine
 10
-486.8474340944501
 20
232.669236078891
 30
0.0
 11
-422.0
 21
252.4950862954172
 31
0.0
  0
LINE
  5
A5ED3
330
1E
100
AcDbEntity
  8
OUTLINE
100
AcDbLine
 10
-465.1001957831903
 20
578.7508222467405
 30
0.0
 11
-461.6396426492513
 21
579.5497538890047
 31
0.0
  0
ARC
  5
A5ED4
330
1E
100
AcDbEntity
  8
OUTLINE
100
AcDbCircle
 10
-466.0000000004993
 20
582.6483025058966
 30
0.0
 40
4.0
100
AcDbArc
 50
180.0
 51
282.9999999990341
  0
LINE
  5
A5ED5
330
1E
100
AcDbEntity
  8
OUTLINE
100
AcDbLine
 10
-460.4162680490524
 20
561.0522997386931
 30
0.0
 11
-460.4146915952672
 21
578.5753576255302
 31
0.0
  0
ARC
  5
A5ED6
330
1E
100
AcDbEntity
  8
OUTLINE
100
AcDbCircle
 10
-465.4162679264381
 20
561.0534070521318
 30
0.0
 40
5.0
100
AcDbArc
 50
295.2122624355487
 51
359.9873111225712
  0
ARC
  5
A5ED7
330
1E
100
AcDbEntity
  8
OUTLINE
100
AcDbCircle
 10
-461.414691594924
 20
578.5753838242156
 30
0.0
 40
1.0
100
AcDbArc
 50
359.9984989259112
 51
102.9999999990341
  0
LINE
  5
A5ED8
330
1E
100
AcDbEntity
  8
OUTLINE
100
AcDbLine
 10
-461.1010496466549
 20
713.5910910713938
 30
0.0
 11
-422.0000000004993
 21
730.9999999995997
 31
0.0
  0
LINE
  5
A5ED9
330
1E
100
AcDbEntity
  8
OUTLINE
100
AcDbLine
 10
-470.0000000004993
 20
582.6483025058966
 30
0.0
 11
-470.0000000004993
 21
699.8879092067633
 31
0.0
  0
ARC
  5
A5EDA
330
1E
100
AcDbEntity
  8
OUTLINE
100
AcDbCircle
 10
-455.0000000004994
 20
699.8879092067633
 30
0.0
 40
15.0
100
AcDbArc
 50
114.0000000000637
 51
180.0
  0
LINE
  5
A5EDB
330
1E
100
AcDbEntity
  8
OUTLINE
100
AcDbLine
 10
-480.0000000003993
 20
414.6042233413251
 30
0.0
 11
-480.0000000003993
 21
325.5292968651106
 31
0.0
  0
ARC
  5
A5EDC
330
1E
100
AcDbEntity
  8
OUTLINE
100
AcDbCircle
 10
-470.000000000399
 20
414.6042233413251
 30
0.0
 40
10.0
100
AcDbArc
 50
106.000000000475
 51
180.0
  0
LINE
  5
A5EDD
330
1E
100
AcDbEntity
  8
OUTLINE
100
AcDbLine
 10
-501.0
 20
213.543140959629
 30
0.0
 11
-501.0
 21
69.00961225704069
 31
0.0
  0
ARC
  5
A5EE0
330
1E
100
AcDbEntity
  8
OUTLINE
100
AcDbCircle
 10
-481.0
 20
213.543140959629
 30
0.0
 40
20.0
100
AcDbArc
 50
106.9999999999817
 51
180.0
  0
ARC
  5
A5EE1
330
1E
100
AcDbEntity
  8
OUTLINE
100
AcDbCircle
 10
-473.0000000004991
 20
427.2678798502258
 30
0.0
 40
3.0
100
AcDbArc
 50
286.000000000475
 51
0.0
  0
LINE
  5
A5EE2
330
1E
100
AcDbEntity
  8
OUTLINE
100
AcDbLine
 10
-467.1298646644236
 20
554.7201270454038
 30
0.0
 11
-463.2864032625136
 21
556.5297275195648
 31
0.0
  0
LINE
  5
A5EE3
330
1E
100
AcDbEntity
  8
OUTLINE
100
AcDbLine
 10
-472.1730879330253
 20
424.3840947624176
 30
0.0
 11
-472.7563735586458
 21
424.2168403006862
 31
0.0
  0
ARC
  5
A5EE4
330
1E
100
AcDbEntity
  8
OUTLINE
100
AcDbCircle
 10
-422.1999999999921
 20
32.34162089783679
 30
0.0
 40
0.2
100
AcDbArc
 50
0.0000000000016284
 51
75.0000000000324
  0
LINE
  5
A5EEB
330
1E
100
AcDbEntity
  8
OUTLINE
100
AcDbLine
 10
424.0
 20
599.0499999999991
 30
0.0
 11
424.0
 21
599.9002175272996
 31
0.0
  0
LINE
  5
A5EEC
330
1E
100
AcDbEntity
  8
OUTLINE
100
AcDbLine
 10
423.0
 20
600.5499999999994
 30
0.0
 11
423.0
 21
608.2494181455004
 31
0.0
  0
LINE
  5
A5EED
330
1E
100
AcDbEntity
  8
OUTLINE
100
AcDbLine
 10
-382.0999999999994
 20
878.5000000000001
 30
0.0
 11
-386.8999999999997
 21
878.5
 31
0.0
  0
LINE
  5
A5EEE
330
1E
100
AcDbEntity
  8
OUTLINE
100
AcDbLine
 10
388.2999999999988
 20
878.5
 30
0.0
 11
383.5
 21
878.5
 31
0.0
  0
LINE
  5
A5EEF
330
1E
100
AcDbEntity
  8
OUTLINE
100
AcDbLine
 10
373.1000000000004
 20
878.4999999999996
 30
0.0
 11
358.5
 21
878.4999999999996
 31
0.0
  0
LINE
  5
A5EFD
330
1E
100
AcDbEntity
  8
OUTLINE
100
AcDbLine
 10
-421.9999999999946
 20
308.0698415399
 30
0.0
 11
-421.9999999999942
 21
252.4950862954189
 31
0.0
  0
LINE
  5
A5EFE
330
1E
100
AcDbEntity
  8
OUTLINE
100
AcDbLine
 10
-421.9999999999918
 20
32.34162089783679
 30
0.0
 11
-422.0000000516995
 21
29.0215724039836
 31
0.0
  0
LINE
  5
A5EFF
330
1E
100
AcDbEntity
  8
OUTLINE
100
AcDbLine
 10
0.0
 20
9.999999999691187
 30
0.0
 11
-72.95367952619926
 21
9.999999999999817
 31
0.0
  0
LINE
  5
A5F8C
330
1E
100
AcDbEntity
  8
DETAIL
100
AcDbLine
 10
-421.9999999999941
 20
226.8228151516433
 30
0.0
 11
-476.4637017241593
 21
210.1716074417664
 31
0.0
  0
ARC
  5
A5F8D
330
1E
100
AcDbEntity
  8
DETAIL
100
AcDbCircle
 10
-472.0781302318837
 20
195.8270348553791
 30
0.0
 40
15.0
100
AcDbArc
 50
106.9999837092066
 51
180.0001264804733
  0
LINE
  5
A5F8E
330
1E
100
AcDbEntity
  8
DETAIL
100
AcDbLine
 10
-487.0781302318473
 20
195.827001742869
 30
0.0
 11
-487.0779964913753
 21
135.2424344334213
 31
0.0
  0
LINE
  5
A5F8F
330
1E
100
AcDbEntity
  8
DETAIL
100
AcDbLine
 10
-421.9999999999928
 20
117.5974057686974
 30
0.0
 11
-472.8630358351156
 21
120.2630245246164
 31
0.0
  0
ARC
  5
A5F90
330
1E
100
AcDbEntity
  8
DETAIL
100
AcDbCircle
 10
-472.0779964914116
 20
135.2424675459319
 30
0.0
 40
15.0
100
AcDbArc
 50
180.0001264804733
 51
266.9999999997726
  0
TEXT
  5
A6034
330
1E
100
AcDbEntity
  8
ETC
100
AcDbText
 10
520.0
 20
1089.106115396816
 30
0.0
 40
45.0
  1
MUZ-RW50VGHZ-E*_3
 41
0.8
 11
520.0
 21
1089.106115396816
 31
0.0
100
AcDbText
 73
     1
  0
LINE
  5
A79CD
330
1E
100
AcDbEntity
  8
NOTE
  6
CENTER
100
AcDbLine
 10
-446.7999999999991
 20
59.89451978860447
 30
0.0
 11
-446.7999999999983
 21
214.1189689220304
 31
0.0
  0
LINE
  5
A79CE
330
1E
100
AcDbEntity
  8
NOTE
  6
CENTER
100
AcDbLine
 10
-439.3624997524411
 20
99.50000000000031
 30
0.0
 11
-454.2375002475573
 21
99.50000000000031
 31
0.0
  0
LINE
  5
A79CF
330
1E
100
AcDbEntity
  8
NOTE
  6
CENTER
100
AcDbLine
 10
-439.3624997524411
 20
164.5000000000003
 30
0.0
 11
-454.2375002475573
 21
164.5000000000003
 31
0.0
  0
DIMENSION
  5
A79D1
330
1E
100
AcDbEntity
  8
SIZE
100
AcDbDimension
280
     0
  2
*D2
 10
-420.0
 20
-414.1545442113722
 30
0.0
 11
-0.0000000000009095
 21
-414.1545442113722
 31
0.0
 70
   160
  1
<>
 71
     5
 42
840.0
 73
     0
 74
     0
 75
     0
  3
STANDARD
100
AcDbAlignedDimension
 13
420.0
 23
28.39999999999932
 33
0.0
 14
-420.0
 24
28.39999999999995
 34
0.0
 50
180.0
100
AcDbRotatedDimension
1001
ACAD
1000
DSTYLE
1002
{
1070
    41
1040
10.0
1070
    42
1040
10.0
1070
    43
1040
200.0
1070
    44
1040
10.0
1070
    73
1070
     0
1070
    74
1070
     0
1070
    77
1070
     1
1070
    78
1070
     8
1070
   140
1040
45.0
1070
   141
1040
0.082
1070
   147
1040
10.0
1070
   172
1070
     1
1070
   176
1070
   256
1070
   177
1070
   256
1070
   178
1070
   256
1070
   271
1070
     8
1070
   272
1070
     3
1070
   341
1005
46
1070
   342
1005
46
1070
   345
1005
14
1070
   346
1005
14
1070
   347
1005
14
1070
   371
1070
    -1
1070
   372
1070
    -1
1002
}
  0
DIMENSION
  5
A79D2
330
1E
100
AcDbEntity
  8
SIZE
100
AcDbDimension
280
     0
  2
*D3
 10
-500.9999999988996
 20
-414.1545442113722
 30
0.0
 11
-460.4999999994492
 21
-381.6545442113723
 31
0.0
 70
    32
  1
<>
 71
     5
 42
80.99999999890036
 73
     0
 74
     0
 75
     0
  3
STANDARD
100
AcDbAlignedDimension
 13
-419.9999999999991
 23
28.39999999999995
 33
0.0
 14
-500.9999999988995
 24
69.00963527010063
 34
0.0
 50
180.0
100
AcDbRotatedDimension
1001
ACAD
1000
DSTYLE
1002
{
1070
   271
1070
     8
1070
   346
1005
14
1070
   347
1005
14
1070
   372
1070
    -1
1002
}
  0
DIMENSION
  5
A79D3
330
1E
100
AcDbEntity
  8
SIZE
100
AcDbDimension
280
     0
  2
*D4
 10
-628.3639391144897
 20
99.50000000000031
 30
0.0
 11
-628.3639391144897
 21
-122.214285714287
 31
0.0
 70
   160
  1
<>
 71
     5
 42
99.50000000000017
 73
     0
 74
     0
 75
     0
  3
STANDARD
100
AcDbAlignedDimension
 13
-275.4999999999991
 23
0.000000000000199
 33
0.0
 14
-454.2375002475573
 24
99.50000000000031
 34
0.0
 50
90.0
100
AcDbRotatedDimension
1001
ACAD
1000
DSTYLE
1002
{
1070
   271
1070
     8
1070
   346
1005
14
1070
   347
1005
14
1070
   372
1070
    -1
1002
}
  0
DIMENSION
  5
A79D4
330
1E
100
AcDbEntity
  8
SIZE
100
AcDbDimension
280
     0
  2
*D5
 10
-749.6617242065934
 20
164.5000000000003
 30
0.0
 11
-749.6617242065931
 21
-137.6428571428583
 31
0.0
 70
   160
  1
<>
 71
     5
 42
164.5000000000002
 73
     0
 74
     0
 75
     0
  3
STANDARD
100
AcDbAlignedDimension
 13
-275.4999999999991
 23
0.000000000000199
 33
0.0
 14
-454.2375002475573
 24
164.5000000000003
 34
0.0
 50
90.0
100
AcDbRotatedDimension
1001
ACAD
1000
DSTYLE
1002
{
1070
   271
1070
     8
1070
   346
1005
14
1070
   347
1005
14
1070
   372
1070
    -1
1002
}
  0
DIMENSION
  5
A79D5
330
1E
100
AcDbEntity
  8
SIZE
100
AcDbDimension
280
     0
  2
*D6
 10
890.5425949379921
 20
879.9999999999997
 30
0.0
 11
890.5425949379921
 21
439.9999999999994
 31
0.0
 70
   160
  1
<>
 71
     5
 42
879.9999999999995
 73
     0
 74
     0
 75
     0
  3
STANDARD
100
AcDbAlignedDimension
 13
264.5000000000009
 23
-0.0000000000001705
 33
0.0
 14
357.300000000002
 24
879.9999999999991
 34
0.0
 50
90.0
100
AcDbRotatedDimension
1001
ACAD
1000
DSTYLE
1002
{
1070
   271
1070
     8
1070
   346
1005
14
1070
   347
1005
14
1070
   372
1070
    -1
1002
}
  0
LWPOLYLINE
  5
A79DB
330
1E
100
AcDbEntity
  8
NOTE
370
    -2
100
AcDbPolyline
 90
        2
 70
     0
 43
0.0
 10
-446.7999999999983
 20
99.50000000000031
 10
-803.8578649805995
 20
349.3175143490077
  0
LINE
  5
A79DC
330
1E
100
AcDbEntity
  8
NOTE
370
    -2
100
AcDbLine
 10
-485.7189001717141
 20
113.648994271632
 30
0.0
 11
-446.7999999999983
 21
99.50000000000031
 31
0.0
  0
LINE
  5
A79DD
330
1E
100
AcDbEntity
  8
NOTE
370
    -2
100
AcDbLine
 10
-446.7999999999983
 20
99.50000000000031
 30
0.0
 11
-473.4302592441061
 21
131.2128384422827
 31
0.0
  0
LWPOLYLINE
  5
A79DE
330
1E
100
AcDbEntity
  8
NOTE
370
    -2
100
AcDbPolyline
 90
        2
 70
     0
 43
0.0
 10
-446.7999999999991
 20
164.5000000000003
 10
-806.5629894398997
 20
650.6452378856797
  0
LINE
  5
A79DF
330
1E
100
AcDbEntity
  8
NOTE
370
    -2
100
AcDbLine
 10
-480.7787229857868
 20
188.1711050382051
 30
0.0
 11
-446.7999999999983
 21
164.5000000000005
 31
0.0
  0
LINE
  5
A79E0
330
1E
100
AcDbEntity
  8
NOTE
370
    -2
100
AcDbLine
 10
-446.7999999999983
 20
164.5000000000005
 30
0.0
 11
-464.3908849448153
 21
201.9891397118279
 31
0.0
  0
DIMENSION
  5
A79E4
330
1E
100
AcDbEntity
  8
SIZE
100
AcDbDimension
280
     0
  2
*D10
 10
245.0
 20
-300.9351487326689
 30
0.0
 11
332.5
 21
-268.4351487326689
 31
0.0
 70
    32
  1
<>
 71
     5
 42
175.0
 73
     0
 74
     0
 75
     0
  3
STANDARD
100
AcDbAlignedDimension
 13
420.0
 23
28.39999999999932
 33
0.0
 14
245.0
 24
-23.14479781211338
 34
0.0
 50
180.0
100
AcDbRotatedDimension
1001
ACAD
1000
DSTYLE
1002
{
1070
   271
1070
     8
1070
   346
1005
14
1070
   347
1005
14
1070
   372
1070
    -1
1002
}
  0
DIMENSION
  5
A79E5
330
1E
100
AcDbEntity
  8
SIZE
100
AcDbDimension
280
     0
  2
*D11
 10
-255.0
 20
-300.9351487326688
 30
0.0
 11
-5.000000000000026
 21
-268.4351487326688
 31
0.0
 70
    32
  1
<>
 71
     5
 42
500.0
 73
     0
 74
     0
 75
     0
  3
STANDARD
100
AcDbAlignedDimension
 13
245.0
 23
-23.14479781211338
 33
0.0
 14
-255.0
 24
-18.81593642231272
 34
0.0
 50
180.0
100
AcDbRotatedDimension
1001
ACAD
1000
DSTYLE
1002
{
1070
    41
1040
10.0
1070
    42
1040
10.0
1070
    43
1040
200.0
1070
    44
1040
10.0
1070
    73
1070
     0
1070
    74
1070
     0
1070
    77
1070
     1
1070
    78
1070
     8
1070
   140
1040
45.0
1070
   141
1040
0.082
1070
   147
1040
10.0
1070
   172
1070
     1
1070
   176
1070
   256
1070
   177
1070
   256
1070
   178
1070
   256
1070
   271
1070
     8
1070
   272
1070
     3
1070
   341
1005
46
1070
   342
1005
46
1070
   345
1005
14
1070
   346
1005
14
1070
   347
1005
14
1070
   371
1070
    -1
1070
   372
1070
    -1
1002
}
  0
TEXT
  5
A79E9
330
1E
100
AcDbEntity
  8
SIZE
  6
Continuous
100
AcDbText
 10
-235.8374969768111
 20
-148.8032029125052
 30
0.0
 40
45.0
  1
BOLT PITCH FOR
 41
0.8
100
AcDbText
  0
TEXT
  5
A79EA
330
1E
100
AcDbEntity
  8
SIZE
  6
Continuous
100
AcDbText
 10
-146.6946398339532
 20
-218.8032029125053
 30
0.0
 40
45.0
  1
INSTALLATION
 41
0.8
100
AcDbText
  0
LINE
  5
A79ED
330
1E
100
AcDbEntity
  8
NOTE
100
AcDbLine
 10
-1795.82595790207
 20
349.4175143490082
 30
0.0
 11
-803.8578649805995
 21
349.4175143490078
 31
0.0
  0
TEXT
  5
A79EE
330
1E
100
AcDbEntity
  8
NOTE
100
AcDbText
 10
-1291.411294071326
 20
367.651090334186
 30
0.0
 40
45.0
  1
FLARED %%C12.7
 41
0.9
100
AcDbText
  0
TEXT
  5
A79F0
330
1E
100
AcDbEntity
  8
NOTE
100
AcDbText
 10
-1756.267328194398
 20
439.2283505762272
 30
0.0
 40
45.0
  1
GAS REFRIGERNT PIPE JOINT
 41
0.9
100
AcDbText
  0
TEXT
  5
A79F1
330
1E
100
AcDbEntity
  8
NOTE
100
AcDbText
 10
-1300.431421043784
 20
669.3322078856806
 30
0.0
 40
45.0
  1
FLARED %%C6.35
 41
0.9
100
AcDbText
  0
LINE
  5
A79F2
330
1E
100
AcDbEntity
  8
NOTE
100
AcDbLine
 10
-1827.476351316753
 20
650.6452378856812
 30
0.0
 11
-803.8578649805995
 21
650.6452378856797
 31
0.0
  0
TEXT
  5
A79F4
330
1E
100
AcDbEntity
  8
NOTE
100
AcDbText
 10
-1823.965946439877
 20
740.909468127722
 30
0.0
 40
45.0
  1
LIQUID REFRIGERNT PIPE JOINT
 41
0.9
100
AcDbText
  0
LINE
  5
A79F5
330
1E
100
AcDbEntity
  8
NOTE
100
AcDbLine
 10
836.3481968217566
 20
711.4595392168151
 30
0.0
 11
589.8947724100223
 21
711.4595392168155
 31
0.0
  0
MTEXT
  5
A79F6
330
1E
100
AcDbEntity
  8
NOTE
100
AcDbMText
 10
605.6474944887376
 20
769.3915865754919
 30
0.0
 40
45.0
 41
577.8041828127716
 46
0.0
 71
     1
 72
     5
  1
HANDLE
 73
     1
 44
0.8
1001
ACAD
1000
ACAD_MTEXT_COLUMN_INFO_BEGIN
1070
    75
1070
     2
1070
    79
1070
     0
1070
    76
1070
     1
1070
    78
1070
     0
1070
    48
1040
577.8041828127716
1070
    49
1040
225.0
1070
    50
1070
     1
1040
44.99999999999993
1000
ACAD_MTEXT_COLUMN_INFO_END
  0
LWPOLYLINE
  5
A79F7
330
1E
100
AcDbEntity
  8
NOTE
  6
ByBlock
370
    -2
100
AcDbPolyline
 90
        2
 70
     0
 43
0.0
 10
431.8366238701319
 20
592.8446709477047
 10
589.8947724100223
 20
711.4595392168155
  0
LINE
  5
A79F8
330
1E
100
AcDbEntity
  8
NOTE
  6
ByBlock
370
    -2
100
AcDbLine
 10
456.6509313249798
 20
625.9977247287917
 30
0.0
 11
431.8366238701373
 21
592.8446709477112
 31
0.0
  0
LINE
  5
A79F9
330
1E
100
AcDbEntity
  8
NOTE
  6
ByBlock
370
    -2
100
AcDbLine
 10
431.8366238701373
 20
592.8446709477112
 30
0.0
 11
469.9029713199243
 21
609.1489041804265
 31
0.0
  0
DIMENSION
  5
A7DC6
330
1E
100
AcDbEntity
  8
SIZE
100
AcDbDimension
280
     0
  2
*D15
 10
704.0156662141055
 20
8.000000000000076
 30
0.0
 11
671.5156662141054
 21
51.49999999999987
 31
0.0
 70
    32
 71
     5
 42
8.000000000000001
 73
     0
 74
     0
 75
     0
  3
STANDARD
100
AcDbAlignedDimension
 13
265.0
 23
0.0
 33
0.0
 14
257.0
 24
8.0
 34
0.0
 50
90.0
100
AcDbRotatedDimension
1001
ACAD
1000
DSTYLE
1002
{
1070
    70
1070
   256
1002
}
  0
ENDSEC
  0
SECTION
  2
OBJECTS
  0
DICTIONARY
  5
C
330
0
100
AcDbDictionary
281
     1
  3
ACAD_CIP_PREVIOUS_PRODUCT_INFO
350
86ECE
  3
ACAD_COLOR
350
86EB2
  3
ACAD_DETAILVIEWSTYLE
350
86ECB
  3
ACAD_FIELDLIST
350
A7C20
  3
ACAD_GROUP
350
D
  3
ACAD_LAYOUT
350
19
  3
ACAD_MATERIAL
350
86E80
  3
ACAD_MLEADERSTYLE
350
86EC7
  3
ACAD_MLINESTYLE
350
16
  3
ACAD_PLOTSETTINGS
350
18
  3
ACAD_PLOTSTYLENAME
350
E
  3
ACAD_SCALELIST
350
86EB5
  3
ACAD_SECTIONVIEWSTYLE
350
86EC9
  3
ACAD_TABLESTYLE
350
86EB3
  3
ACAD_VISUALSTYLE
350
86E99
  3
ACDB_RECOMPOSE_DATA
350
A7DF1
  3
AcDbVariableDictionary
350
86ED5
  3
AcDsDecomposeData
350
A7DF7
  3
AcmDictionary
350
A7BDC
  3
AMG
350
A7BB1
  3
AMGSNAPSETTINGS
350
A7C33
  0
DICTIONARY
  5
87810
330
2
100
AcDbDictionary
280
     1
281
     1
  3
ACAD_LAYERSTATES
360
87811
  0
DICTIONARY
  5
86EEC
330
10
100
AcDbDictionary
280
     1
281
     1
  3
ADSK_XREC_LAYER_RECONCILED
360
86EED
  0
DICTIONARY
  5
86EEE
330
22
100
AcDbDictionary
280
     1
281
     1
  3
ADSK_XREC_LAYER_RECONCILED
360
86EEF
  0
DICTIONARY
  5
86EF0
330
31
100
AcDbDictionary
280
     1
281
     1
  3
ADSK_XREC_LAYER_RECONCILED
360
86EF1
  0
DICTIONARY
  5
86EF2
330
32
100
AcDbDictionary
280
     1
281
     1
  3
ADSK_XREC_LAYER_RECONCILED
360
86EF3
  0
DICTIONARY
  5
86EF4
330
33
100
AcDbDictionary
280
     1
281
     1
  3
ADSK_XREC_LAYER_RECONCILED
360
86EF5
  0
DICTIONARY
  5
86EF6
330
34
100
AcDbDictionary
280
     1
281
     1
  3
ADSK_XREC_LAYER_RECONCILED
360
86EF7
  0
DICTIONARY
  5
86EF8
330
35
100
AcDbDictionary
280
     1
281
     1
  3
ADSK_XREC_LAYER_RECONCILED
360
86EF9
  0
DICTIONARY
  5
86EFA
330
37
100
AcDbDictionary
280
     1
281
     1
  3
ADSK_XREC_LAYER_RECONCILED
360
86EFB
  0
DICTIONARY
  5
86EFE
330
6ACAC
100
AcDbDictionary
280
     1
281
     1
  3
ADSK_XREC_LAYER_RECONCILED
360
86EFF
  0
DICTIONARY
  5
66E76
330
1E
100
AcDbDictionary
280
     1
281
     1
  3
ACAD_LAYOUTSELFREF
360
851A0
  3
ACAD_SORTENTS
360
8A32F
  0
DICTIONARY
  5
66E74
330
1A
100
AcDbDictionary
280
     1
281
     1
  3
ACAD_LAYOUTSELFREF
360
8519F
  0
XRECORD
  5
86ECE
102
{ACAD_REACTORS
330
C
102
}
330
C
100
AcDbXrecord
280
     1
300
ACDLT
300
2021
300

  0
DICTIONARY
  5
86EB2
102
{ACAD_REACTORS
330
C
102
}
330
C
100
AcDbDictionary
281
     1
  0
DICTIONARY
  5
86ECB
102
{ACAD_REACTORS
330
C
102
}
330
C
100
AcDbDictionary
281
     1
  3
Imperial24
350
86ECC
  3
Metric50
350
87813
  0
FIELDLIST
  5
A7C20
102
{ACAD_REACTORS
330
C
102
}
330
C
100
AcDbIdSet
 90
        0
100
AcDbFieldList
  0
DICTIONARY
  5
D
102
{ACAD_REACTORS
330
C
102
}
330
C
100
AcDbDictionary
281
     1
  0
DICTIONARY
  5
19
102
{ACAD_REACTORS
330
C
102
}
330
C
100
AcDbDictionary
281
     1
  3
Model
350
851A5
  3
ﾚｲｱｳﾄ1
350
851A6
  0
DICTIONARY
  5
86E80
102
{ACAD_REACTORS
330
C
102
}
330
C
100
AcDbDictionary
281
     1
  3
ByBlock
350
86E89
  3
ByLayer
350
86E81
  3
Global
350
86E91
  0
DICTIONARY
  5
86EC7
102
{ACAD_REACTORS
330
C
102
}
330
C
100
AcDbDictionary
281
     1
  3
Standard
350
86EC8
  0
DICTIONARY
  5
16
102
{ACAD_REACTORS
330
C
102
}
330
C
100
AcDbDictionary
281
     1
  3
STANDARD
350
17
  0
DICTIONARY
  5
18
102
{ACAD_REACTORS
330
C
102
}
330
C
100
AcDbDictionary
281
     1
  0
ACDBDICTIONARYWDFLT
  5
E
102
{ACAD_REACTORS
330
C
102
}
330
C
100
AcDbDictionary
281
     1
  3
Normal
350
F
100
AcDbDictionaryWithDefault
340
F
  0
DICTIONARY
  5
86EB5
102
{ACAD_REACTORS
330
C
102
}
330
C
100
AcDbDictionary
281
     1
  3
A0
350
86EB6
  3
A1
350
86EB7
  3
A2
350
86EB8
  3
A3
350
86EB9
  3
A4
350
86EBA
  3
A5
350
86EBB
  3
A6
350
86EBC
  3
A7
350
86EBD
  3
A8
350
86EBE
  3
A9
350
86EBF
  3
B0
350
86EC0
  3
B1
350
86EC1
  3
B2
350
86EC2
  3
B3
350
86EC3
  3
B4
350
86EC4
  3
B5
350
86EC5
  3
B6
350
86EC6
  0
DICTIONARY
  5
86EC9
102
{ACAD_REACTORS
330
C
102
}
330
C
100
AcDbDictionary
281
     1
  3
Imperial24
350
86ECA
  3
Metric50
350
87812
  0
DICTIONARY
  5
86EB3
102
{ACAD_REACTORS
330
C
102
}
330
C
100
AcDbDictionary
281
     1
  3
Standard
350
86EB4
  0
DICTIONARY
  5
86E99
102
{ACAD_REACTORS
330
C
102
}
330
C
100
AcDbDictionary
281
     1
  3
2dWireframe
350
86E9F
  3
Basic
350
86E9E
  3
Brighten
350
86EA5
  3
ColorChange
350
86EA9
  3
Conceptual
350
86EA2
  3
Dim
350
86EA4
  3
EdgeColorOff
350
86EB1
  3
Facepattern
350
86EA8
  3
Flat
350
86E9A
  3
FlatWithEdges
350
86E9B
  3
Gouraud
350
86E9C
  3
GouraudWithEdges
350
86E9D
  3
Hidden
350
86EA1
  3
JitterOff
350
86EAF
  3
Linepattern
350
86EA7
  3
OverhangOff
350
86EB0
  3
Realistic
350
86EA3
  3
Shaded
350
86EAE
  3
Shaded with edges
350
86EAD
  3
Shades of Gray
350
86EAA
  3
Sketchy
350
86EAB
  3
Thicken
350
86EA6
  3
Wireframe
350
86EA0
  3
X-Ray
350
86EAC
  0
XRECORD
  5
A7DF1
102
{ACAD_REACTORS
330
C
102
}
330
C
100
AcDbXrecord
280
     1
 90
        1
330
86EB4
330
A79F6
  0
DICTIONARY
  5
86ED5
102
{ACAD_REACTORS
330
C
102
}
330
C
100
AcDbDictionary
281
     1
  3
CANNOSCALE
350
86EDB
  3
CMLEADERSTYLE
350
86ED7
  3
CTABLESTYLE
350
86ED6
  3
CVIEWDETAILSTYLE
350
86ED8
  3
CVIEWSECTIONSTYLE
350
86ED9
  3
LAYEREVAL
350
86EDD
  3
LAYERNOTIFY
350
86EDE
  3
LIGHTINGUNITS
350
86EDC
  3
MSLTSCALE
350
86EDA
  0
DICTIONARY
  5
A7DF7
102
{ACAD_REACTORS
330
C
102
}
330
C
100
AcDbDictionary
281
     1
  3
AcDsRecords
350
A7DF9
  3
AcDsSchemas
350
A7DF8
1001
ACAD
1070
     2
  0
DICTIONARY
  5
A7BDC
102
{ACAD_REACTORS
330
C
102
}
330
C
100
AcDbDictionary
281
     1
  3
AcmStdDictionary
350
A7BE3
  0
DICTIONARY
  5
A7BB1
102
{ACAD_REACTORS
330
C
102
}
330
C
100
AcDbDictionary
281
     1
  0
DICTIONARY
  5
A7C33
102
{ACAD_REACTORS
330
C
102
}
330
C
100
AcDbDictionary
281
     1
  0
DICTIONARY
  5
87811
102
{ACAD_REACTORS
330
87810
102
}
330
87810
100
AcDbDictionary
281
     1
  0
XRECORD
  5
86EED
102
{ACAD_REACTORS
330
86EEC
102
}
330
86EEC
100
AcDbXrecord
280
     1
290
     1
  0
XRECORD
  5
86EEF
102
{ACAD_REACTORS
330
86EEE
102
}
330
86EEE
100
AcDbXrecord
280
     1
290
     1
  0
XRECORD
  5
86EF1
102
{ACAD_REACTORS
330
86EF0
102
}
330
86EF0
100
AcDbXrecord
280
     1
290
     1
  0
XRECORD
  5
86EF3
102
{ACAD_REACTORS
330
86EF2
102
}
330
86EF2
100
AcDbXrecord
280
     1
290
     1
  0
XRECORD
  5
86EF5
102
{ACAD_REACTORS
330
86EF4
102
}
330
86EF4
100
AcDbXrecord
280
     1
290
     1
  0
XRECORD
  5
86EF7
102
{ACAD_REACTORS
330
86EF6
102
}
330
86EF6
100
AcDbXrecord
280
     1
290
     1
  0
XRECORD
  5
86EF9
102
{ACAD_REACTORS
330
86EF8
102
}
330
86EF8
100
AcDbXrecord
280
     1
290
     1
  0
XRECORD
  5
86EFB
102
{ACAD_REACTORS
330
86EFA
102
}
330
86EFA
100
AcDbXrecord
280
     1
290
     1
  0
XRECORD
  5
86EFF
102
{ACAD_REACTORS
330
86EFE
102
}
330
86EFE
100
AcDbXrecord
280
     1
290
     1
  0
XRECORD
  5
851A0
102
{ACAD_REACTORS
330
66E76
102
}
330
66E76
100
AcDbXrecord
280
     1
340
1E
  0
SORTENTSTABLE
  5
8A32F
102
{ACAD_REACTORS
330
66E76
102
}
330
66E76
100
AcDbSortentsTable
330
1E
331
A4BA1
  5
A4BA2
331
A4BA2
  5
A4BA4
331
A4BA3
  5
A4BA5
331
A4BA4
  5
A4BA6
331
A4BA5
  5
A4BA7
331
A4BA6
  5
A4BA8
331
A4BA7
  5
A4BA9
331
A4BA8
  5
A4BAA
331
A4BAA
  5
A4BB0
331
A4BAB
  5
A4BB9
331
A4BB0
  5
A4BBA
331
A4BB1
  5
A4BC0
331
A4BB9
  5
A4BC1
331
A4BBA
  5
A4BC2
331
A4BC0
  5
A4BC3
331
A4BC1
  5
A4BC5
331
A4BC4
  5
A4BD0
331
A4BC6
  5
A4BD1
331
A4BC8
  5
A4BD2
331
A4BD1
  5
A4BD5
331
A4BD6
  5
A4BDB
331
A4BE0
  5
A4BE8
331
A4BE1
  5
A4BE9
331
A4C28
  5
A4C2D
331
A4C2A
  5
A4C2F
331
A4C2F
  5
A4C37
331
A4C31
  5
A4C38
331
A4C33
  5
A4C39
331
A4C35
  5
A4C3B
331
A4C36
  5
A4C3C
331
A4C39
  5
A4C42
331
A4C3B
  5
A4C43
331
A4C3C
  5
A4C44
331
A4C3D
  5
A4C46
331
A4C56
  5
A4C61
331
A4C57
  5
A4C62
331
A4C74
  5
A4C7E
331
A4C75
  5
A4C7F
331
A4C76
  5
A4C80
331
A4C77
  5
A4C8D
331
A4C79
  5
A4C8E
331
A4C7A
  5
A4C90
331
A4C7E
  5
A4C91
331
A4C80
  5
A4C93
331
A4C8B
  5
A4C94
331
A4C8C
  5
A4C97
331
A4C8E
  5
A4C98
331
A4C8F
  5
A4C9C
331
A4C91
  5
A4C9D
331
A4C92
  5
A4C9E
331
A4C95
  5
A4C9F
331
A4C96
  5
A4CA0
331
A4C9A
  5
A4CA1
331
A4C9B
  5
A4CA2
331
A4C9C
  5
A4CA3
331
A4C9D
  5
A4CA5
331
A4C9E
  5
A4CA7
331
A4C9F
  5
A4CAD
331
A4CA0
  5
A4CAE
331
A4CA1
  5
A4CB1
331
A4CA3
  5
A4CB5
331
A4CA5
  5
A4CB6
331
A4CAB
  5
A4CB7
331
A4CAC
  5
A4CB8
331
A4CAD
  5
A4CB9
331
A4CAE
  5
A4CBA
331
A4CB1
  5
A4CBB
331
A4CB5
  5
A4CBE
331
A4CB6
  5
A4CBF
331
A4CB9
  5
A4CD1
331
A4CBA
  5
A4CD2
331
A4CCC
  5
A4CEB
331
A4CCF
  5
A4CEE
331
A4CEE
  5
A4CF5
331
A4CEF
  5
A4CF6
331
A4CF0
  5
A4CF9
331
A4CF1
  5
A4CFA
331
A4CF2
  5
A4CFE
331
A4CF3
  5
A4CFF
331
A4CF4
  5
A4D00
331
A4CF5
  5
A4D03
331
A4CF6
  5
A4D06
331
A4EB3
  5
A4EBD
331
A4EB4
  5
A4EBE
331
A4EB5
  5
A4EC0
331
A4EB7
  5
A4EC2
331
A4EB9
  5
A4EC5
331
A5234
  5
A5243
331
A5235
  5
A5244
331
A5236
  5
A5245
331
A5237
  5
A5246
331
A5238
  5
A5247
331
A5239
  5
A5248
331
A523A
  5
A5249
331
A523B
  5
A524A
331
A523F
  5
A524B
331
A5240
  5
A524C
331
A5241
  5
A524E
331
A5242
  5
A524F
331
A5243
  5
A5250
331
A5244
  5
A5251
331
A5245
  5
A5252
331
A5246
  5
A525B
331
A5247
  5
A525E
331
A5248
  5
A525F
331
A5249
  5
A5260
331
A524A
  5
A5262
331
A524C
  5
A5264
331
A524E
  5
A5265
331
A524F
  5
A5266
331
A5250
  5
A526A
331
A5251
  5
A5271
331
A5252
  5
A528F
331
A5256
  5
A5291
331
A5258
  5
A5294
331
A525B
  5
A5295
331
A525C
  5
A5299
331
A525D
  5
A529A
331
A525E
  5
A529C
331
A525F
  5
A529D
331
A5260
  5
A529E
331
A5261
  5
A529F
331
A5262
  5
A52A0
331
A5263
  5
A52A3
331
A5264
  5
A52A4
331
A526F
  5
A52A5
331
A528D
  5
A52A6
331
A528E
  5
A52A7
331
A528F
  5
A52A8
331
A5292
  5
A52A9
331
A5293
  5
A52AA
331
A5297
  5
A52AB
331
A5298
  5
A52B1
331
A5299
  5
A52C4
331
A529A
  5
A52E7
331
A529C
  5
A52EC
331
A529D
  5
A52ED
331
A529E
  5
A52EE
331
A52A1
  5
A52EF
331
A52A2
  5
A52F0
331
A52A4
  5
A52F1
331
A52A5
  5
A52F2
331
A52A6
  5
A52F3
331
A52AF
  5
A52F4
331
A52BF
  5
A52F5
331
A52C0
  5
A52F8
331
A52C1
  5
A52F9
331
A52C2
  5
A52FA
331
A52E5
  5
A52FD
331
A52E6
  5
A52FE
331
A52EA
  5
A52FF
331
A52EB
  5
A5301
331
A52ED
  5
A5306
331
A52EE
  5
A5307
331
A52EF
  5
A5308
331
A52F0
  5
A5309
331
A52F1
  5
A530A
331
A52F2
  5
A530B
331
A52F3
  5
A530C
331
A52F6
  5
A530D
331
A52F9
  5
A530E
331
A52FA
  5
A530F
331
A52FC
  5
A5310
331
A52FD
  5
A5311
331
A5301
  5
A5312
331
A5302
  5
A5313
331
A5303
  5
A5314
331
A5304
  5
A5315
331
A5305
  5
A5331
331
A5306
  5
A5333
331
A5307
  5
A5334
331
A5308
  5
A5335
331
A5309
  5
A5336
331
A530A
  5
A5337
331
A530B
  5
A5338
331
A530C
  5
A5339
331
A530D
  5
A533A
331
A530E
  5
A533E
331
A530F
  5
A5341
331
A5310
  5
A5343
331
A5311
  5
A5344
331
A5312
  5
A5345
331
A532F
  5
A5346
331
A5330
  5
A5348
331
A5331
  5
A5399
331
A5332
  5
A539A
331
A5334
  5
A539B
331
A5335
  5
A539C
331
A533A
  5
A539D
331
A533B
  5
A539E
331
A533C
  5
A539F
331
A533D
  5
A53A5
331
A533E
  5
A53A6
331
A533F
  5
A53A9
331
A5341
  5
A53AA
331
A5343
  5
A53AB
331
A5397
  5
A53AC
331
A5398
  5
A53AE
331
A5399
  5
A53B0
331
A539A
  5
A53B2
331
A539B
  5
A53B3
331
A539C
  5
A53B4
331
A539D
  5
A53B5
331
A539E
  5
A540D
331
A53A4
  5
A540E
331
A53A6
  5
A540F
331
A53A8
  5
A5410
331
A53A9
  5
A5411
331
A53AA
  5
A5412
331
A53AB
  5
A5470
331
A53CF
  5
A54E4
331
A5404
  5
A54E5
331
A5405
  5
A54E6
331
A5406
  5
A54E7
331
A5407
  5
A5653
331
A5408
  5
A5654
331
A5409
  5
A5655
331
A540A
  5
A5656
331
A540B
  5
A5657
331
A540C
  5
A565E
331
A540D
  5
A565F
331
A540E
  5
A5672
331
A540F
  5
A5673
331
A5410
  5
A5674
331
A5411
  5
A5675
331
A5412
  5
A5676
331
A5656
  5
A4C45
331
A5657
  5
A4EC9
331
A565E
  5
A5680
331
A565F
  5
A4BB1
331
A5672
  5
A5261
331
A5673
  5
A525D
331
A5674
  5
A525C
331
A5675
  5
A5258
331
A5676
  5
A5253
331
A5678
  5
A4BCF
331
A5679
  5
A4BA1
331
A567C
  5
A4C35
331
A567D
  5
A4BA3
331
A567E
  5
A5681
331
A5715
  5
A5718
331
A5716
  5
A5719
331
A5717
  5
A571A
331
A5718
  5
A571B
331
A5719
  5
A571C
331
A571A
  5
A571D
331
A571B
  5
A571E
331
A571C
  5
A571F
331
A571D
  5
A5720
331
A571E
  5
A5721
331
A571F
  5
A5722
331
A5720
  5
A5723
331
A5721
  5
A5724
331
A5722
  5
A5725
331
A5723
  5
A5726
331
A5724
  5
A5729
331
A5725
  5
A572A
331
A5726
  5
A572B
331
A5727
  5
A572C
331
A5756
  5
A5775
331
A5C8A
  5
A5C8E
331
A5DC9
  5
A5DCA
331
A5DCA
  5
A5DCC
331
A5DCB
  5
A5DCD
331
A5DCC
  5
A5DCE
331
A5DCD
  5
A5DCF
331
A5DCE
  5
A5DD0
331
A5DCF
  5
A5DD1
331
A5DD0
  5
A5DD2
331
A5DD1
  5
A5DD3
331
A5DD2
  5
A5DD4
331
A5DD3
  5
A5DD5
331
A5DD4
  5
A5DD6
331
A5DD5
  5
A5DD7
331
A5DD7
  5
A5DD9
331
A5DD8
  5
A5DDA
331
A5DD9
  5
A5DDB
331
A5DDA
  5
A5DDC
331
A5DDB
  5
A5DDD
331
A5DDC
  5
A5DDE
331
A5DDD
  5
A5DDF
331
A5DDE
  5
A5DE0
331
A5DDF
  5
A5DE1
331
A5DE0
  5
A5DE2
331
A5DE1
  5
A5DE3
331
A5DE2
  5
A5DE4
331
A5DE3
  5
A5DE5
331
A5DE4
  5
A5DE6
331
A5DE5
  5
A5DE7
331
A5DE6
  5
A5DE8
331
A5DE7
  5
A5DE9
331
A5DE8
  5
A5DEA
331
A5DE9
  5
A5DEB
331
A5DEC
  5
A5DEE
331
A5DED
  5
A5DEF
331
A5DEE
  5
A5DF0
331
A5DEF
  5
A5DF1
331
A5DF0
  5
A5DF2
331
A5DF1
  5
A5DF3
331
A5DF2
  5
A5DF4
331
A5DF3
  5
A5DF5
331
A5DF4
  5
A5DF6
331
A5DF5
  5
A5DF7
331
A5DF6
  5
A5DF8
331
A5DF7
  5
A5DF9
331
A5DF8
  5
A5DFA
331
A5DF9
  5
A5DFB
331
A5DFA
  5
A5DFC
331
A5DFB
  5
A5DFD
331
A5DFC
  5
A5DFE
331
A5DFD
  5
A5DFF
331
A5DFE
  5
A5E01
331
A5DFF
  5
A5E02
331
A5E00
  5
A5E03
331
A5E01
  5
A5E04
331
A5E02
  5
A5E05
331
A5E03
  5
A5E06
331
A5E04
  5
A5E07
331
A5E05
  5
A5E08
331
A5E06
  5
A5E09
331
A5E07
  5
A5E0A
331
A5E08
  5
A5E0B
331
A5E09
  5
A5E0C
331
A5E0A
  5
A5E0D
331
A5E0B
  5
A5E0E
331
A5E0C
  5
A5E0F
331
A5E0D
  5
A5E10
331
A5E0E
  5
A5E11
331
A5E0F
  5
A5E12
331
A5E10
  5
A5E13
331
A5E11
  5
A5E14
331
A5E12
  5
A5E15
331
A5E13
  5
A5E16
331
A5E14
  5
A5E17
331
A5E15
  5
A5E18
331
A5E16
  5
A5E19
331
A5E1B
  5
A5E1E
331
A5E1C
  5
A5E1F
331
A5E1D
  5
A5E20
331
A5E1E
  5
A5E21
331
A5E1F
  5
A5E22
331
A5E20
  5
A5E23
331
A5E21
  5
A5E24
331
A5E22
  5
A5E25
331
A5E23
  5
A5E26
331
A5E24
  5
A5E27
331
A5E25
  5
A5E28
331
A5E26
  5
A5E29
331
A5E27
  5
A5E2A
331
A5E28
  5
A5E2E
331
A5E29
  5
A5E2F
331
A5E2A
  5
A5E30
331
A5E2E
  5
A5E31
331
A5E2F
  5
A5E32
331
A5E30
  5
A5E33
331
A5E50
  5
A5E5D
331
A5EC1
  5
A5EC4
331
A5EC2
  5
A5EC5
331
A5EC3
  5
A5EC6
331
A5EC4
  5
A5EC8
331
A5EC5
  5
A5EC9
331
A5EC6
  5
A5ECA
331
A5EC7
  5
A5ECB
331
A5EC8
  5
A5ECC
331
A5EC9
  5
A5ECD
331
A5ECA
  5
A5ECE
331
A5ECB
  5
A5ECF
331
A5ECC
  5
A5ED2
331
A5ECF
  5
A5ED3
331
A5ED0
  5
A5ED4
331
A5ED1
  5
A5ED5
331
A5ED2
  5
A5ED6
331
A5ED3
  5
A5ED7
331
A5ED4
  5
A5ED8
331
A5ED5
  5
A5ED9
331
A5ED6
  5
A5EDA
331
A5ED7
  5
A5EDB
331
A5ED8
  5
A5EDC
331
A5ED9
  5
A5EDD
331
A5EDA
  5
A5EDE
331
A5EDB
  5
A5EDF
331
A5EDC
  5
A5EE0
331
A5EDD
  5
A5EE3
331
A5EE0
  5
A5EE4
331
A5EE1
  5
A5EE5
331
A5EE2
  5
A5EEB
331
A5EE3
  5
A5EEC
331
A5EE4
  5
A5EEE
331
A5EEB
  5
A5DC9
331
A5EEC
  5
A5DCB
331
A5EED
  5
A5E00
331
A5EEE
  5
A5EEF
331
A5EEF
  5
A5EF9
331
A5EFD
  5
A5EC7
  0
XRECORD
  5
8519F
102
{ACAD_REACTORS
330
66E74
102
}
330
66E74
100
AcDbXrecord
280
     1
340
1A
  0
ACDBDETAILVIEWSTYLE
  5
86ECC
102
{ACAD_XDICTIONARY
360
A7DFC
102
}
102
{ACAD_REACTORS
330
86ECB
102
}
330
86ECB
100
AcDbModelDocViewStyle
 70
     0
  3
Imperial24
290
     0
100
AcDbDetailViewStyle
 70
     0
 71
     0
 90
        3
 71
     1
340
11
 62
   256
 40
0.24
340
0
 62
   256
 40
0.24
300

 40
0.36
280
     3
 71
     2
340
15
 90
       25
 62
   256
 71
     3
340
11
 62
   256
 40
0.24
 90
        1
 40
0.75
 90
        1
300
%<\AcVar ViewType \f "%tc1">% %<\AcVar ViewDetailId>%\PSCALE %<\AcVar ViewScale \f "%sn">%
 71
     4
340
15
 90
       25
 62
   256
340
15
 90
       25
 62
   256
280
     0
  0
ACDBDETAILVIEWSTYLE
  5
87813
102
{ACAD_XDICTIONARY
360
A7E00
102
}
102
{ACAD_REACTORS
330
86ECB
102
}
330
86ECB
100
AcDbModelDocViewStyle
 70
     0
  3
Metric50
290
     0
100
AcDbDetailViewStyle
 70
     0
 71
     0
 90
        3
 71
     1
340
11
 62
   256
 40
5.0
340
0
 62
   256
 40
5.0
300

 40
0.0
280
     1
 71
     2
340
15
 90
       25
 62
   256
 71
     3
340
11
 62
   256
 40
5.0
 90
        0
 40
15.0
 90
        1
300
%<\AcVar ViewDetailId>% (%<\AcVar ViewScale \f "%sn">%)
 71
     4
340
15
 90
       25
 62
   256
340
15
 90
       25
 62
   256
280
     0
  0
LAYOUT
  5
851A5
102
{ACAD_REACTORS
330
19
102
}
330
19
100
AcDbPlotSettings
  1

  2
\\PC07\EPSON LP-8900
  4
A4
  6
ALL
 40
5.873749732971191
 41
5.873747825622557
 42
5.873748779296875
 43
5.873748779296875
 44
209.9733276367186
 45
297.0106506347656
 46
0.0
 47
0.0
 48
0.0
 49
0.0
140
0.0
141
0.0
142
1.0
143
230.4667882076691
 70
 11952
 72
     0
 73
     1
 74
     0
  7
monochrome.ctb
 75
     0
147
0.0043390199853825
 76
     0
 77
     2
 78
   300
148
32587.6637119656
149
15204.77188839906
100
AcDbLayout
  1
Model
 70
     1
 71
     0
 10
0.0
 20
0.0
 11
12.0
 21
9.0
 12
0.0
 22
0.0
 32
0.0
 14
0.0
 24
0.0
 34
0.0
 15
0.0
 25
0.0
 35
0.0
146
0.0
 13
0.0
 23
0.0
 33
0.0
 16
1.0
 26
0.0
 36
0.0
 17
0.0
 27
1.0
 37
0.0
 76
     0
330
1E
331
86E7B
  0
LAYOUT
  5
851A6
102
{ACAD_REACTORS
330
19
102
}
330
19
100
AcDbPlotSettings
  1

  2
\\PC07\EPSON LP-8900
  4

  6

 40
0.0
 41
0.0
 42
0.0
 43
0.0
 44
0.0
 45
0.0
 46
0.0
 47
0.0
 48
0.0
 49
0.0
140
0.0
141
0.0
142
1.0
143
1.0
 70
   688
 72
     0
 73
     0
 74
     5
  7
monochrome.ctb
 75
    16
147
1.0
 76
     0
 77
     2
 78
   300
148
0.0
149
0.0
100
AcDbLayout
  1
ﾚｲｱｳﾄ1
 70
     1
 71
     1
 10
0.0
 20
0.0
 11
12.0
 21
9.0
 12
0.0
 22
0.0
 32
0.0
 14
1.000000000000000E+20
 24
1.000000000000000E+20
 34
1.000000000000000E+20
 15
-1.000000000000000E+20
 25
-1.000000000000000E+20
 35
-1.000000000000000E+20
146
0.0
 13
0.0
 23
0.0
 33
0.0
 16
1.0
 26
0.0
 36
0.0
 17
0.0
 27
1.0
 37
0.0
 76
     0
330
1A
  0
MATERIAL
  5
86E89
102
{ACAD_XDICTIONARY
360
86E8A
102
}
102
{ACAD_REACTORS
330
86E80
102
}
330
86E80
100
AcDbMaterial
  1
ByBlock
 72
     0
 43
0.0208333333333333
 43
0.0
 43
0.0
 43
0.0
 43
0.0
 43
0.0208333333333333
 43
0.0
 43
0.0
 43
0.0
 43
0.0
 43
1.0
 43
0.0
 43
0.0
 43
0.0
 43
0.0
 43
1.0
 77
     0
 47
0.0208333333333333
 47
0.0
 47
0.0
 47
0.0
 47
0.0
 47
0.0208333333333333
 47
0.0
 47
0.0
 47
0.0
 47
0.0
 47
1.0
 47
0.0
 47
0.0
 47
0.0
 47
0.0
 47
1.0
171
     0
 49
0.0208333333333333
 49
0.0
 49
0.0
 49
0.0
 49
0.0
 49
0.0208333333333333
 49
0.0
 49
0.0
 49
0.0
 49
0.0
 49
1.0
 49
0.0
 49
0.0
 49
0.0
 49
0.0
 49
1.0
175
     0
142
0.0208333333333333
142
0.0
142
0.0
142
0.0
142
0.0
142
0.0208333333333333
142
0.0
142
0.0
142
0.0
142
0.0
142
1.0
142
0.0
142
0.0
142
0.0
142
0.0
142
1.0
179
     0
144
0.0208333333333333
144
0.0
144
0.0
144
0.0
144
0.0
144
0.0208333333333333
144
0.0
144
0.0
144
0.0
144
0.0
144
1.0
144
0.0
144
0.0
144
0.0
144
0.0
144
1.0
147
0.0208333333333333
147
0.0
147
0.0
147
0.0
147
0.0
147
0.0208333333333333
147
0.0
147
0.0
147
0.0
147
0.0
147
1.0
147
0.0
147
0.0
147
0.0
147
0.0
147
1.0
  0
MATERIAL
  5
86E81
102
{ACAD_XDICTIONARY
360
86E82
102
}
102
{ACAD_REACTORS
330
86E80
102
}
330
86E80
100
AcDbMaterial
  1
ByLayer
 72
     0
 43
0.0208333333333333
 43
0.0
 43
0.0
 43
0.0
 43
0.0
 43
0.0208333333333333
 43
0.0
 43
0.0
 43
0.0
 43
0.0
 43
1.0
 43
0.0
 43
0.0
 43
0.0
 43
0.0
 43
1.0
 77
     0
 47
0.0208333333333333
 47
0.0
 47
0.0
 47
0.0
 47
0.0
 47
0.0208333333333333
 47
0.0
 47
0.0
 47
0.0
 47
0.0
 47
1.0
 47
0.0
 47
0.0
 47
0.0
 47
0.0
 47
1.0
171
     0
 49
0.0208333333333333
 49
0.0
 49
0.0
 49
0.0
 49
0.0
 49
0.0208333333333333
 49
0.0
 49
0.0
 49
0.0
 49
0.0
 49
1.0
 49
0.0
 49
0.0
 49
0.0
 49
0.0
 49
1.0
175
     0
142
0.0208333333333333
142
0.0
142
0.0
142
0.0
142
0.0
142
0.0208333333333333
142
0.0
142
0.0
142
0.0
142
0.0
142
1.0
142
0.0
142
0.0
142
0.0
142
0.0
142
1.0
179
     0
144
0.0208333333333333
144
0.0
144
0.0
144
0.0
144
0.0
144
0.0208333333333333
144
0.0
144
0.0
144
0.0
144
0.0
144
1.0
144
0.0
144
0.0
144
0.0
144
0.0
144
1.0
147
0.0208333333333333
147
0.0
147
0.0
147
0.0
147
0.0
147
0.0208333333333333
147
0.0
147
0.0
147
0.0
147
0.0
147
1.0
147
0.0
147
0.0
147
0.0
147
0.0
147
1.0
  0
MATERIAL
  5
86E91
102
{ACAD_XDICTIONARY
360
86E92
102
}
102
{ACAD_REACTORS
330
86E80
102
}
330
86E80
100
AcDbMaterial
  1
Global
 72
     0
 43
0.0208333333333333
 43
0.0
 43
0.0
 43
0.0
 43
0.0
 43
0.0208333333333333
 43
0.0
 43
0.0
 43
0.0
 43
0.0
 43
1.0
 43
0.0
 43
0.0
 43
0.0
 43
0.0
 43
1.0
 77
     0
 47
0.0208333333333333
 47
0.0
 47
0.0
 47
0.0
 47
0.0
 47
0.0208333333333333
 47
0.0
 47
0.0
 47
0.0
 47
0.0
 47
1.0
 47
0.0
 47
0.0
 47
0.0
 47
0.0
 47
1.0
171
     0
 49
0.0208333333333333
 49
0.0
 49
0.0
 49
0.0
 49
0.0
 49
0.0208333333333333
 49
0.0
 49
0.0
 49
0.0
 49
0.0
 49
1.0
 49
0.0
 49
0.0
 49
0.0
 49
0.0
 49
1.0
175
     0
142
0.0208333333333333
142
0.0
142
0.0
142
0.0
142
0.0
142
0.0208333333333333
142
0.0
142
0.0
142
0.0
142
0.0
142
1.0
142
0.0
142
0.0
142
0.0
142
0.0
142
1.0
179
     0
144
0.0208333333333333
144
0.0
144
0.0
144
0.0
144
0.0
144
0.0208333333333333
144
0.0
144
0.0
144
0.0
144
0.0
144
1.0
144
0.0
144
0.0
144
0.0
144
0.0
144
1.0
147
0.0208333333333333
147
0.0
147
0.0
147
0.0
147
0.0
147
0.0208333333333333
147
0.0
147
0.0
147
0.0
147
0.0
147
1.0
147
0.0
147
0.0
147
0.0
147
0.0
147
1.0
  0
MLEADERSTYLE
  5
86EC8
102
{ACAD_REACTORS
330
86EC7
102
}
330
86EC7
100
AcDbMLeaderStyle
179
     2
170
     2
171
     1
172
     0
 90
        2
 40
0.0
 41
0.0
173
     1
 91
-1073741824
340
13
 92
       -2
290
     1
 42
0.09
291
     1
 43
0.36
  3
Standard
341
A5C7D
 44
40.0
300

342
11
174
     1
178
     6
175
     1
176
     0
 93
-1056964608
 45
45.0
292
     0
297
     0
 46
0.18
 94
-1056964608
 47
1.0
 49
1.0
140
1.0
293
     1
141
0.0
294
     1
177
     0
142
1.0
295
     0
296
     0
143
0.125
271
     0
272
     9
273
     9
298
     0
1001
ACAD_MLEADERVER
1070
     2
  0
MLINESTYLE
  5
17
102
{ACAD_REACTORS
330
16
102
}
330
16
100
AcDbMlineStyle
  2
STANDARD
 70
     0
  3

 62
   256
 51
90.0
 52
90.0
 71
     2
 49
0.5
 62
   256
  6
BYLAYER
 49
-0.5
 62
   256
  6
BYLAYER
  0
ACDBPLACEHOLDER
  5
F
102
{ACAD_REACTORS
330
E
102
}
330
E
  0
SCALE
  5
86EB6
102
{ACAD_REACTORS
330
86EB5
102
}
330
86EB5
100
AcDbScale
 70
     0
300
1:1
140
1.0
141
1.0
290
     1
  0
SCALE
  5
86EB7
102
{ACAD_REACTORS
330
86EB5
102
}
330
86EB5
100
AcDbScale
 70
     0
300
1/128" = 1'-0"
140
0.0078125
141
12.0
290
     0
  0
SCALE
  5
86EB8
102
{ACAD_REACTORS
330
86EB5
102
}
330
86EB5
100
AcDbScale
 70
     0
300
1/64" = 1'-0"
140
0.015625
141
12.0
290
     0
  0
SCALE
  5
86EB9
102
{ACAD_REACTORS
330
86EB5
102
}
330
86EB5
100
AcDbScale
 70
     0
300
1/32" = 1'-0"
140
0.03125
141
12.0
290
     0
  0
SCALE
  5
86EBA
102
{ACAD_REACTORS
330
86EB5
102
}
330
86EB5
100
AcDbScale
 70
     0
300
1/16" = 1'-0"
140
0.0625
141
12.0
290
     0
  0
SCALE
  5
86EBB
102
{ACAD_REACTORS
330
86EB5
102
}
330
86EB5
100
AcDbScale
 70
     0
300
3/32" = 1'-0"
140
0.09375
141
12.0
290
     0
  0
SCALE
  5
86EBC
102
{ACAD_REACTORS
330
86EB5
102
}
330
86EB5
100
AcDbScale
 70
     0
300
1/8" = 1'-0"
140
0.125
141
12.0
290
     0
  0
SCALE
  5
86EBD
102
{ACAD_REACTORS
330
86EB5
102
}
330
86EB5
100
AcDbScale
 70
     0
300
3/16" = 1'-0"
140
0.1875
141
12.0
290
     0
  0
SCALE
  5
86EBE
102
{ACAD_REACTORS
330
86EB5
102
}
330
86EB5
100
AcDbScale
 70
     0
300
1/4" = 1'-0"
140
0.25
141
12.0
290
     0
  0
SCALE
  5
86EBF
102
{ACAD_REACTORS
330
86EB5
102
}
330
86EB5
100
AcDbScale
 70
     0
300
3/8" = 1'-0"
140
0.375
141
12.0
290
     0
  0
SCALE
  5
86EC0
102
{ACAD_REACTORS
330
86EB5
102
}
330
86EB5
100
AcDbScale
 70
     0
300
1/2" = 1'-0"
140
0.5
141
12.0
290
     0
  0
SCALE
  5
86EC1
102
{ACAD_REACTORS
330
86EB5
102
}
330
86EB5
100
AcDbScale
 70
     0
300
3/4" = 1'-0"
140
0.75
141
12.0
290
     0
  0
SCALE
  5
86EC2
102
{ACAD_REACTORS
330
86EB5
102
}
330
86EB5
100
AcDbScale
 70
     0
300
1" = 1'-0"
140
1.0
141
12.0
290
     0
  0
SCALE
  5
86EC3
102
{ACAD_REACTORS
330
86EB5
102
}
330
86EB5
100
AcDbScale
 70
     0
300
1-1/2" = 1'-0"
140
1.5
141
12.0
290
     0
  0
SCALE
  5
86EC4
102
{ACAD_REACTORS
330
86EB5
102
}
330
86EB5
100
AcDbScale
 70
     0
300
3" = 1'-0"
140
3.0
141
12.0
290
     0
  0
SCALE
  5
86EC5
102
{ACAD_REACTORS
330
86EB5
102
}
330
86EB5
100
AcDbScale
 70
     0
300
6" = 1'-0"
140
6.0
141
12.0
290
     0
  0
SCALE
  5
86EC6
102
{ACAD_REACTORS
330
86EB5
102
}
330
86EB5
100
AcDbScale
 70
     0
300
1'-0" = 1'-0"
140
12.0
141
12.0
290
     0
  0
ACDBSECTIONVIEWSTYLE
  5
86ECA
102
{ACAD_XDICTIONARY
360
A7DFA
102
}
102
{ACAD_REACTORS
330
86EC9
102
}
330
86EC9
100
AcDbModelDocViewStyle
 70
     0
  3
Imperial24
290
     0
100
AcDbSectionViewStyle
 70
     0
 71
     0
 90
       78
 71
     1
340
11
 62
   256
 40
0.24
340
0
340
0
 62
   256
 40
0.24
300
I, O, Q, S, X, Z
 40
0.48
 90
        3
 40
0.18
 90
        1
 71
     2
340
15
 90
       25
 62
   256
340
15
 90
       50
 62
   256
 40
0.24
 40
0.0
 40
0.24
 71
     3
340
11
 62
   256
 40
0.24
 90
        1
 40
0.75
 90
        1
300
%<\AcVar ViewType \f "%tc1">% %<\AcVar ViewSectionStartId>%-%<\AcVar ViewSectionEndId>%\PSCALE %<\AcVar ViewScale \f "%sn">%
 71
     4
 62
   256
 62
   257
300
ANSI31
 40
1.0
 90
        0
290
     0
290
     0
 90
        6
 40
0.0
 40
1.570796326794896
 40
0.2617993877991494
 40
1.308996938995747
 40
-0.2617993877991494
 40
1.832595714594044
  0
ACDBSECTIONVIEWSTYLE
  5
87812
102
{ACAD_XDICTIONARY
360
A7DFE
102
}
102
{ACAD_REACTORS
330
86EC9
102
}
330
86EC9
100
AcDbModelDocViewStyle
 70
     0
  3
Metric50
290
     0
100
AcDbSectionViewStyle
 70
     0
 71
     0
 90
      102
 71
     1
340
11
 62
   256
 40
5.0
340
0
340
0
 62
   256
 40
5.0
300
I, O, Q, S, X, Z
 40
10.0
 90
        0
 40
2.5
 90
        0
 71
     2
340
15
 90
       25
 62
   256
340
15
 90
       50
 62
   256
 40
5.0
 40
2.5
 40
5.0
 71
     3
340
11
 62
   256
 40
5.0
 90
        0
 40
15.0
 90
        1
300
%<\AcVar ViewSectionStartId>%-%<\AcVar ViewSectionEndId>% (%<\AcVar ViewScale \f "%sn">%)
 71
     4
 62
   256
 62
   257
300
ANSI31
 40
1.0
 90
        0
290
     0
290
     0
 90
        6
 40
0.0
 40
1.570796326794896
 40
0.2617993877991494
 40
1.308996938995747
 40
-0.2617993877991494
 40
1.832595714594044
  0
TABLESTYLE
  5
86EB4
102
{ACAD_XDICTIONARY
360
86F00
102
}
102
{ACAD_REACTORS
330
86EB3
102
}
330
86EB3
100
AcDbTableStyle
280
     0
  3
Standard
 70
     0
 71
     0
 40
0.06
 41
0.06
280
     0
281
     0
  7
STANDARD
140
0.18
170
     2
 62
     0
 63
     7
283
     0
 90
      512
 91
        0
  1

274
    -2
284
     1
 64
     0
275
    -2
285
     1
 65
     0
276
    -2
286
     1
 66
     0
277
    -2
287
     1
 67
     0
278
    -2
288
     1
 68
     0
279
    -2
289
     1
 69
     0
  7
STANDARD
140
0.25
170
     5
 62
     0
 63
     7
283
     0
 90
      512
 91
        0
  1

274
    -2
284
     1
 64
     0
275
    -2
285
     1
 65
     0
276
    -2
286
     1
 66
     0
277
    -2
287
     1
 67
     0
278
    -2
288
     1
 68
     0
279
    -2
289
     1
 69
     0
  7
STANDARD
140
0.18
170
     5
 62
     0
 63
     7
283
     0
 90
      512
 91
        0
  1

274
    -2
284
     1
 64
     0
275
    -2
285
     1
 65
     0
276
    -2
286
     1
 66
     0
277
    -2
287
     1
 67
     0
278
    -2
288
     1
 68
     0
279
    -2
289
     1
 69
     0
  0
VISUALSTYLE
  5
86E9F
102
{ACAD_REACTORS
330
86E99
102
}
330
86E99
100
AcDbVisualStyle
  2

 70
     4
177
     3
291
     0
 70
    58
 90
        0
176
     1
 90
        2
176
     1
 90
        0
176
     1
 90
        0
176
     1
 40
0.6
176
     1
 40
30.0
176
     1
 62
     7
420
 16777215
176
     1
 90
        1
176
     1
 90
        4
176
     1
 62
     7
176
     1
 62
   257
176
     1
 90
        1
176
     1
 90
        1
176
     1
 40
1.0
176
     1
 90
        0
176
     1
 62
   257
176
     1
 40
1.0
176
     1
 90
        1
176
     1
 90
        6
176
     1
 90
        2
176
     1
 62
     7
176
     1
 90
        5
176
     1
 90
        0
176
     1
 90
        0
176
     1
290
     0
176
     1
 90
        1
176
     1
 40
0.0
176
     1
 90
        0
176
     1
290
     1
176
     1
290
     1
176
     1
290
     0
176
     1
290
     0
176
     1
290
     0
176
     1
290
     0
176
     1
290
     0
176
     1
290
     0
176
     1
290
     0
176
     1
 90
       50
176
     1
 40
0.0
176
     1
 40
1.0
176
     1
 90
        0
176
     1
 62
    18
176
     1
 90
       50
176
     1
 90
        3
176
     1
 62
     5
420
      255
176
     1
290
     0
176
     1
 90
       50
176
     1
 90
       50
176
     1
 90
       50
176
     1
290
     0
176
     1
 90
       50
176
     1
 62
   256
176
     0
 40
1.0
176
     0
 90
        2
176
     1
  1
strokes_ogs.tif
176
     1
290
     0
176
     1
 40
1.0
176
     1
 40
1.0
176
     1
1001
ACAD
1000
AcDbSavedByObjectVersion
1070
     0
  0
VISUALSTYLE
  5
86E9E
102
{ACAD_REACTORS
330
86E99
102
}
330
86E99
100
AcDbVisualStyle
  2

 70
     7
177
     3
291
     1
 70
    58
 90
        1
176
     1
 90
        0
176
     1
 90
        1
176
     1
 90
        0
176
     1
 40
0.6
176
     1
 40
30.0
176
     1
 62
     7
420
 16777215
176
     1
 90
        0
176
     1
 90
        4
176
     1
 62
     7
176
     1
 62
   257
176
     1
 90
        1
176
     1
 90
        1
176
     1
 40
1.0
176
     1
 90
        8
176
     1
 62
     7
176
     1
 40
1.0
176
     1
 90
        1
176
     1
 90
        6
176
     1
 90
        2
176
     1
 62
     7
176
     1
 90
        5
176
     1
 90
        0
176
     1
 90
        0
176
     1
290
     0
176
     1
 90
        1
176
     1
 40
0.0
176
     1
 90
        0
176
     1
290
     0
176
     1
290
     1
176
     1
290
     1
176
     1
290
     0
176
     1
290
     0
176
     1
290
     0
176
     1
290
     0
176
     1
290
     0
176
     1
290
     0
176
     1
 90
       50
176
     1
 40
0.0
176
     1
 40
1.0
176
     1
 90
        0
176
     1
 62
    18
176
     1
 90
       50
176
     1
 90
        3
176
     1
 62
     5
420
      255
176
     1
290
     0
176
     1
 90
       50
176
     1
 90
       50
176
     1
 90
       50
176
     1
290
     0
176
     1
 90
       50
176
     1
 62
   256
176
     0
 40
1.0
176
     0
 90
        2
176
     1
  1
strokes_ogs.tif
176
     1
290
     0
176
     1
 40
1.0
176
     1
 40
1.0
176
     1
1001
ACAD
1000
AcDbSavedByObjectVersion
1070
     0
  0
VISUALSTYLE
  5
86EA5
102
{ACAD_REACTORS
330
86E99
102
}
330
86E99
100
AcDbVisualStyle
  2

 70
    12
177
     3
291
     1
 70
    58
 90
        2
176
     1
 90
        2
176
     1
 90
        0
176
     1
 90
        0
176
     1
 40
0.6
176
     1
 40
30.0
176
     1
 62
     7
420
 16777215
176
     1
 90
        1
176
     1
 90
        4
176
     1
 62
     7
176
     1
 62
   257
176
     1
 90
        1
176
     1
 90
        1
176
     1
 40
1.0
176
     1
 90
        8
176
     1
 62
     7
176
     1
 40
1.0
176
     1
 90
        1
176
     1
 90
        6
176
     1
 90
        2
176
     1
 62
     7
176
     1
 90
        5
176
     1
 90
        0
176
     1
 90
        0
176
     1
290
     0
176
     1
 90
        1
176
     1
 40
50.0
176
     1
 90
        0
176
     1
290
     0
176
     1
290
     1
176
     1
290
     1
176
     1
290
     0
176
     1
290
     0
176
     1
290
     0
176
     1
290
     0
176
     1
290
     0
176
     1
290
     0
176
     1
 90
       50
176
     1
 40
0.0
176
     1
 40
1.0
176
     1
 90
        0
176
     1
 62
    18
176
     1
 90
       50
176
     1
 90
        3
176
     1
 62
     5
420
      255
176
     1
290
     0
176
     1
 90
       50
176
     1
 90
       50
176
     1
 90
       50
176
     1
290
     0
176
     1
 90
       50
176
     1
 62
   256
176
     0
 40
1.0
176
     0
 90
        2
176
     1
  1
strokes_ogs.tif
176
     1
290
     0
176
     1
 40
1.0
176
     1
 40
1.0
176
     1
1001
ACAD
1000
AcDbSavedByObjectVersion
1070
     0
  0
VISUALSTYLE
  5
86EA9
102
{ACAD_REACTORS
330
86E99
102
}
330
86E99
100
AcDbVisualStyle
  2

 70
    16
177
     3
291
     1
 70
    58
 90
        2
176
     1
 90
        2
176
     1
 90
        3
176
     1
 90
        0
176
     1
 40
0.6
176
     1
 40
30.0
176
     1
 62
     8
420
  8421504
176
     1
 90
        1
176
     1
 90
        4
176
     1
 62
     7
176
     1
 62
   257
176
     1
 90
        1
176
     1
 90
        1
176
     1
 40
1.0
176
     1
 90
        8
176
     1
 62
     8
420
  8421504
176
     1
 40
1.0
176
     1
 90
        1
176
     1
 90
        6
176
     1
 90
        2
176
     1
 62
     7
176
     1
 90
        5
176
     1
 90
        0
176
     1
 90
        0
176
     1
290
     0
176
     1
 90
        1
176
     1
 40
0.0
176
     1
 90
        0
176
     1
290
     0
176
     1
290
     1
176
     1
290
     1
176
     1
290
     0
176
     1
290
     0
176
     1
290
     0
176
     1
290
     0
176
     1
290
     0
176
     1
290
     0
176
     1
 90
       50
176
     1
 40
0.0
176
     1
 40
1.0
176
     1
 90
        0
176
     1
 62
    18
176
     1
 90
       50
176
     1
 90
        3
176
     1
 62
     5
420
      255
176
     1
290
     0
176
     1
 90
       50
176
     1
 90
       50
176
     1
 90
       50
176
     1
290
     0
176
     1
 90
       50
176
     1
 62
   256
176
     0
 40
1.0
176
     0
 90
        2
176
     1
  1
strokes_ogs.tif
176
     1
290
     0
176
     1
 40
1.0
176
     1
 40
1.0
176
     1
1001
ACAD
1000
AcDbSavedByObjectVersion
1070
     0
  0
VISUALSTYLE
  5
86EA2
102
{ACAD_REACTORS
330
86E99
102
}
330
86E99
100
AcDbVisualStyle
  2

 70
     9
177
     3
291
     0
 70
    58
 90
        3
176
     1
 90
        2
176
     1
 90
        0
176
     1
 90
        0
176
     1
 40
0.6
176
     1
 40
30.0
176
     1
 62
     7
420
 16777215
176
     1
 90
        2
176
     1
 90
        2
176
     1
 62
     7
176
     1
 62
   257
176
     1
 90
        1
176
     1
 90
        1
176
     1
 40
179.0
176
     1
 90
        8
176
     1
 62
     7
176
     1
 40
1.0
176
     1
 90
        1
176
     1
 90
        6
176
     1
 90
        2
176
     1
 62
     7
176
     1
 90
        3
176
     1
 90
        0
176
     1
 90
        0
176
     1
290
     0
176
     1
 90
        1
176
     1
 40
0.0
176
     1
 90
        0
176
     1
290
     0
176
     1
290
     1
176
     1
290
     1
176
     1
290
     0
176
     1
290
     0
176
     1
290
     0
176
     1
290
     0
176
     1
290
     0
176
     1
290
     0
176
     1
 90
       50
176
     1
 40
0.0
176
     1
 40
1.0
176
     1
 90
        0
176
     1
 62
    18
176
     1
 90
       50
176
     1
 90
        3
176
     1
 62
     5
420
      255
176
     1
290
     0
176
     1
 90
       50
176
     1
 90
       50
176
     1
 90
       50
176
     1
290
     0
176
     1
 90
       50
176
     1
 62
   256
176
     0
 40
1.0
176
     0
 90
        2
176
     1
  1
strokes_ogs.tif
176
     1
290
     0
176
     1
 40
1.0
176
     1
 40
1.0
176
     1
1001
ACAD
1000
AcDbSavedByObjectVersion
1070
     0
  0
VISUALSTYLE
  5
86EA4
102
{ACAD_REACTORS
330
86E99
102
}
330
86E99
100
AcDbVisualStyle
  2

 70
    11
177
     3
291
     1
 70
    58
 90
        2
176
     1
 90
        2
176
     1
 90
        0
176
     1
 90
        0
176
     1
 40
0.6
176
     1
 40
30.0
176
     1
 62
     7
420
 16777215
176
     1
 90
        1
176
     1
 90
        4
176
     1
 62
     7
176
     1
 62
   257
176
     1
 90
        1
176
     1
 90
        1
176
     1
 40
1.0
176
     1
 90
        8
176
     1
 62
     7
176
     1
 40
1.0
176
     1
 90
        1
176
     1
 90
        6
176
     1
 90
        2
176
     1
 62
     7
176
     1
 90
        5
176
     1
 90
        0
176
     1
 90
        0
176
     1
290
     0
176
     1
 90
        1
176
     1
 40
-50.0
176
     1
 90
        0
176
     1
290
     0
176
     1
290
     1
176
     1
290
     1
176
     1
290
     0
176
     1
290
     0
176
     1
290
     0
176
     1
290
     0
176
     1
290
     0
176
     1
290
     0
176
     1
 90
       50
176
     1
 40
0.0
176
     1
 40
1.0
176
     1
 90
        0
176
     1
 62
    18
176
     1
 90
       50
176
     1
 90
        3
176
     1
 62
     5
420
      255
176
     1
290
     0
176
     1
 90
       50
176
     1
 90
       50
176
     1
 90
       50
176
     1
290
     0
176
     1
 90
       50
176
     1
 62
   256
176
     0
 40
1.0
176
     0
 90
        2
176
     1
  1
strokes_ogs.tif
176
     1
290
     0
176
     1
 40
1.0
176
     1
 40
1.0
176
     1
1001
ACAD
1000
AcDbSavedByObjectVersion
1070
     0
  0
VISUALSTYLE
  5
86EB1
102
{ACAD_REACTORS
330
86E99
102
}
330
86E99
100
AcDbVisualStyle
  2

 70
    22
177
     3
291
     1
 70
    58
 90
        2
176
     0
 90
        2
176
     0
 90
        0
176
     0
 90
        0
176
     0
 40
0.6
176
     0
 40
30.0
176
     0
 62
     7
420
 16777215
176
     0
 90
        1
176
     0
 90
        4
176
     0
 62
     7
176
     0
 62
   257
176
     0
 90
        1
176
     0
 90
        1
176
     0
 40
1.0
176
     0
 90
        8
176
     2
 62
     7
176
     0
 40
1.0
176
     0
 90
        1
176
     0
 90
        6
176
     0
 90
        2
176
     0
 62
     7
176
     0
 90
        5
176
     0
 90
        0
176
     0
 90
        0
176
     0
290
     0
176
     0
 90
        1
176
     0
 40
0.0
176
     0
 90
        0
176
     0
290
     0
176
     1
290
     1
176
     1
290
     1
176
     1
290
     0
176
     1
290
     0
176
     1
290
     0
176
     1
290
     0
176
     1
290
     0
176
     1
290
     0
176
     1
 90
       50
176
     0
 40
0.0
176
     0
 40
1.0
176
     0
 90
        0
176
     0
 62
    18
176
     0
 90
       50
176
     0
 90
        3
176
     0
 62
     5
420
      255
176
     0
290
     0
176
     1
 90
       50
176
     0
 90
       50
176
     0
 90
       50
176
     0
290
     0
176
     1
 90
       50
176
     0
 62
   256
176
     0
 40
1.0
176
     0
 90
        2
176
     0
  1
strokes_ogs.tif
176
     0
290
     0
176
     1
 40
1.0
176
     0
 40
1.0
176
     0
1001
ACAD
1000
AcDbSavedByObjectVersion
1070
     0
  0
VISUALSTYLE
  5
86EA8
102
{ACAD_REACTORS
330
86E99
102
}
330
86E99
100
AcDbVisualStyle
  2

 70
    15
177
     3
291
     1
 70
    58
 90
        2
176
     1
 90
        2
176
     1
 90
        0
176
     1
 90
        0
176
     1
 40
0.6
176
     1
 40
30.0
176
     1
 62
     7
420
 16777215
176
     1
 90
        1
176
     1
 90
        4
176
     1
 62
     7
176
     1
 62
   257
176
     1
 90
        1
176
     1
 90
        1
176
     1
 40
1.0
176
     1
 90
        8
176
     1
 62
     7
176
     1
 40
1.0
176
     1
 90
        1
176
     1
 90
        6
176
     1
 90
        2
176
     1
 62
     7
176
     1
 90
        5
176
     1
 90
        0
176
     1
 90
        0
176
     1
290
     0
176
     1
 90
        1
176
     1
 40
0.0
176
     1
 90
        0
176
     1
290
     0
176
     1
290
     1
176
     1
290
     1
176
     1
290
     0
176
     1
290
     0
176
     1
290
     0
176
     1
290
     0
176
     1
290
     0
176
     1
290
     0
176
     1
 90
       50
176
     1
 40
0.0
176
     1
 40
1.0
176
     1
 90
        0
176
     1
 62
    18
176
     1
 90
       50
176
     1
 90
        3
176
     1
 62
     5
420
      255
176
     1
290
     0
176
     1
 90
       50
176
     1
 90
       50
176
     1
 90
       50
176
     1
290
     0
176
     1
 90
       50
176
     1
 62
   256
176
     0
 40
1.0
176
     0
 90
        2
176
     1
  1
strokes_ogs.tif
176
     1
290
     0
176
     1
 40
1.0
176
     1
 40
1.0
176
     1
1001
ACAD
1000
AcDbSavedByObjectVersion
1070
     0
  0
VISUALSTYLE
  5
86E9A
102
{ACAD_REACTORS
330
86E99
102
}
330
86E99
100
AcDbVisualStyle
  2

 70
     0
177
     3
291
     1
 70
    58
 90
        2
176
     1
 90
        1
176
     1
 90
        1
176
     1
 90
        2
176
     1
 40
0.6
176
     1
 40
30.0
176
     1
 62
     7
420
 16777215
176
     1
 90
        0
176
     1
 90
        0
176
     1
 62
     7
176
     1
 62
   257
176
     1
 90
        1
176
     1
 90
        1
176
     1
 40
1.0
176
     1
 90
        8
176
     1
 62
     7
176
     1
 40
1.0
176
     1
 90
        1
176
     1
 90
        6
176
     1
 90
        2
176
     1
 62
     7
176
     1
 90
        5
176
     1
 90
        0
176
     1
 90
        0
176
     1
290
     0
176
     1
 90
       13
176
     1
 40
0.0
176
     1
 90
        0
176
     1
290
     0
176
     1
290
     1
176
     1
290
     1
176
     1
290
     0
176
     1
290
     0
176
     1
290
     0
176
     1
290
     0
176
     1
290
     0
176
     1
290
     0
176
     1
 90
       50
176
     1
 40
0.0
176
     1
 40
1.0
176
     1
 90
        0
176
     1
 62
    18
176
     1
 90
       50
176
     1
 90
        3
176
     1
 62
     5
420
      255
176
     1
290
     0
176
     1
 90
       50
176
     1
 90
       50
176
     1
 90
       50
176
     1
290
     0
176
     1
 90
       50
176
     1
 62
   256
176
     0
 40
1.0
176
     0
 90
        2
176
     1
  1
strokes_ogs.tif
176
     1
290
     0
176
     1
 40
1.0
176
     1
 40
1.0
176
     1
1001
ACAD
1000
AcDbSavedByObjectVersion
1070
     0
  0
VISUALSTYLE
  5
86E9B
102
{ACAD_REACTORS
330
86E99
102
}
330
86E99
100
AcDbVisualStyle
  2

 70
     1
177
     3
291
     1
 70
    58
 90
        2
176
     1
 90
        1
176
     1
 90
        1
176
     1
 90
        2
176
     1
 40
0.6
176
     1
 40
30.0
176
     1
 62
     7
420
 16777215
176
     1
 90
        1
176
     1
 90
        0
176
     1
 62
     7
176
     1
 62
   257
176
     1
 90
        1
176
     1
 90
        1
176
     1
 40
1.0
176
     1
 90
        0
176
     1
 62
   257
176
     1
 40
1.0
176
     1
 90
        1
176
     1
 90
        6
176
     1
 90
        2
176
     1
 62
     7
176
     1
 90
        5
176
     1
 90
        0
176
     1
 90
        0
176
     1
290
     0
176
     1
 90
       13
176
     1
 40
0.0
176
     1
 90
        0
176
     1
290
     0
176
     1
290
     1
176
     1
290
     1
176
     1
290
     0
176
     1
290
     0
176
     1
290
     0
176
     1
290
     0
176
     1
290
     0
176
     1
290
     0
176
     1
 90
       50
176
     1
 40
0.0
176
     1
 40
1.0
176
     1
 90
        0
176
     1
 62
    18
176
     1
 90
       50
176
     1
 90
        3
176
     1
 62
     5
420
      255
176
     1
290
     0
176
     1
 90
       50
176
     1
 90
       50
176
     1
 90
       50
176
     1
290
     0
176
     1
 90
       50
176
     1
 62
   256
176
     0
 40
1.0
176
     0
 90
        2
176
     1
  1
strokes_ogs.tif
176
     1
290
     0
176
     1
 40
1.0
176
     1
 40
1.0
176
     1
1001
ACAD
1000
AcDbSavedByObjectVersion
1070
     0
  0
VISUALSTYLE
  5
86E9C
102
{ACAD_REACTORS
330
86E99
102
}
330
86E99
100
AcDbVisualStyle
  2

 70
     2
177
     3
291
     1
 70
    58
 90
        2
176
     1
 90
        2
176
     1
 90
        1
176
     1
 90
        2
176
     1
 40
0.6
176
     1
 40
30.0
176
     1
 62
     7
420
 16777215
176
     1
 90
        0
176
     1
 90
        0
176
     1
 62
     7
176
     1
 62
   257
176
     1
 90
        1
176
     1
 90
        1
176
     1
 40
1.0
176
     1
 90
        0
176
     1
 62
     7
176
     1
 40
1.0
176
     1
 90
        1
176
     1
 90
        6
176
     1
 90
        2
176
     1
 62
     7
176
     1
 90
        5
176
     1
 90
        0
176
     1
 90
        0
176
     1
290
     0
176
     1
 90
       13
176
     1
 40
0.0
176
     1
 90
        0
176
     1
290
     0
176
     1
290
     1
176
     1
290
     1
176
     1
290
     0
176
     1
290
     0
176
     1
290
     0
176
     1
290
     0
176
     1
290
     0
176
     1
290
     0
176
     1
 90
       50
176
     1
 40
0.0
176
     1
 40
1.0
176
     1
 90
        0
176
     1
 62
    18
176
     1
 90
       50
176
     1
 90
        3
176
     1
 62
     5
420
      255
176
     1
290
     0
176
     1
 90
       50
176
     1
 90
       50
176
     1
 90
       50
176
     1
290
     0
176
     1
 90
       50
176
     1
 62
   256
176
     0
 40
1.0
176
     0
 90
        2
176
     1
  1
strokes_ogs.tif
176
     1
290
     0
176
     1
 40
1.0
176
     1
 40
1.0
176
     1
1001
ACAD
1000
AcDbSavedByObjectVersion
1070
     0
  0
VISUALSTYLE
  5
86E9D
102
{ACAD_REACTORS
330
86E99
102
}
330
86E99
100
AcDbVisualStyle
  2

 70
     3
177
     3
291
     1
 70
    58
 90
        2
176
     1
 90
        2
176
     1
 90
        1
176
     1
 90
        2
176
     1
 40
0.6
176
     1
 40
30.0
176
     1
 62
     7
420
 16777215
176
     1
 90
        1
176
     1
 90
        0
176
     1
 62
     7
176
     1
 62
   257
176
     1
 90
        1
176
     1
 90
        1
176
     1
 40
1.0
176
     1
 90
        0
176
     1
 62
   257
176
     1
 40
1.0
176
     1
 90
        1
176
     1
 90
        6
176
     1
 90
        2
176
     1
 62
     7
176
     1
 90
        5
176
     1
 90
        0
176
     1
 90
        0
176
     1
290
     0
176
     1
 90
       13
176
     1
 40
0.0
176
     1
 90
        0
176
     1
290
     0
176
     1
290
     1
176
     1
290
     1
176
     1
290
     0
176
     1
290
     0
176
     1
290
     0
176
     1
290
     0
176
     1
290
     0
176
     1
290
     0
176
     1
 90
       50
176
     1
 40
0.0
176
     1
 40
1.0
176
     1
 90
        0
176
     1
 62
    18
176
     1
 90
       50
176
     1
 90
        3
176
     1
 62
     5
420
      255
176
     1
290
     0
176
     1
 90
       50
176
     1
 90
       50
176
     1
 90
       50
176
     1
290
     0
176
     1
 90
       50
176
     1
 62
   256
176
     0
 40
1.0
176
     0
 90
        2
176
     1
  1
strokes_ogs.tif
176
     1
290
     0
176
     1
 40
1.0
176
     1
 40
1.0
176
     1
1001
ACAD
1000
AcDbSavedByObjectVersion
1070
     0
  0
VISUALSTYLE
  5
86EA1
102
{ACAD_REACTORS
330
86E99
102
}
330
86E99
100
AcDbVisualStyle
  2

 70
     6
177
     3
291
     0
 70
    58
 90
        1
176
     1
 90
        2
176
     1
 90
        2
176
     1
 90
        0
176
     1
 40
0.6
176
     1
 40
30.0
176
     1
 62
     7
420
 16777215
176
     1
 90
        2
176
     1
 90
        2
176
     1
 62
     7
176
     1
 62
   257
176
     1
 90
        2
176
     1
 90
        1
176
     1
 40
40.0
176
     1
 90
        0
176
     1
 62
   257
176
     1
 40
1.0
176
     1
 90
        1
176
     1
 90
        6
176
     1
 90
        2
176
     1
 62
     7
176
     1
 90
        3
176
     1
 90
        0
176
     1
 90
        0
176
     1
290
     0
176
     1
 90
        1
176
     1
 40
0.0
176
     1
 90
        0
176
     1
290
     0
176
     1
290
     1
176
     1
290
     1
176
     1
290
     0
176
     1
290
     0
176
     1
290
     0
176
     1
290
     0
176
     1
290
     0
176
     1
290
     0
176
     1
 90
       50
176
     1
 40
0.0
176
     1
 40
1.0
176
     1
 90
        0
176
     1
 62
    18
176
     1
 90
       50
176
     1
 90
        3
176
     1
 62
     5
420
      255
176
     1
290
     0
176
     1
 90
       50
176
     1
 90
       50
176
     1
 90
       50
176
     1
290
     0
176
     1
 90
       50
176
     1
 62
   256
176
     0
 40
1.0
176
     0
 90
        2
176
     1
  1
strokes_ogs.tif
176
     1
290
     0
176
     1
 40
1.0
176
     1
 40
1.0
176
     1
1001
ACAD
1000
AcDbSavedByObjectVersion
1070
     0
  0
VISUALSTYLE
  5
86EAF
102
{ACAD_REACTORS
330
86E99
102
}
330
86E99
100
AcDbVisualStyle
  2

 70
    20
177
     3
291
     1
 70
    58
 90
        2
176
     0
 90
        2
176
     0
 90
        0
176
     0
 90
        0
176
     0
 40
0.6
176
     0
 40
30.0
176
     0
 62
     7
420
 16777215
176
     0
 90
        1
176
     0
 90
        4
176
     0
 62
     7
176
     0
 62
   257
176
     0
 90
        1
176
     0
 90
        1
176
     0
 40
1.0
176
     0
 90
       10
176
     2
 62
     7
176
     0
 40
1.0
176
     0
 90
        1
176
     0
 90
        6
176
     0
 90
        2
176
     0
 62
     7
176
     0
 90
        5
176
     0
 90
        0
176
     0
 90
        0
176
     0
290
     0
176
     0
 90
        1
176
     0
 40
0.0
176
     0
 90
        0
176
     0
290
     0
176
     1
290
     1
176
     1
290
     1
176
     1
290
     0
176
     1
290
     0
176
     1
290
     0
176
     1
290
     0
176
     1
290
     0
176
     1
290
     0
176
     1
 90
       50
176
     0
 40
0.0
176
     0
 40
1.0
176
     0
 90
        0
176
     0
 62
    18
176
     0
 90
       50
176
     0
 90
        3
176
     0
 62
     5
420
      255
176
     0
290
     0
176
     1
 90
       50
176
     0
 90
       50
176
     0
 90
       50
176
     0
290
     0
176
     1
 90
       50
176
     0
 62
   256
176
     0
 40
1.0
176
     0
 90
        2
176
     0
  1
strokes_ogs.tif
176
     0
290
     0
176
     1
 40
1.0
176
     0
 40
1.0
176
     0
1001
ACAD
1000
AcDbSavedByObjectVersion
1070
     0
  0
VISUALSTYLE
  5
86EA7
102
{ACAD_REACTORS
330
86E99
102
}
330
86E99
100
AcDbVisualStyle
  2

 70
    14
177
     3
291
     1
 70
    58
 90
        2
176
     1
 90
        2
176
     1
 90
        0
176
     1
 90
        0
176
     1
 40
0.6
176
     1
 40
30.0
176
     1
 62
     7
420
 16777215
176
     1
 90
        1
176
     1
 90
        4
176
     1
 62
     7
176
     1
 62
   257
176
     1
 90
        7
176
     1
 90
        7
176
     1
 40
1.0
176
     1
 90
        8
176
     1
 62
     7
176
     1
 40
1.0
176
     1
 90
        1
176
     1
 90
        6
176
     1
 90
        2
176
     1
 62
     7
176
     1
 90
        5
176
     1
 90
        0
176
     1
 90
        0
176
     1
290
     0
176
     1
 90
        1
176
     1
 40
0.0
176
     1
 90
        0
176
     1
290
     0
176
     1
290
     1
176
     1
290
     1
176
     1
290
     0
176
     1
290
     0
176
     1
290
     0
176
     1
290
     0
176
     1
290
     0
176
     1
290
     0
176
     1
 90
       50
176
     1
 40
0.0
176
     1
 40
1.0
176
     1
 90
        0
176
     1
 62
    18
176
     1
 90
       50
176
     1
 90
        3
176
     1
 62
     5
420
      255
176
     1
290
     0
176
     1
 90
       50
176
     1
 90
       50
176
     1
 90
       50
176
     1
290
     0
176
     1
 90
       50
176
     1
 62
   256
176
     0
 40
1.0
176
     0
 90
        2
176
     1
  1
strokes_ogs.tif
176
     1
290
     0
176
     1
 40
1.0
176
     1
 40
1.0
176
     1
1001
ACAD
1000
AcDbSavedByObjectVersion
1070
     0
  0
VISUALSTYLE
  5
86EB0
102
{ACAD_REACTORS
330
86E99
102
}
330
86E99
100
AcDbVisualStyle
  2

 70
    21
177
     3
291
     1
 70
    58
 90
        2
176
     0
 90
        2
176
     0
 90
        0
176
     0
 90
        0
176
     0
 40
0.6
176
     0
 40
30.0
176
     0
 62
     7
420
 16777215
176
     0
 90
        1
176
     0
 90
        4
176
     0
 62
     7
176
     0
 62
   257
176
     0
 90
        1
176
     0
 90
        1
176
     0
 40
1.0
176
     0
 90
        9
176
     2
 62
     7
176
     0
 40
1.0
176
     0
 90
        1
176
     0
 90
        6
176
     0
 90
        2
176
     0
 62
     7
176
     0
 90
        5
176
     0
 90
        0
176
     0
 90
        0
176
     0
290
     0
176
     0
 90
        1
176
     0
 40
0.0
176
     0
 90
        0
176
     0
290
     0
176
     1
290
     1
176
     1
290
     1
176
     1
290
     0
176
     1
290
     0
176
     1
290
     0
176
     1
290
     0
176
     1
290
     0
176
     1
290
     0
176
     1
 90
       50
176
     0
 40
0.0
176
     0
 40
1.0
176
     0
 90
        0
176
     0
 62
    18
176
     0
 90
       50
176
     0
 90
        3
176
     0
 62
     5
420
      255
176
     0
290
     0
176
     1
 90
       50
176
     0
 90
       50
176
     0
 90
       50
176
     0
290
     0
176
     1
 90
       50
176
     0
 62
   256
176
     0
 40
1.0
176
     0
 90
        2
176
     0
  1
strokes_ogs.tif
176
     0
290
     0
176
     1
 40
1.0
176
     0
 40
1.0
176
     0
1001
ACAD
1000
AcDbSavedByObjectVersion
1070
     0
  0
VISUALSTYLE
  5
86EA3
102
{ACAD_REACTORS
330
86E99
102
}
330
86E99
100
AcDbVisualStyle
  2

 70
     8
177
     3
291
     0
 70
    58
 90
        2
176
     1
 90
        3
176
     1
 90
        0
176
     1
 90
        2
176
     1
 40
0.6
176
     1
 40
30.0
176
     1
 62
     7
420
 16777215
176
     1
 90
        0
176
     1
 90
        0
176
     1
 62
     7
176
     1
 62
   257
176
     1
 90
        1
176
     1
 90
        1
176
     1
 40
1.0
176
     1
 90
        8
176
     1
 62
   257
176
     1
 40
1.0
176
     1
 90
        1
176
     1
 90
        6
176
     1
 90
        2
176
     1
 62
     7
176
     1
 90
        3
176
     1
 90
        0
176
     1
 90
        0
176
     1
290
     0
176
     1
 90
       13
176
     1
 40
0.0
176
     1
 90
        0
176
     1
290
     0
176
     1
290
     1
176
     1
290
     1
176
     1
290
     0
176
     1
290
     0
176
     1
290
     0
176
     1
290
     0
176
     1
290
     0
176
     1
290
     0
176
     1
 90
       50
176
     1
 40
0.0
176
     1
 40
1.0
176
     1
 90
        0
176
     1
 62
    18
176
     1
 90
       50
176
     1
 90
        3
176
     1
 62
     5
420
      255
176
     1
290
     0
176
     1
 90
       50
176
     1
 90
       50
176
     1
 90
       50
176
     1
290
     0
176
     1
 90
       50
176
     1
 62
   256
176
     0
 40
1.0
176
     0
 90
        2
176
     1
  1
strokes_ogs.tif
176
     1
290
     0
176
     1
 40
1.0
176
     1
 40
1.0
176
     1
1001
ACAD
1000
AcDbSavedByObjectVersion
1070
     0
  0
VISUALSTYLE
  5
86EAE
102
{ACAD_REACTORS
330
86E99
102
}
330
86E99
100
AcDbVisualStyle
  2

 70
    27
177
     3
291
     0
 70
    58
 90
        2
176
     1
 90
        2
176
     1
 90
        1
176
     1
 90
        2
176
     1
 40
0.6
176
     1
 40
30.0
176
     1
 62
     7
420
 16777215
176
     1
 90
        0
176
     1
 90
        4
176
     1
 62
     7
176
     1
 62
   257
176
     1
 90
        1
176
     1
 90
        1
176
     1
 40
1.0
176
     1
 90
        8
176
     1
 62
   257
176
     1
 40
1.0
176
     1
 90
        1
176
     1
 90
        6
176
     1
 90
        2
176
     1
 62
     8
420
  7895160
176
     1
 90
        3
176
     1
 90
        0
176
     1
 90
        0
176
     1
290
     0
176
     1
 90
        5
176
     1
 40
0.0
176
     1
 90
        0
176
     1
290
     0
176
     1
290
     1
176
     1
290
     1
176
     1
290
     0
176
     1
290
     0
176
     1
290
     0
176
     1
290
     0
176
     1
290
     0
176
     1
290
     0
176
     1
 90
       50
176
     1
 40
0.0
176
     1
 40
1.0
176
     1
 90
        0
176
     1
 62
    18
176
     1
 90
       50
176
     1
 90
        3
176
     1
 62
     5
420
      255
176
     1
290
     0
176
     1
 90
       50
176
     1
 90
       50
176
     1
 90
       50
176
     1
290
     0
176
     1
 90
       50
176
     1
 62
   256
176
     0
 40
1.0
176
     0
 90
        2
176
     1
  1
strokes_ogs.tif
176
     1
290
     0
176
     1
 40
1.0
176
     1
 40
1.0
176
     1
1001
ACAD
1000
AcDbSavedByObjectVersion
1070
     0
  0
VISUALSTYLE
  5
86EAD
102
{ACAD_REACTORS
330
86E99
102
}
330
86E99
100
AcDbVisualStyle
  2

 70
    26
177
     3
291
     0
 70
    58
 90
        2
176
     1
 90
        2
176
     1
 90
        1
176
     1
 90
        2
176
     1
 40
0.6
176
     1
 40
30.0
176
     1
 62
     7
420
 16777215
176
     1
 90
        1
176
     1
 90
       10
176
     1
 62
     7
176
     1
 62
   257
176
     1
 90
        2
176
     1
 90
        1
176
     1
 40
1.0
176
     1
 90
        8
176
     1
 62
   257
176
     1
 40
1.0
176
     1
 90
        1
176
     1
 90
        6
176
     1
 90
        2
176
     1
 62
     7
176
     1
 90
        3
176
     1
 90
        0
176
     1
 90
        0
176
     1
290
     0
176
     1
 90
        5
176
     1
 40
0.0
176
     1
 90
        0
176
     1
290
     0
176
     1
290
     1
176
     1
290
     1
176
     1
290
     0
176
     1
290
     0
176
     1
290
     0
176
     1
290
     0
176
     1
290
     0
176
     1
290
     0
176
     1
 90
       50
176
     1
 40
0.0
176
     1
 40
1.0
176
     1
 90
        0
176
     1
 62
    18
176
     1
 90
       50
176
     1
 90
        3
176
     1
 62
     5
420
      255
176
     1
290
     0
176
     1
 90
       50
176
     1
 90
       50
176
     1
 90
       50
176
     1
290
     0
176
     1
 90
       50
176
     1
 62
   256
176
     0
 40
1.0
176
     0
 90
        2
176
     1
  1
strokes_ogs.tif
176
     1
290
     0
176
     1
 40
1.0
176
     1
 40
1.0
176
     1
1001
ACAD
1000
AcDbSavedByObjectVersion
1070
     0
  0
VISUALSTYLE
  5
86EAA
102
{ACAD_REACTORS
330
86E99
102
}
330
86E99
100
AcDbVisualStyle
  2

 70
    23
177
     3
291
     0
 70
    58
 90
        2
176
     1
 90
        2
176
     1
 90
        3
176
     1
 90
        0
176
     1
 40
0.6
176
     1
 40
30.0
176
     1
 62
     7
420
 16777215
176
     1
 90
        2
176
     1
 90
        2
176
     1
 62
     7
176
     1
 62
     7
176
     1
 90
        1
176
     1
 90
        1
176
     1
 40
40.0
176
     1
 90
        8
176
     1
 62
     7
176
     1
 40
1.0
176
     1
 90
        1
176
     1
 90
        6
176
     1
 90
        2
176
     1
 62
     7
176
     1
 90
        3
176
     1
 90
        0
176
     1
 90
        0
176
     1
290
     0
176
     1
 90
        1
176
     1
 40
0.0
176
     1
 90
        0
176
     1
290
     0
176
     1
290
     1
176
     1
290
     1
176
     1
290
     0
176
     1
290
     0
176
     1
290
     0
176
     1
290
     0
176
     1
290
     0
176
     1
290
     0
176
     1
 90
       50
176
     1
 40
0.0
176
     1
 40
1.0
176
     1
 90
        0
176
     1
 62
    18
176
     1
 90
       50
176
     1
 90
        3
176
     1
 62
     5
420
      255
176
     1
290
     0
176
     1
 90
       50
176
     1
 90
       50
176
     1
 90
       50
176
     1
290
     0
176
     1
 90
       50
176
     1
 62
   256
176
     0
 40
1.0
176
     0
 90
        2
176
     1
  1
strokes_ogs.tif
176
     1
290
     0
176
     1
 40
1.0
176
     1
 40
1.0
176
     1
1001
ACAD
1000
AcDbSavedByObjectVersion
1070
     0
  0
VISUALSTYLE
  5
86EAB
102
{ACAD_REACTORS
330
86E99
102
}
330
86E99
100
AcDbVisualStyle
  2

 70
    24
177
     3
291
     0
 70
    58
 90
        1
176
     1
 90
        2
176
     1
 90
        2
176
     1
 90
        0
176
     1
 40
0.6
176
     1
 40
30.0
176
     1
 62
     7
420
 16777215
176
     1
 90
        2
176
     1
 90
        2
176
     1
 62
     7
176
     1
 62
     7
176
     1
 90
        1
176
     1
 90
        1
176
     1
 40
40.0
176
     1
 90
       11
176
     1
 62
     7
176
     1
 40
1.0
176
     1
 90
        1
176
     1
 90
        6
176
     1
 90
        2
176
     1
 62
     7
176
     1
 90
        6
176
     1
 90
        0
176
     1
 90
        0
176
     1
290
     0
176
     1
 90
        1
176
     1
 40
0.0
176
     1
 90
        0
176
     1
290
     0
176
     1
290
     1
176
     1
290
     1
176
     1
290
     0
176
     1
290
     0
176
     1
290
     0
176
     1
290
     0
176
     1
290
     0
176
     1
290
     0
176
     1
 90
       50
176
     1
 40
0.0
176
     1
 40
1.0
176
     1
 90
        0
176
     1
 62
    18
176
     1
 90
       50
176
     1
 90
        3
176
     1
 62
     5
420
      255
176
     1
290
     0
176
     1
 90
       50
176
     1
 90
       50
176
     1
 90
       50
176
     1
290
     0
176
     1
 90
       50
176
     1
 62
   256
176
     0
 40
1.0
176
     0
 90
        2
176
     1
  1
strokes_ogs.tif
176
     1
290
     0
176
     1
 40
1.0
176
     1
 40
1.0
176
     1
1001
ACAD
1000
AcDbSavedByObjectVersion
1070
     0
  0
VISUALSTYLE
  5
86EA6
102
{ACAD_REACTORS
330
86E99
102
}
330
86E99
100
AcDbVisualStyle
  2

 70
    13
177
     3
291
     1
 70
    58
 90
        2
176
     1
 90
        2
176
     1
 90
        0
176
     1
 90
        0
176
     1
 40
0.6
176
     1
 40
30.0
176
     1
 62
     7
420
 16777215
176
     1
 90
        1
176
     1
 90
        4
176
     1
 62
     7
176
     1
 62
   257
176
     1
 90
        1
176
     1
 90
        1
176
     1
 40
1.0
176
     1
 90
       12
176
     1
 62
     7
176
     1
 40
1.0
176
     1
 90
        1
176
     1
 90
        6
176
     1
 90
        2
176
     1
 62
     7
176
     1
 90
        5
176
     1
 90
        0
176
     1
 90
        0
176
     1
290
     0
176
     1
 90
        1
176
     1
 40
0.0
176
     1
 90
        0
176
     1
290
     0
176
     1
290
     1
176
     1
290
     1
176
     1
290
     0
176
     1
290
     0
176
     1
290
     0
176
     1
290
     0
176
     1
290
     0
176
     1
290
     0
176
     1
 90
       50
176
     1
 40
0.0
176
     1
 40
1.0
176
     1
 90
        0
176
     1
 62
    18
176
     1
 90
       50
176
     1
 90
        3
176
     1
 62
     5
420
      255
176
     1
290
     0
176
     1
 90
       50
176
     1
 90
       50
176
     1
 90
       50
176
     1
290
     0
176
     1
 90
       50
176
     1
 62
   256
176
     0
 40
1.0
176
     0
 90
        2
176
     1
  1
strokes_ogs.tif
176
     1
290
     0
176
     1
 40
1.0
176
     1
 40
1.0
176
     1
1001
ACAD
1000
AcDbSavedByObjectVersion
1070
     0
  0
VISUALSTYLE
  5
86EA0
102
{ACAD_REACTORS
330
86E99
102
}
330
86E99
100
AcDbVisualStyle
  2

 70
     5
177
     3
291
     0
 70
    58
 90
        0
176
     1
 90
        2
176
     1
 90
        0
176
     1
 90
        0
176
     1
 40
0.6
176
     1
 40
30.0
176
     1
 62
     7
420
 16777215
176
     1
 90
        1
176
     1
 90
        4
176
     1
 62
     7
176
     1
 62
   257
176
     1
 90
        1
176
     1
 90
        1
176
     1
 40
1.0
176
     1
 90
        0
176
     1
 62
   257
176
     1
 40
1.0
176
     1
 90
        1
176
     1
 90
        6
176
     1
 90
        2
176
     1
 62
     7
176
     1
 90
        3
176
     1
 90
        0
176
     1
 90
        0
176
     1
290
     0
176
     1
 90
        1
176
     1
 40
0.0
176
     1
 90
        0
176
     1
290
     0
176
     1
290
     1
176
     1
290
     1
176
     1
290
     0
176
     1
290
     0
176
     1
290
     0
176
     1
290
     0
176
     1
290
     0
176
     1
290
     0
176
     1
 90
       50
176
     1
 40
0.0
176
     1
 40
1.0
176
     1
 90
        0
176
     1
 62
    18
176
     1
 90
       50
176
     1
 90
        3
176
     1
 62
     5
420
      255
176
     1
290
     0
176
     1
 90
       50
176
     1
 90
       50
176
     1
 90
       50
176
     1
290
     0
176
     1
 90
       50
176
     1
 62
   256
176
     0
 40
1.0
176
     0
 90
        2
176
     1
  1
strokes_ogs.tif
176
     1
290
     0
176
     1
 40
1.0
176
     1
 40
1.0
176
     1
1001
ACAD
1000
AcDbSavedByObjectVersion
1070
     0
  0
VISUALSTYLE
  5
86EAC
102
{ACAD_REACTORS
330
86E99
102
}
330
86E99
100
AcDbVisualStyle
  2

 70
    25
177
     3
291
     0
 70
    58
 90
        2
176
     1
 90
        2
176
     1
 90
        1
176
     1
 90
        1
176
     1
 40
0.5
176
     1
 40
30.0
176
     1
 62
     7
420
 16777215
176
     1
 90
        1
176
     1
 90
        0
176
     1
 62
     7
176
     1
 62
   257
176
     1
 90
        1
176
     1
 90
        1
176
     1
 40
1.0
176
     1
 90
        8
176
     1
 62
     7
176
     1
 40
1.0
176
     1
 90
        1
176
     1
 90
        6
176
     1
 90
        2
176
     1
 62
     7
176
     1
 90
        3
176
     1
 90
        0
176
     1
 90
        0
176
     1
290
     0
176
     1
 90
       13
176
     1
 40
0.0
176
     1
 90
        0
176
     1
290
     0
176
     1
290
     1
176
     1
290
     1
176
     1
290
     0
176
     1
290
     0
176
     1
290
     0
176
     1
290
     0
176
     1
290
     0
176
     1
290
     0
176
     1
 90
       50
176
     1
 40
0.0
176
     1
 40
1.0
176
     1
 90
        0
176
     1
 62
    18
176
     1
 90
       50
176
     1
 90
        3
176
     1
 62
     5
420
      255
176
     1
290
     0
176
     1
 90
       50
176
     1
 90
       50
176
     1
 90
       50
176
     1
290
     0
176
     1
 90
       50
176
     1
 62
   256
176
     0
 40
1.0
176
     0
 90
        2
176
     1
  1
strokes_ogs.tif
176
     1
290
     0
176
     1
 40
1.0
176
     1
 40
1.0
176
     1
1001
ACAD
1000
AcDbSavedByObjectVersion
1070
     0
  0
DICTIONARYVAR
  5
86EDB
102
{ACAD_REACTORS
330
86ED5
102
}
330
86ED5
100
DictionaryVariables
280
     0
  1
1:1
  0
DICTIONARYVAR
  5
86ED7
102
{ACAD_REACTORS
330
86ED5
102
}
330
86ED5
100
DictionaryVariables
280
     0
  1
STANDARD
  0
DICTIONARYVAR
  5
86ED6
102
{ACAD_REACTORS
330
86ED5
102
}
330
86ED5
100
DictionaryVariables
280
     0
  1
STANDARD
  0
DICTIONARYVAR
  5
86ED8
102
{ACAD_REACTORS
330
86ED5
102
}
330
86ED5
100
DictionaryVariables
280
     0
  1
Metric50
  0
DICTIONARYVAR
  5
86ED9
102
{ACAD_REACTORS
330
86ED5
102
}
330
86ED5
100
DictionaryVariables
280
     0
  1
Metric50
  0
DICTIONARYVAR
  5
86EDD
102
{ACAD_REACTORS
330
86ED5
102
}
330
86ED5
100
DictionaryVariables
280
     0
  1
1
  0
DICTIONARYVAR
  5
86EDE
102
{ACAD_REACTORS
330
86ED5
102
}
330
86ED5
100
DictionaryVariables
280
     0
  1
15
  0
DICTIONARYVAR
  5
86EDC
102
{ACAD_REACTORS
330
86ED5
102
}
330
86ED5
100
DictionaryVariables
280
     0
  1
0
  0
DICTIONARYVAR
  5
86EDA
102
{ACAD_REACTORS
330
86ED5
102
}
330
86ED5
100
DictionaryVariables
280
     0
  1
0
  0
DICTIONARY
  5
A7DF9
102
{ACAD_REACTORS
330
A7DF7
102
}
330
A7DF7
100
AcDbDictionary
281
     1
  0
DICTIONARY
  5
A7DF8
102
{ACAD_REACTORS
330
A7DF7
102
}
330
A7DF7
100
AcDbDictionary
281
     1
  3
2017703386528
350
A7DF2
  3
2017703386544
350
A7DF3
  3
2017703386560
350
A7DF4
  3
2017703386576
350
A7DF5
  3
2017703386592
350
A7DF6
  0
DICTIONARY
  5
A7BE3
102
{ACAD_REACTORS
330
A7BDC
102
}
330
A7BDC
100
AcDbDictionary
281
     1
  0
DICTIONARY
  5
A7DFC
330
86ECC
100
AcDbDictionary
280
     1
281
     1
  3
ACAD_XREC_ROUNDTRIP
360
A7DFD
  0
DICTIONARY
  5
A7E00
330
87813
100
AcDbDictionary
280
     1
281
     1
  3
ACAD_XREC_ROUNDTRIP
360
A7E01
  0
DICTIONARY
  5
86E8A
330
86E89
100
AcDbDictionary
280
     1
281
     1
  3
ACAD_XREC_ROUNDTRIP
360
8A5EE
  3
BUMPTILE
360
86E8C
  3
DIFFUSETILE
360
86E8B
  3
OPACITYTILE
360
86E8F
  3
REFLECTIONTILE
360
86E8E
  3
REFRACTIONTILE
360
86E90
  3
SPECULARTILE
360
86E8D
  0
DICTIONARY
  5
86E82
330
86E81
100
AcDbDictionary
280
     1
281
     1
  3
ACAD_XREC_ROUNDTRIP
360
8A5ED
  3
BUMPTILE
360
86E84
  3
DIFFUSETILE
360
86E83
  3
OPACITYTILE
360
86E87
  3
REFLECTIONTILE
360
86E86
  3
REFRACTIONTILE
360
86E88
  3
SPECULARTILE
360
86E85
  0
DICTIONARY
  5
86E92
330
86E91
100
AcDbDictionary
280
     1
281
     1
  3
ACAD_XREC_ROUNDTRIP
360
8A5EF
  3
BUMPTILE
360
86E94
  3
DIFFUSETILE
360
86E93
  3
FBXASSET
360
A43D4
  3
OPACITYTILE
360
86E97
  3
REFLECTIONTILE
360
86E96
  3
REFRACTIONTILE
360
86E98
  3
SPECULARTILE
360
86E95
  0
DICTIONARY
  5
A7DFA
330
86ECA
100
AcDbDictionary
280
     1
281
     1
  3
ACAD_XREC_ROUNDTRIP
360
A7DFB
  0
DICTIONARY
  5
A7DFE
330
87812
100
AcDbDictionary
280
     1
281
     1
  3
ACAD_XREC_ROUNDTRIP
360
A7DFF
  0
DICTIONARY
  5
86F00
330
86EB4
100
AcDbDictionary
280
     1
281
     1
  3
ACAD_ROUNDTRIP_2008_TABLESTYLE_CELLSTYLEMAP
360
A7DF0
  0
XRECORD
  5
A7DF2
102
{ACAD_REACTORS
330
A7DF8
102
}
330
A7DF8
100
AcDbXrecord
280
     1
  1
AcDb_Thumbnail_Schema
102
{ATTRRECORD
341
A7DF3
  2
AcDbDs::TreatedAsObjectData
280
     1
291
     1
102
ATTRRECORD}
102
{ATTRRECORD
341
A7DF4
  2
AcDbDs::Legacy
280
     1
291
     1
102
ATTRRECORD}
  2
AcDbDs::ID
280
    10
 91
        8
102
{ATTRRECORD
341
A7DF5
  2
AcDs:Indexable
280
     1
291
     1
102
ATTRRECORD}
102
{ATTRRECORD
341
A7DF6
  2
AcDbDs::HandleAttribute
280
     7
282
     1
102
ATTRRECORD}
  2
Thumbnail_Data
280
    15
 91
        0
  0
XRECORD
  5
A7DF3
102
{ACAD_REACTORS
330
A7DF8
102
}
330
A7DF8
100
AcDbXrecord
280
     1
  1
AcDbDs::TreatedAsObjectDataSchema
  2
AcDbDs::TreatedAsObjectData
280
     1
 91
        0
  0
XRECORD
  5
A7DF4
102
{ACAD_REACTORS
330
A7DF8
102
}
330
A7DF8
100
AcDbXrecord
280
     1
  1
AcDbDs::LegacySchema
  2
AcDbDs::Legacy
280
     1
 91
        0
  0
XRECORD
  5
A7DF5
102
{ACAD_REACTORS
330
A7DF8
102
}
330
A7DF8
100
AcDbXrecord
280
     1
  1
AcDbDs::IndexedPropertySchema
  2
AcDs:Indexable
280
     1
 91
        0
  0
XRECORD
  5
A7DF6
102
{ACAD_REACTORS
330
A7DF8
102
}
330
A7DF8
100
AcDbXrecord
280
     1
  1
AcDbDs::HandleAttributeSchema
  2
AcDbDs::HandleAttribute
280
     7
 91
        1
284
     1
  0
XRECORD
  5
A7DFD
102
{ACAD_REACTORS
330
A7DFC
102
}
330
A7DFC
100
AcDbXrecord
280
     1
102
DISPLAYNAME
  1
Imperial24
102
FLAGS
 90
        0
  0
XRECORD
  5
A7E01
102
{ACAD_REACTORS
330
A7E00
102
}
330
A7E00
100
AcDbXrecord
280
     1
102
DISPLAYNAME
  1
Metric50
102
FLAGS
 90
        0
  0
XRECORD
  5
8A5EE
102
{ACAD_REACTORS
330
86E8A
102
}
330
86E8A
100
AcDbXrecord
280
     1
102
MATERIAL
148
0.0
149
0.0
149
0.0
 93
        0
 94
      127
282
     0
 72
     0
 77
     0
171
     0
175
     0
179
     0
273
     0
  0
XRECORD
  5
86E8C
102
{ACAD_REACTORS
330
86E8A
102
}
330
86E8A
100
AcDbXrecord
280
     1
270
     1
271
     1
  0
XRECORD
  5
86E8B
102
{ACAD_REACTORS
330
86E8A
102
}
330
86E8A
100
AcDbXrecord
280
     1
270
     1
271
     1
  0
XRECORD
  5
86E8F
102
{ACAD_REACTORS
330
86E8A
102
}
330
86E8A
100
AcDbXrecord
280
     1
270
     1
271
     1
  0
XRECORD
  5
86E8E
102
{ACAD_REACTORS
330
86E8A
102
}
330
86E8A
100
AcDbXrecord
280
     1
270
     1
271
     1
  0
XRECORD
  5
86E90
102
{ACAD_REACTORS
330
86E8A
102
}
330
86E8A
100
AcDbXrecord
280
     1
270
     1
271
     1
  0
XRECORD
  5
86E8D
102
{ACAD_REACTORS
330
86E8A
102
}
330
86E8A
100
AcDbXrecord
280
     1
270
     1
271
     1
  0
XRECORD
  5
8A5ED
102
{ACAD_REACTORS
330
86E82
102
}
330
86E82
100
AcDbXrecord
280
     1
102
MATERIAL
148
0.0
149
0.0
149
0.0
 93
        0
 94
      127
282
     0
 72
     0
 77
     0
171
     0
175
     0
179
     0
273
     0
  0
XRECORD
  5
86E84
102
{ACAD_REACTORS
330
86E82
102
}
330
86E82
100
AcDbXrecord
280
     1
270
     1
271
     1
  0
XRECORD
  5
86E83
102
{ACAD_REACTORS
330
86E82
102
}
330
86E82
100
AcDbXrecord
280
     1
270
     1
271
     1
  0
XRECORD
  5
86E87
102
{ACAD_REACTORS
330
86E82
102
}
330
86E82
100
AcDbXrecord
280
     1
270
     1
271
     1
  0
XRECORD
  5
86E86
102
{ACAD_REACTORS
330
86E82
102
}
330
86E82
100
AcDbXrecord
280
     1
270
     1
271
     1
  0
XRECORD
  5
86E88
102
{ACAD_REACTORS
330
86E82
102
}
330
86E82
100
AcDbXrecord
280
     1
270
     1
271
     1
  0
XRECORD
  5
86E85
102
{ACAD_REACTORS
330
86E82
102
}
330
86E82
100
AcDbXrecord
280
     1
270
     1
271
     1
  0
XRECORD
  5
8A5EF
102
{ACAD_REACTORS
330
86E92
102
}
330
86E92
100
AcDbXrecord
280
     1
102
MATERIAL
148
0.0
149
0.0
149
0.0
 93
        0
 94
      127
282
     0
 72
     0
 77
     0
171
     0
175
     0
179
     0
273
     0
  0
XRECORD
  5
86E94
102
{ACAD_REACTORS
330
86E92
102
}
330
86E92
100
AcDbXrecord
280
     1
270
     1
271
     1
  0
XRECORD
  5
86E93
102
{ACAD_REACTORS
330
86E92
102
}
330
86E92
100
AcDbXrecord
280
     1
270
     1
271
     1
  0
XRECORD
  5
A43D4
102
{ACAD_REACTORS
330
86E92
102
}
330
86E92
100
AcDbXrecord
280
     1
 70
     1
 90
652598616
 71
     1
  1
12E7FA2C-FAFA-42C5-9A8D-5E54AB5ED6A5
311
504B0304140006080800D6664750DDC57F2B10010000A80100004F00000032304136464446342D453044302D343842352D383830432D3536413942433842363242382F4173736574446174612F446566696E6974696F6E4974657261746F7250726F706572746965732E62696E7550C14EC3300C0D1C4008ED80C40770E01A
311
9286A44D9110244DC3890B7C00CA4AD82A65EDB4B4E2BA231FC8956F01670C690261E9D9CEB3633FF90D21F4B93548D11E600D7E02F1CE777ED5368FCDDC2F1C3A484CE8A72E9C43A6755696B6D2B8E04C617E290BACB56098B192332B8DC9ACDD87BE4380F12F6E0C431A79DFC6C687E03ADF8FF10488ED8EB3851B60970B
311
17E9D3114229AC01E8A710D3A4D9B7A224F215E09E9757372E463F5C1346556E8DE5B8A686622EB5C052D20A8B5C95BA923A675A92071FFB71D5F84832561756B10A5B65413FAB042E953458D4822B2D6A932B4186F9984E739A644C3BD70642C956C2D3B29B01FDC7766FB95BBC858702D0E38F0DFD3EB19BF89FFB3DE70B
311
504B0304140006080800D6664750DFD4CAAA1C010000300200004500000032304136464446342D453044302D343842352D383830432D3536413942433842363242382F4173736574446174612F496E7374616E636550726F706572746965732E62696EEB606060F80F0540260323103700495E20ED9E9A975A94991C9C9C91
311
9A9BA802143034723577733472D675737473D435317236D5B574B470D1357535357174327575317334654768046931363471713532B5D435353131D635313332D475727372D13534373670367376B67474B5042A03DBCBA019D37FE8ABC6157B20CD04146B0062181F4C03F940F0C11EA29A8141C08141002C0426541C106C
311
AC2CA046088033B02A030AC2157C6006F21A8018AAF50194E6010A610250382264E08660284CD9E98021862280A91564B406929A0FF62C401E28B6F88038B83CB1243943D7A928312F25350524C3C2F07E1F9002033D18032B6DC8C091CEC020C2D0C26008971760F00D8DD2F5F133328D37350873F78832D27535740D012A
311
0000504B0304140006080800D666475088E57597CD3F0000904100006B00000032304136464446342D453044302D343842352D383830432D3536413942433842363242382F5265736F75726365732F31324537464132432D464146412D343243352D394138442D3545353441423545443641352F7468756D626E61696C2F30
311
2F67656E657269635F706E67355B773CD4FF1FBF73E71C0E67EF7576C9DEF3EC995D46C6A1EC5046649CBDF79E192942562825CE965D8A868C2842C8DE9FDFD1F7E7F138F7078FCF6B3F5FCFD7EBFDFEC41B196891913091804020321D6D7513FC77D8C5070EC3FFEE51B21F068154CC75D455CC028A3EA68992803810109F
311
DDE5D5CEC5521B28A1B422BF80741695D5B529DA1C2D058AD2388BDA9F476F7C2CADC939304173DBF48A452BF8A700C0C70C3D121C1AA15A5270C22E2B9E28763651F7DA0D12CE11077B2ECD0D560B5E3DE2368B1E65C5E1C87384A4CC5F2D9FB8BE39E9B77C753783A37998F5CEF1B4FEE553463245C9712270880DF339E0
311
B882A6BA713D865F6F384C842D440934EF264F4A304F8DE4EEFA1E2BF5E2D91F5ADD9613D6E31DDB33ED31DB1D7916CAF091286EA3D31B9CFECB78BB0060245B943C4C040119FF780A74DD308BA9D028678674EB5504ECF284EE814DAED07440BAF649BE4B55DA2890F4D73E2D489A59EE54FDB0A85B59F2F52C4858A02705
311
C4815A792B0C4A996A2023ECB195073E115E3E3647F64243A8338F2000BCB58DA5692C7E7C3D413F963FEDF3CF00FBB0F831A9D51360FECA43819F527B89FA260EB63C5DA676830AA3626A3693B23F1A17A0DFFCE3EE164E31B5365EDF0C89EF64D8E38AB0BA9A1117D7C3A0EC44F44F4023095E80BA610DE336D0F99593A8
311
8BFC5306E72DF98F7FD132ED95878DF2964EA7E43071359FD83B2BDF9C6B5BDF768F0F3C0FC351199526F53D9460A34511F75D1B63E488178569472C91A94497807A3FD4A390C6558F26D416365C3656DE6E769DA9D8FC73774E1709812842DD8EF96AED1960F79D21B395CDDFE6F92CB4EB962A4668C76990E2EF29798C89
311
41D67DA50F4A5F947872460F1F6FDB794E8A29FD7AC0C0D6E0714339CE258FB17AE8535221E3464A10F29A0BE5EEECEFC5675926A89F49EB14E5711894F6586DB5754EB4D5DA9C6437EBA57DB97A24F8B8A8DB295FFD73266CF57E82694DF5166DDF93573AFE9C9C5EB05F8FEF8E89E0A8917B0B3724DB7BEBB53252581EFC
311
3E38166BA131A3A5B42FE2AD00A769BBFA4458D2DE7822F8C4F63D0B8E21B285AE13325F3410A435C648C9D91FDEB109E73CEDA7BC796961AF79175E1A3CE4C5E8B0D009B0C9E29EFD98BC8E97554E3D8D838424E270F7685226E5AC268E021EDE3522D583E8F20C0BDE2959EF5BBFEEDAB32FE9A3ED0E39F211A86AA9DEBF
311
C68182EDED132AB8BB794442D2D7EA9F4D8BFF52BC4D55BB165124EE90A42D101E67BBBB292FFB4F66DE5BF2300E44546757DA7CEF8932BFC9F92A0707953491A55C5A5ACEDABD9FA1AEA01BAC3DC5A24E22E7C47213493996EFBC369D086ED9397C9BA6C7F9855C7BD5E15BFC8C53DB3D2A4C5901A57ACD2FBDF4D1676E95
311
338B2C2BCE65FDA4C64F5FEFDC7D9CA5AA1FCF11E193F2FDABF0F4916BF13FB916A224380E6462A9815F2300DC49CC4DF8D055CEF76462F4B7A7ACA7365C2707891370BC1D0AA6203C44CCAB47084FEC057F27FFCD57F89B8B9852459798A675C66BD7CE572CAF71FF7E6D7ECF7BF62CAB7B3F1107DCD04DC55A3F99617002
311
86141C94A4F771FEB2BCDA2DDEE0CB0BAE402FF1DB0100F8E475DFFFC074DDB4498AB7D186A7654DDB1CB680D703D47CEB4E72F8CB13D86A4AA68116E26387B93FD6738779B34FEDB8E517EDF2BAF28D9BE93A1D3A164320E07D42E514725C29515FF361754213EDE06B079A2E99EB1CA82A02019EADEEB87B9AF005BD04BB
311
CECB14AACD6B24EFBE482194A97DD32400685FF1FEF1544D1B14EFB1E7F08E6D2CD2AF52DE757F35F5E62332EE88EA26417AD5C3E0E319D68F25414E6D672BD4522B278C57D18F0113921C71D96527E091F00CEB15AE23D24667369BD3CEFA10C7549D930890BA4366F4EBC55F01F746109F98ABCDD5A3EE06619C6AD78AB3
311
3E48E4C9BD21BF7478B385EC05C4F8987E2C1BFA0A60EBEDAA0AE0B015C2720ECE180FB6F2DEFBEB822D96338C9B63822183BBF52FB664A7AE57003AABCE512BF77E7E31BDA2E739AC4C131657DDFE5225E900FB56CC01CDE808FA4A9C9DA16AC679656BB64796283D89812B8F91136AE18EE5EBBAF47A73BE3C153EB5D4CD
311
491B4BFB4FE690A4CF9ABA08C0D8AA64220C438C96EA6CA80B58FE5761E697B3A292EB9FBDA502FA863E49FE694ADDFFF9D62C520BDD1A22014147A0903A05B9B729F54272EF83931FEEC057BFF8C8055C279EAC5C0011804828734024F6CFA319C9CC6867C727184465CD9BB7ED386AFFD96B294A85E3802FAE47244602D8
311
273615952B98C4F23F7EAE4463D9D638EEE374A20959E0FE519C4CFB0FBFE5DD80C2AA3F9DB961D1BDE57E67C9BB47B77FDD74EE3094F5DBBE3EBC1FBDB7393F5116263009E2EFE1AF9A221B2AE234C902BF70E9F280ED23E73908361565964333A3F01D0B006AF32FB21AA1316744B489D5A198E85299241735BE55967513
311
0955C902A8ED761FC0DBE337A9F91919AF5CE32AF902ADF9AB2615E00E8A94586BA1A90839B61832FF1BFB76D2EFADE6DB1BA04CCAD3DA649E7E2A0219F592E22F2AD54847EEA8E42271011E9074F8F3DD9FBA6CDF88FFC9FC7E811AD1CA8F4557CE4AFC7BBEDCF0114A48689F20A584520C74DA8127124B767E2FB91A6B18
311
6246727BE63C9445BAE02088D58B8EFDC0F1072407CD9B89A13F6303B4A928F593AD489B58E6869325790ADC406036C591729FE14021F94B7796BB11848D463536A092A26F077F94639F7CEEE2A724C66EC885F4A24F8B8A0AC321F8FD149BA529460FAA34E4663C02D41FDF80BCA222D42F0ABFF8490F4FA74C673807C205
311
1D8E467B47B616072860069A9A303ABA9B319D58404461401B0A0F9BE5E1E151C14BC33B32ABE03DDE91708DFAEB15E7C0D593C86BB7D7EC17BE56E57975F077BFD5525F3A1A361D584A75E08CF29FC7B44B2B3085014F3A5A14517377C3F6B8F37E59514C3B12F8AACDEDDA4DFC49BE5710101534CD6FB6DE15B50F11A094
311
72AABA727F0C49D9CB906B158030065F48EB3625E010CEC1D511D0053474B11E6A4F01C0D6EF1BED3A944FDEC70E0DDCDC756C86545910E0DAE3BE3AA9A404574C2995CD5CAF9549226BC94B4F4F0F5F9086F418F6B32346464610D8BC7391D3C3A3CCF04CFC1FB2A3A3170E369511868F14EEA4E5E438CC73DB1F3248AA94
311
B6B2FF33B222FF3D1E7BF146CAD229770158063BCE4F5391964DF62F7E52A7BE0EEA829C9E13C4C147D6F93FE59E111DAB5E4594D6F3CD1AD375EE039930EFE5AF2BB2D41C83C7DABD8C659BAFBE8FAB392CA634F3D15C1D945DB4588D2B0824A4EC928AAC565557CA2F0DAA588CA5BE30B3A8004F7BF005E96CBF891D7F18
311
112A3619FDF530DC8AA64954258E1811789B5189B49B4EB53F5F89F7D37523894F3EB57B373763C91E502F52CC99EB7BDDF933FC324C4FFC2561DFFA7339FAFDD0A4BFBE6D3A8FF9ED1FC49898139864602458968913181918F719CCF5A68B2EE9C1FF050E34E63107003B8120FA982C21B30A874E4F5E4B38D5A8290C4B8D
311
9BE48A0BE31EA995BDC37AC6DE90BA17D259DEF53605D55922FEB1855D915B659FBEB350EE0DFB2F9F766E1C84CC8964B75D08667445EAB966015F63A18A9E0A325C1B3DC628C0D3CB60F767FA93CC65F25458BD23C3B312716E5F40E5858AC06EBA9AB14F95DB99147B832069201541D09A0D856E12C629CF32683760EE85
311
5537D1901988D5EBC156676C7DD51D7207CF3267AF1D76C2AD867315E44618015313A98B19941C696FED3461CAA9B5415F918556D7802EDACEFD6B2E45853A9735DFC9DBF7E440F9319F8B6805A973BCCDC76C069A9144E51F187EDCC12FC31B5DEAAF0A76137199B106EC84ADA6B6EE697D4E6A96E007417F4E880E8B1E89
311
B4BCE9D81EF611E2ED8F0C1A6C25F620FAFAAB656A7C42D464880E8AFAB0E0FC8EA38CA9A8AEEAEE3E4648BA4680270A89743CDD3E6C6CBF34B7B640EFA285ABC7EA0A1E28F3CC963D114A80123EE66D0AF7D5380EB41909B605AB4765B709B808590458157E69BA1378FEC4B48CAF6A730E3BE3C5EF2DD1A5EAF94B1DDE50
311
CEB55DDFD7EE9A16747FA4B223359FB1FCC69E1194892BABB93A1D5C4E807AC0EA2E30180811E77A2291F6E7F7FAA5E0F60215BC6024E48DE436C511F0628B8CA189982D4D83CCA17D305A7E923C37941CFDFDCD93ACAF735EF5F0E61BBD3E6C41A59B242790D3A3BAC7064DCD89AA2E37214EC839820949D5CAA31E240D29
311
48E48F690298974A96BA9A8432BC90F5071D6537C9666EA4564796B7AFFFA548077BEEA75F63083435074BA182F3699557397F71548383FDA8CA34D99B981E72835ECDA5DDDC151315173D05A21F651AAF8524E88209E2E7A737ED1045800CE3390050BCFB8BE588DF111617874C62575039CA588EEFDEFEFE319B739DE2ED
311
C147092A262611E159650E787917885EF08F1F51B8F2D8A71D60B58B190FEF9541A1BE94BC19FEA50784DA1419FE4B0FB51B8D36B5FF8E1286FD8AF42B91E59A5F1CC4D60174E764045FD8C57B18209B217F89A62252BD20BE0E63E12B8E8F029FE19E0E8D0870F58721A557082250D5424F7909369376E41666C0EE77CD87
311
CB283F661D5FB6D0DA023CB67320A20DC7BE661E9E1BFE5463085C557DA1FF9BE835733766C3D139F2CF9E2208873AD0EB4814DE9E6BF2CAF81614D4D43906ED1C05A3265CABBFE192770FC2F64F940CB6B17B5F166F133C9AEEAD2641807C3E69515171DD74C4A85311513D6EC9530B3B601B6BA3EBFF3B5C3D2F7D697651
311
41E345F75433953D013ADDF8F6AA7DC3F4A7563FE5C7D367937E2900D7EAD0F9FC9A4A1A9B5BDF1FEF08532660C01C5D6DE22199AA774383E306DAB87E301ABB7D213887F9869D4942D0D71E94B27EDF216A318BD488D45DF84529EF575AF3C3938C0AAA0215B01994153E2054A0B894DA5C784980633AAD48576957CF4AEA
311
EAFADC7C587368551C73DBE1E57C58AC713303A8BFC258BD04B51724459FF9E24C03A81E0E0679CEB9B348C0DC998FEB9C6D6EFA77D247CC8F92D3848599ED89A23218D0636465AD1CEEB7DC140D7426F83491C4E8E8281C2FB35240918FFECE880CA2A42D70E8B20B34DF5221C7DB0CF90ECCB9C745B37A47E9B716FF7A97
311
B7A252C1F3814DC7B1E1A7F72B8751D524EF7CAE45B0C73B3BE7D08ED39781B380DDFC9AA4A4749C9493DB5BAD07A6EA6C092FBD0E85DB004DF06B8C9D3089C5320187E4CE1846158C7EA7DDAE8AD9AFFF21AA3A1026BB06A259845E8232DEE62811A4DA9CEAB3A4887320B76E2AE5615EAB7BDF738CBDD01F1E64064BC13D
311
9EC53576751CA8CACD58B3CEB0E6CA585BD089B2A59B9FC101403387AADBDBE70586B93D64BF3AD4453EF9C3B6A93817E8346991798601344F79A83C51F3D50F7BF2683A3605F51A72449489E0EE6169C749C60B1035651103AEE24D24E51A759C840DD3FC6504DA6FE107510E447B43461C79D22970B75DE5E1BD3007D1AF
311
C619A4A4A69B5626AF5E9B8374E20677F77E2F8E73DF868E8BEC7EBA7B6A75EEF7205E1AB9486CB642741D6E03FF13FCCEDB1C4AC129886268B01CDF4B124AF797CF784F3C6DEC97A17D4B558070A0F1C04DA4FF9BDBF34159AEFE958479824B3F58EBD1E19088A2AFDE501B6F2052368A3FD0E650A179EFAB1561E1D27527
311
077136E652676C3670F42DCB3352F48F6BC86D2C3B0051727E41A0A4DC6CE2BE9D47F5CAA2935A3C0539AF080665997194ABECD723B08129CC5B6B21D2E7D54CD4D12610E7E9FB8306771A89576C7A982002775ED44F3F744CF21EEBB27A631671D921938AAEE3EB0D19CD1E083727F607823E817BF599DCED5394E37EEBC2
311
E88782E638920CA641EF74D4CDFCDEF06F4278ECB18E31E7E9876F2D783C8BF429C75395F57E98C2B495A3DA077EB3AC3C158608B6B57FE3EA48484D9A480096FCEE0DE880950E7E5A5714131C5C41AAA29FD19AE81AC145FA1B9E85C7169A5AB837B213493DF7E9AA4B5FBF9CDEB36EBD21EF1181B7CF7366AB2A951D01E3
311
7AF4EB835D1BE8C117CFBE7625D2EBCDB0B20C5A4B45CED0BCDE3EE8DA9DA78C2E21DEAAFFD1197E463C33CC6A80FB785669B856EFF7A8CCCA2841B5A5369173320B1170C368B2748D81062EA0296E5E2D95D7667A4A46D98A6FF475C76AAB0A8C8D45E226FAFC9FE0133EA9F60111F99CA81ACE03A1D14C89E8B0D69079C9
311
1464FA1D99E651D0EAF606F345C42A8A1AA9BA391031582B96D5B4176A77AADB01F12FD298A75DEEBB2C82F0B8650E880722F8DDD90C56A7A058E5FDEF1AC93545BA27367C76F5D8F9690CB6F8DAE141EDD7971F0FB548A2AE435F224D6E5954CA155512F7332029D5A1230854B79F258EC5FFDB09F5F6343A8EB193229B7F
311
7E79B3E48F8E183860B38C8269D1B53738FF1E0BACF6AADA6D4869E9DE708E79B5DADCC09B1BC76F649731CFAF59A83FD8BAE4C749D66FA87A3810D4D62FFE826FA400C0F325D2BC0F3CA35F5847B82A2ACC7961745C823E4D863D54460AF792CE6F79B5C7A33B25C3AEA6CDE15A919B6367D781E9D44F61BF828672594A3E
311
1D9EDD6DF179A81F27EAC05B936575D73E05C209DDD2115CFB705DF9BBF3C911589B3640735E9E618FC9C36A7326C82B2205E244C55D56FDB9D5DC93CE958D4BF8174D2B3DA54CB3C09F2C2A6DFF73D23B2197355761AD421EC581284A7EF8DE2CE3497C0C804D49B41DFD6A7360844E5BEFFB495CFCDB97A4595911CDBA62
311
3274CE852B5E278AF0BEB1770E9D37CD977B2766A7DED0E94B840E1E95E8C77DE5CB6354AF7871427C28ADBEEF7BA0A28E19DE9ACD75F379FE373EAE6DDDAE3834692F9C2B03B4FCA8FCA9ABE8EEEBEBB725B88A7C90941E850682CA04061A7DF0CE82ED49BFAFFD42C309818FAE14755CAAE78B0F73243ECCCAD7DF58FCB9
311
CDFAE7A4D3E6671A613639130D056C8383C8F4FCF4808C331E544DD26E4755D09EA05253B3049A1E32587CC25D72E073E2CD96D04A71BBCB0038FEC3F53D254199C3CDC67CD66640269431860225392B2CB3ECD0B4498AAE78BA1994246AE1EE78F2EDFB79F6C6CB6B5E279C4D373FBC21CB2698C9ACBBEB6A4BB6B39E16AB
311
0E421CCBFC7654D81ED86022F9BB522146F9F4772E2D0E4FA70120C95A85A417BF5078B232F4754363EB1750B2AC2148EB46B1EA72AD9B4D23ADCBC589D70106C3EC2ABEEED84DFE28E718C6C83502C28E9FDD3B09DA0A6F6F7B72B706A31C9E2A331EE70DA56A083D2177BFD63C55B11D8D949FAFCF90B23A1E24B9B5018B
311
9A17E99F2890EC302F330FE7936E2C23F0D237EC8916F5166AB84B62A21BB0B950146962D754F92CC2C8877BED8FC7B7B25726DD19545392570B3A2C66B58F027BEF412E552D12A588C4A3CC5C3193FCB3485EFFF700D0B9EEC077754A33DC1FB9E25AF814628F91DDFECB667D3F7690803F38D13F8AE39353523BB08FC676
311
0144AFA2CE28236F65EDBB3D5F59A57D612B99E3D7E5F8A851666BF9B5A6658EFC96EEB37A378ABB0EB3FDDF1303AF32C41BD1C8560745D7BD81066B0D6313359CF488563D3BA3F8E2185D1FAA3EBA1397C9D0E3DD232180A4DCADB6AF25DB3AC3CC26589C8239E66E81547BC7E2F328F9884764CA37EB5DBE390DFC03A524
311
6B456A7C3684C4377D0EEF9A350680FA9A077E8B2957B489E09AB1AD41316944C2254B5984830F691C93CAA767EECF976FA5647538830B5E63236A6F0365C1E0F3E327F24FE35EDDBD7360B0F7374837409F7A6311BECC12B7026D4FA1AE204FA3F5FE904B1F420C7A9044AE58E403E7C4848E7DA25DC9EDAC79DD756FAA26
311
B9EA83ACE8A214A2612A22AFA19DAE7DBAC5F8CDE1292A485F98DAC731A29FE01A3966E96BCB9FB5A4C8830E1B9AF0C54B87FBE221A097036E5D28D1F869F810C06A9BB0AC0612F69AEBAF893C6E7AD59460208BAB3A6B09CA4F6BDDAB8CF0D1F84B72487498395A70DCD754796E271099A567A55CF242BBED64696378BB6C
311
F25EF0FCDB589F3A82F1116D010A9AB9FA4358809EE0C973A2B4229BAA876A70B03AB49CBA7FBE71DB1832FFD32F9BF2C8E98075CACAFB36921235D0F552B6A67E94E094097A5D7DF681B40623DA535ADA7A9AD8E9A62407D7C9A5AE51D62A17A83A23728DE86BB56115804D3F2675F2C6B87541A0FC497BF0CA86420F558C
311
9859EBE9FAD62747E323E3AADC03FDCDDFE7407B09DA90B44E3185723C5381EAEF589765E2F7A099BA46695BAD60CEF3491B8A171F5F56444F7CE9455312C3498C74173AEA0214EC029833B34B650CBB5A5508D5091665309642791708ECF27CF11DB3D797D6CFE474453BD4BFADB768094B2147814D81C7CBAF8228DCAF55
311
64B5891F5EF6A860EB2E323CB82AB868D8EA048880D63B0DE5341F1B3D53297B928A11E15F25E5148990F710747C3509ED14909C552EBE3973246FCE55D00564D8310BC3EBC5085D08D806799B77D6C57FDF5E55837F9E934F09C03C729271B64F12D0A9F9E938107CAF7BF1EC8CF1BB9B42363D33070F4CACB425E605DDB0
311
A34A12BB936DE286B9887A4E2E558F0886498BFF49C311D96C277CF6A9FC0D75AD0ECC5226D7E0E3572012E56D7FDE4410CEC7A6D0F997F225A2055B8B92E3956E875AE4993CB3D4C9063AF98FD45E1BAB165640A43439A2C9181A7C355B297C0A0CCFFAE19B6FA3C2BA238A885FBC98B8F6DAF4B94B97304878DF4D8BFF6A
311
4AEDF79E90ED4E68F00CD7299F4E0D83E35601AF0CBEF18C1E870E74758FA91F5131075004DB3CFCF09AE1DABC11957FD9808C92E8A678CE9DBE40DDA0E0D1D505AAFBCBA208232BFB6FB3704E8985E61ADE53DE74152F5C7DE74B1DEDCD37DC3E8FB30D7EBA8B9EFFC3606BF90B8D438279CB7709FC7C00D327F41817EEA7
311
1CD9E49FE9C8C9A81C70915D9F0F15958EC5AA4C3BBFAF46986B90F188BDB24B89DE3C6F29EC3E6F66D84856EE96A35E657CA41B41EFD8DBFA16AD6E91439EA92B40B21C053249F51AE50EB0B24C770FFAF40DF12C8436366819C48E36547D4E7B72FE2BBF10828583057814A668BDF183F6B2E58DFB151103E56303E63D00
311
F39C27C4661605DB644D19175D02E3F0241E8FC3458D17AAAADB117CE9EEA690D0DB01E634878C04C2C9310B69FCAB831151E3AD293BEF6E46B0ABCECB50F5939B39C613D41E81FAE8D34CAE3C4566B761D37185FE864AC32FCB71AEF39DAA5BAB88609BB980CD2F07A8F941653B529567726E2B2A58D079DD57E1E5E31426
311
CF184A04D7B03B985F276D47406AF276FE32E3328BA866EB1FD39BEF57863A317634AA5FE467409B3873F5069EF0D71AF00AD189D17BA1974ECDB2D623E9E14086386A6AAB5807825C37B015BFE892AFD154920EC437EB945D958E18622E1E0FE2FA06557CE4BB9BBD05A2D40E774DA2B65473791E314B7D6C886820B2FCFE
311
4AA272B3B8B15E7344A145E8AF919B5454D89D36D413E87211186BF6F645E5EC94DCCE8E1C799022E4EC9BC86D7A0F2AFB1FC4B2CE48F84B3F49ECE65BAD24CADCC07EFF39AB06BE9E6B27A059938EA7208838455383DDBCFCD967DDE4650EF92A14FF933C975DB20BD7FEEBC4487576485963D757D16340D9599FEB362F77
311
5F38CA4185A86F74B629C81B133644A3B18FD056E997E0734F9BE26D11C0AAFC669E2AC9FC41D281F8B2E1C35AE27BCE05F3DA295488096688719D974DF1B5D182DB7792288697F8763CFB43562C1CDEE11C4AABD5C22B6E33F6F389CFC3477C5919DC0D533F8A7A1846B7ADB60ABDC26C43D0CFC8910B7C15EE22675BD027
311
02ED39DB77A87A192CA7A543E6205B979B9F5A6B512A3CA799E198B2D5797C0AF8D1D872CA455D4D431A7879D4DD76110B5FF7F4176B54477A9EB5E4A5D11214FDA585F0382751D8E2582BA5D2075053298FEB8F1537304E32CB22C2E2B693DC0A760B1DFCA751BDC445AFDCBB12820ED85F6D5298933C7EF1211E9E057684
311
056CDA3FEF3BB6052355E162DF27C59E965A8DDB7F9437EB72CDDA3A090DE65A5B2F50326247B7EC67B73ACC7047FC9B353D6EE990F772207C6EC52B39DC2F3C0754821DAB559F7C1809C7D0DD5B0499D0442E0A6E391B3D5DB46D11E731E6794EC77523FBDAA242ED67F9FA1FB684255671F63C9BCFE6E7E896D51001A611
311
3EF2298BA494E0B0980D1FA5B9D60796554C02256B1E0345FB7C6186B6A19D2DCA270416262845FA4F42DB5D9B0A0B6F07FCA2E56C242522E001E0CEB734AF310FC8BFB57E38E03AACE93B3326A2197891E68452B26A6307FDABFEE0223D3C03C3C73D2D5BC054C8311F12004CAE488E5C29287F8156A2CAA4AD0D7BE6B972
311
64E4139F437CE73ADF52E5134C52B819777C18B323A5924E4F67AFD13B1CDC3A61793A79FAF5C0CEB718E441071E797C6DCCB9EFCF7E4A1E9F3DF3C2F9C9E8294E9586868788C972857FB0556D7A26941A7EEB9B580AD78EC40B85DC906B4120A563CA3B87797ED612D3B035962BB75F6515A393F4CB057F564CDF54F2E5A0
311
24514E6A1F901DB80C7E70B1FC05E356A7E72FABF4775B3E3FB8F70A2A8E7B6A94542BB304157978CCC999E707A29CC795E67A59CC546A5D47B368954CA7B6E75EC9E1F6FC73CE3B4F71F8CB1A6B15923D61EAAEB14626AAA9D04A26EB9C66CD1BE86CA31A5D8703DE04CD1EBCE4F5CCB62F93909AD11E55799A781A956ED2
311
7D3E738F4538CB04ADABC7DAEF20BC35BA6A90BCC1DC61BA05F20D8832FFB9BC9B15E2DB838A0AFBB7E0C82A562127E0446894F427794C3037186F622BF24DE1B00AA10A23BFA47B2A180D6DA5AD6F7326FEB8C100C2D7142EB2A0B2A9D1008A09BA343D70E054AB69E2A7EDB783CBD92537FAF4A44D1296AC2792729104B3
311
276C276C951D0CF3CF3F1E6B017720A7B8505A5FF9589365979678C36F1BAF759EAF57C60F1FF5FE9DCF5F8E764FF25A2D06CF25117A8FED51884C13B2B750DB0E4F5E3D64124FCF11F0AD8F1CC3B3DA4B38ED22BF1CB2585EE6BFEBBA63FBFD44F9537B9B37BDD6B358720F98A8125AED4349CCFEB0E135F19E208A04CA7E
311
2B10711185D72E381F448036EF57C9F874E54A971CA37A639E986AC0226DC5AA00D5B14FEA9192234B3DE617814FC221C92F33F1D392F297731B567FD98FD91D989379AF567A65B8ADF177591DB90FBEA99BF4ED11B16E50A0AB1DBF1156D034BBE04D69D08F939D8E92BF525A1DDAFF80ECBC95D8F45D3FDD289FD23F7D8B
311
452F8EBB34EC082DEEE68E18EDDF072060FAD2AB1504DD4879BF67099FC58F6E9DEFBF645D16334A3E9A127C6F1AF6132CF287E433B43A0EE93812B4AA0B194E03EE3FF91EF9C6ED0074A2F6EB18A96A7C9890B1FCDA1F2095E944DB911ED54C60DF16FB74C8CE9BDC7C54C4F14078CF73C2FFF1F1BBCCD7CF64F71407EA16
311
83DBC410D226627F66E509060D5C0AFD611DE681D509DB8DD12FB1265B03C6F5C55FF4C30BD94187FF692B4F152982502F193098A789526A038AB529A52BC0DC4FB6285CBAC10A8B8DB75DCD9BDABBB221E27D1F8DA9F5EE5926A1C8AA9BA9BC09239C6A7F12914EA3B59EFF7AAEC3FFCCE56F1C5C2980AD072793527565E7
311
74F4631DB178CEEC691B1F367BEA0CF2907E1D6B854D527065979DDEF002D8B2ACEA7CE21AE297737EDE1D45B31233B73FEA35BCFDD0B09721FDBAF6432681F2FD10C3E9EFB246FD6E854B344ACC9D8A0EEF876A7314B49B6A499FC650B099D650DBFEC7638ADFD245E2B7839DA5AC5F7D5623FC0ECEEC8653FC9B2BDD1AD4
311
D00A566FBA7186DD3C9CD26512551637498CADB950FEC71ADB9A5524285DE328B8EC7EC75D2345AEC6A27C42AF6D9B92155315C80DBFCABBB7DA0FAE425C4FB896B15C9BFAC4FE67DF5A23D30C93DA4D8F36FB15D100050DA6062E22AEC5F4DAC4F6FEEF97AE05DE63C6D38F9E068A20BC5E3B6BCD75320C5090924E7F9364
311
0A7735B1A43451C2D91EE62C6238B797349E59890AF3A520DF4A87095F3ABEC2E61F0593416CE46CDCBE0E00E2523FCCD04408588B5B6C9DB6459C786CE378770B54F51DA3A5E1DF2A3349BEAAC234A6CF8993B598B3B25B4B113E353A4D750FA7534749430F3EBF2512E7EA3FD43C6AB9A1F765A58463B306721A15D224FA
311
FE8C6F5E3432D57EE697DA0DD5A9D4866A8BCCAAA9DFF1F06047851408FEC060471D0E3EB86BFAF46E4B5E60311DC3E3CEA147C75CF971BE74689507154FF2D2E92F15CDB2B9182B11459FD8ACAC5A85F174BC94A7F4EE4C4F5CAFA7C02E37BF0BC77B7DCD0C047BC316F562A01A441AFA7931CC84A28CB9F4AA367EB51577
311
8F29BFE61195FA671F4352E5E46E3A64773F1F76EE5EB36D7BCE9BCEAD837A4D77F8DB8C92AEEF6711920D7C7D0F76B0FD0EB7AB83724CD35BCA7D36DDDF5FBB7FF6F04A91F3E2BB3B8F1A43CD659639507FF6331C5F697BCC782AE57D757A27D97F1AB9E0AEDB43F92F1B2AACDF5FEC8ADBAF9F814E2027003BA2F9E144B1
311
938A7A04050AE5D953B82C45619165C813A10E76DD6906B3C16438064D14CDA713AEC420034613E1AC7241904A49FBF87409AFB1FCB9B72FE7933A87D8FBEDACECE4EDCF6A4FE9FB94D5DEB74FAB7CFEAE17EE965DF980DCCA2D04134994F9A2E94D2265DA4FE6AA7B7AC15FACAC2B5ABBCD7DFF542C5314FDAB2E1B9D8B65
311
220B8E2B638BE008E8DCA22678C820C5053664D15E89F2D735B51A84955E81A443545E9FF787BE0FA700A76D136C27DA179A7C6E8939E01BE756E19CB292798063D8B97F44E8A27BCF3A614FEB8BE974A718E86F7EC99B53CA35FA24F61F2B07266684623A3D4CF073E511F3A10A8FDAFAF0078C577F4DF9D339FE7862E5FA
311
47CF4344209E5BF76D783B1B48E152AD281B15FCB934DCDA49CEC5706B1EE8B460F435324A5CAD154725E21AB8044B75A557A79F6C807B9340AA3D92503E866F4274412926C8C504E4D5EF8C0E68DD0B028781A6B4054F11CF18941F101C57CCC796773ABC8DED9CD91FE5788806C05E548895354AEAC96546D55B0E94A59F
311
148D061F42AA398D822CDECA4CDE79E13469BDCC44FDC990F366BA5978C15F97ED80CBFD73B0CD9B8B83A4F6845BDFBFAF034019473FB9A63BD55D3A4A7284757071574029A4D016DCCBE95DD679EF3C4880BF169422F8C89B68A988D2B13793CAED4F74DE7486C72DC94DF46B8E93D8E02EFCB1FF9B3BA10C8AE7F653DF94
311
F4AF466CDDCEF5776687F7C4C14B63E4EED1719DC2EC482D7DBCC7AE518CDE3D5FF86D39000EC3673C0044E1D308BF05F74D1B5F033A7D1BE7F74BC55BBE3E4A20F920946CA0271EB17BD2B80E5660ACB8A29A79F5E4BBA49D4D945B6EEF4A7EFEAA65E5555BBB57A7E15D2F83C69F30BBB978D2B39F1F26FC097424D39BB3
311
3CA3D87ABF64E307938B685BAD44F71556A30B7E712CA4FE600613C3E554B69ADE949A7CFE214DF1FFF05CB82151EC6FC31950239F94CF7AD39DC473F6EA356E5EC2C4EFA04383CEFE985A127484366FBEE3C0EC4FEA363E4F6632AE781392FD45D67B63FB8DF70E82734F431FD3443172A0E30A83D60982D55FA6A2CF86DB
311
A8382502ACC6CDEF3B907982EED1160E14863FA242F9757347E1544275CCDCF71ECD5F8621CBEA326B8BA884AD7F825781923E66971F04010D574C541D8427A438A37EEF8AF88240EED7362C953F5A81DE2D56109CDE2524EA0F5D2F87308C0C47BD97AD605878AB8589E17CA83930CB5E0DCCD75853D68B1AB136594926DE
311
426C367428E9334AFAFF90ECE221BB5DC9E5BB53D2CDEF954EAA9CD814F0E5725F1965DD458E5F8487683AD86B9D0076BE3EE91EB1CECC5331A67A3F79D8B27587C12EC2A6A70474749F27B4C0BBAFB94B34189E88DC18964BE4121B9137FD516C7755356E50D6714E31ACD222621EBBCD1CFF81D87479056A9DA0E0B8EA19
311
D24CF937DA89F78E8650CCBDC110AAB6C4E46DCBFD0446BA9E2060E81F314AC2031E88135E5476AC0160EF5C0DD2EEF1B8B5CB2D198BE9A554A9093B5F7D7E4B5407DDFCA1D9C152FD97F55BFFFDFE802954DFEC8995B983E28AC92F1971E28F531DC407A1280EB125F64A72E617EFB27DFBCEDCDA2D6F2BDADA36873EE46B
311
9BE1782998C63DA7182BC383FB6FD15DA472B175D7E8B4FC88F38D6E07FEAA3FA3CBB8F6B449ECF14D2175E5C5CCA3A42ABF24CA6C9395AF74535F4DDB38CB84F56614B0FD32D7E19CA5CF988DB4449C40E23DF2B16772594554579094450F56F253CD25EA7F77366FB1CFE79696C428BB64D5A41E986189427E5E4D7E2DAE
311
3D5BB4972B3DC44EAABDDDD63A2264ECFA5C786EB0EE1FDC5BE34FA0F08376869FD1E61EA06CAE15191135445EE8F0394161C3266A596AA035572BB0C8876180D8B9C77D307DF9DCDF7365ABDA6F3A2366436457A4DFC1F259666569A9E4A79C817BDD5610E5200FCE894A358EC72858D50EF67545DA81C6FACE3D457BAF70
311
367E1E6BDD9A952FB4F56247F58F523B97E640246051A72F79BE42FFA0B3187F63097F91C48B868586F714B0EBD5A00A8412C1236E1298F60C72BE6C96B82B404CADAA304AE9F303176B14BA53FBC2D5E86377E35542019E24D97B96A49B2C0E5006E7795954DEAF5DA58958839043C6C70BD3B1B33B6DC5C31316D8A6923F
311
142E26F6711A2258AF977DDF1F970ECC4F1F2B434B96D81BEB6E89BF3BBB3C7C8CC80505070723D6D7D7D3C8CA27CA164A26024FED94B12A86031867241DA53D929636DA600F050BC40CE48B8BA03D69224720DEE2ED2127390BDF5E6EA64527BBD4C4C63FA76BB801FEEC0E61218EC98A8A86CD8313781617877E66692839
311
B9468CF4DB8E50A73986E558E309C0D6F676F921BE02F1185454DC75B111572FF9D27D85EA14C05AD7271225B391C4275659CA4A43759D0BA44639BE4C30A84DB7F67A41399FB95CBF923B1B1672ABC807C1590557FB18D811983FA97F5E609516D62281D38B1281F68FC75528C35E4CD7DF0F7DBB5E5DD69C414EBEA2F4A5
311
B241B996BA77AE6C772E367408C633EA3E438B68563EA8BE7667F3A4C4FDEEA52ABD78A2820F443B7914A15F180018D231E64519C56A12F6CA7C8DAE18F06F6B769DBF92329EF6A5D18FBCE600F36BD8E8198DE5CDAA96181F3A756EBA5501CEE58F497EA4F418A2B82565B9BCC611713C0B708CCA1F398B78C5F7D03B3437
311
CC18F13061F55C7BEDADD5ACB1DB0E36D3CE47FF6EA1A563A57E9649EA5D14D1A50EAA457463381C073777EF1600607BAF6428A7DDC079D47A204EF1E1F1F0589FB054D45E02CE623B3823C317C601E589E22B1E88B448524B86A82828E32345EC18AE17214B42F8C41C6D428016D9BA31DDCB47572561E5A402E5BA4FCE55
311
F78AF7268524AA04130F3A20BA5D1E9F9948EA48FC8F5314FDB35E21898198060034ACE5E3E2BBCA34092518F275190AF65F45867FF0900AA4B81F25427414C372BF51DC29AA855C5428EE1EEDD6B849AD60F6E73475C2D2523F8A2772C840A478DED18A8C5C91B085F255DC4F54EA7AA8947354FD17ECF8FB3B4A0DE7B483
311
CAF3A1165EE05BBA413E5C1FEF3DE1D6B8F2F3F3251C17D9FCAB48A9AAF63AC773A0E413BBC46A9ADF84A566FC920E4D8C52C9769EE3301CADEEEDD92B312E02E2A7E35B7F1E7D203FE5A7D75578B06E99D0E46FFADB8FDA17ED8880390DA29094202D6F645F76F6F96409CDA05495A96E84B04A00D1A6C6C81D7F3DE9376E
311
828CCF144EE50E364ACCE7237EA0BFB5607ED1AC3CFE73794E5B61739D14DF1743441B1AC98F00ECEDE9E7301FA29755FBEFA68C91EF2B314CF510537EF1ABFC9A762496280B546F5EDAAF8A5B387D469FC9A878A92828C88608453ACEC6094DCA54111E7AD5B2663DFE2DD151B7F123B9F4FEF8EE36AB125FD7AD52A59B1B
311
765B3E3F73E3F73DEA93875004D2AFFE3CDE9493B87A9904DD052028949041A91DC0E1BA47BA714343FD5B25E0A6A09503AFC17C790058A836A324FE31D7893512E28230332F153181C1E018E1124EBE1BA262AA428A518237D1EA7275E48C5C561BD19ED6912EDD8367DA0F31E40EEAE9683DA9257525AEA7B632B97119E1
311
7145A90231768A4F3B9120FF32E8319B015E3CBE26F1A754177D8185345817C096B0CE443A955D13AC15E1FB5DEEA0239EC32A3C92241A237B0B02FFCB4F93CF2B02570C8D192E2F2A68CEEB42F12E6F8CEEFF46C251E22B4341C56FB08CCE550E7A9D6F4D6564B9EA52A83D5BF2C6E03FA19D2775E15A8A7ACF30A13C259E
311
E7F5EF2AC3BA354F1500E1A07FC63FB4686E2F12EC69719F9ECF5FE3F35598DF2CE944008CE78F0911BA5BE5D0A34E0098FF038669C26030BA9B300303039852A8F6F496341737CA7E0D2E3AAA36DE0A70AA7D9CA0D54D9AD84B18A44C9E625475E1C97B93BEBB38DCE7D227E67A2D00F531436136355F243D1FC0D712C576
311
5754FA22FCFFAE97919161F46D6E61ACB37D83777B385889770B50765B127768443A5C4D3A4E35A3151111F146B7CA116F918A049F1C272F2CD7976C69A0068773451659A97E0F4A08FE604C3FF6CE7385DB19F4D3ABC8A0D80DA8A42096AC377DB49382B36E270B6FA7570188B4B7D1DDDDA82ACA487CCA5D38BD3BD039AD
311
BAFA4ACFF27809239B722081E2EB9F145320553D183F28471C388BC8814E5045676767AB58A8E72D1CED2CA731379515D2E533E4CF0B39DFC625F97AC4836831A4DE330E87A8126FA17EBE583D614E71E22A8DBF2825599743E0640037303E8E1B1E8EA4E1ABFA4F62907B5E4E0E5DCFDAB417C36C6848A2B8D15F1E505434
311
C0707E16B1CFC2A1C36A42BBF55734F8F4301DDC2A5110CEE8C0747F69519265012A2174BF4E955ECD4FDE095A3ABC70536B7AD0B9D7892F81287D667C108703C9B66A221E9A0929D030008F77FF6F5D2108EF5706FC87A3069B976F7C9FC3239D13D283CDEA83597461079FEEE049B0F392889898B7D87D31F8D60ED7B56B
311
91823A8E4EDDB36C6172ECEE42BD42B12CD67994FA0F0DFAE9389356F4CD4425A4B8AA55CBF7ECD585C6A2C2316791E43D5C06841ADBB226A87FD61515FFBB0167B74E56BD7F3E90A57A97FEDCBDF483A0D6699A8C0849CAEB4947FAA90D8E332D9DEBD9F4738C37DA0CAF9CF3DAA68BCB67C420459C7A64498D6E848E5CAD
311
E92BB6901F607AA331104A67F7CD650EE169B1DAE94D2C31C2F993632259B6957E246EFE4C5481107B07118607700040E5812A2A2A38DA0076875258C753F60E0F2662C748EDD5F3F3686B8FC3BD6FE631ECCAA1E8B1C1E565AD117E54893E79F4672E32F9E46B2A183DFDCF3EECB4D4D077DBEA0DA254D256045109670050
311
129E9B9B1A9E4A11344D61497A992778095151510C4BB7EF2009B63AA4360635312E4CF668B7E0D3D85A8688E2BD83B569439892ADB63461930D428E0DE42E4AC57CE48DA5CC1449530D8BD3D6A0F08DF20C8E8F570F2CFFFCEA286E30969B4654D498A58D9DA782E19FE3F002181838925592C4A1EF0B332D88B61A92C644
311
547BED490D3A42CFFAB70E36D961F694F6307F72FF15A1C79D5B1B5CEFD353D9E2B52566DEC8F8F09CB3E8359C0F68EBBB7898243E34E12A015B2685AB303C04D3A9E00671FF3DFF0A184E4A2ABEB2B666AF5B3A209C73D8EF29DCDB069C9F391EEE9DD0F74C7BCDE16F8F02E3B8816122BBEB50665775B600549D8BB33A54
311
A6BF940C028118BC6878C79958D6784F9DEAA6E26748386FFAF8D0D0101E2847B6563F5D8DC1D78F787BE00E2C941AE12148D4A81599FE8F68D4DA5CDED75530ADE138240300EE13B0FC13A1687FED6774662C05A2B7DFB186732F0D7A93545D8B0A6390AE5054D9CB582DA846D7A061B3358B45E2B52DDE63E114397EDB7E
311
09233A579155D795BE76102CF277F4DF8B188C4F2879BEAE3C08347124BF9ED23B128259FE107D31E34A652F090B30B39E0D9AF917B76A2806135621A8A60681F16AF216514BBD02711585B5B1AE823F4B2D0369EA5B6BCB863072727FFC871CA6C9AB79A814D989057E9470A3D238BC87CBB4A0EA49AFE2B86F22E499793C
311
AA9047080450166BDC357524561E258C77CB697F1ABB32562CF87C3B7AA12F911EF19FB3E5C02222E887D08202A60A17151F5E053A86B437771088B4FEE14D652C43E8D939995D34545E12E2FF93D4E366EAD25F10CB7DED141563C3D0C447AF06078A91135FD4B9611583CB4BF3BD167F2399CEAB0E0100F8FFC305F00F17
311
11717173138B4B48C83022295DE657EFEDD97F238ECA80F528AFB4F8D67AD4E2594B9A3AA86D7487EFC313BA95745C186F0CDD84CC12DC9CB0424B42203D351FD9C0A3AF10CC7F388E0329279087386421F194F4A29464C1DEF7EF8BE515E4A199DCD5B909342598D8FE6A231F71336248D5CEC5454455C7BE383B3BC7B260
311
FED27F703FDC39A170F3827239102F59D4DEE7FEF82EAA1A5E4BA94DCC4CC44E7E2EDE20F24244E4454369D2E87C3F823F193FD4FD27E1C23984B01898D15ABC20711A8A558054951A6AE280096BA36CBA439603B7B0B4C45F248C14B2383B4B5CD8ECECE4FF859AD4A6CA2326D020EF090F4041D28DB66E5256B56232CC52
311
829DE8060BAE6BBF37D4B7469B822454FE93210A3E8D15E69FFCF01123222611C51C4FD0A041A0CFA2471CF6BE38D2B20FA4C3525B5B8B586759475CF80ADFE67A284AC24651E52B8E683D24C2622642F27E7C3C22783BCF63648BC398BD6CD0D9C97E7E7E3EACB6126DB7A6C1FD9F1031302EE67ED96F22B77C7CA0239BB3
311
24207559B105E4693EB26EC46182A92C9C0DBD24F29B31C5C5AC1F84300E0E17CEEAC15F5736FA4A98971E2F1423BFCD68D4BBD5F86E74B40A369F39507C88FCDB35D2DD8DEBEA4AF999E23CF2816D204200DF6E611781B9884C1AC8888B4DE397320472959434323A5A36B22A8E1F721A270DF3BD65E4A31C11FF048AFB0D
311
8B7B6881423793963A23CFCE935FC189ED36FAE35C46DA3574C979E4394BE52084F3081837BE033396D2EBD80F1F691B273F660D2B32FA27A33B1DE4ADA5F0FA4651511102DFA410DDA86E065272CA314D5249DF91B06BB92807B28EFD54F08F7B525252782CD276DD02E6B0319B13DF87B1F6361AD6B28FC0D711CF445429
311
B9E5A433CD493051C49A9E03DDB1B147D880253514A5DED88009018620EE229101C041950E2D8AA8E1F5F5438E0C0C0C60EEDEE9E3E0C051948C69F84BB7B2A48A1F3C8EB9E6864687F4F4F6F6E2FA87608ADAF9C5E117B7C1A737E710769DA1D15ECE6A84502AA855398712D5FB51BE92E4EF824969CE18278798AC303C2C
311
7980DD2500ADF8FB1E6D6C2FAAFF9987178923334A244758BAA01A9A1B70FA5097D01E1CC2A58DAD0EC94CE6430AA9B0C10D75E3C6BAC670EFBADEE1607739CE0FC18A2587E3EC3058562014C64219C69BC269082D5C2F4A659278D585755912176D78A1B641719C2A394CED495A1AC5D583FD2F5EDD93308EA7EAE8A6DD39
311
6598BDBD3D4CFED62D18A5BDFDE0DD5C80D1A89BA62697B131AE7CE9A6594138582F1B37D68F1749AC7CB67A70695D48A4A056AC1FBD4E82358CEAE38F54B95A9016F9000F9879C0D9D131768635CA798895F27D6F1614F11F2838A83611AA51C9A3DDB539D42979C29F10465655C17BEC3E2760B80DCBF609198C7B171A53
311
1905F3EC218D696025975E986C6B4C666666787271F202805577DD5A3EF0CAFAF91B62DC4B2DB4217A7606282F31D8DDBC290593BAA93EA6353AFA9939B877978481E15CFC9F2755CDC00C538F63A4BA3E80AE009B73CA0185687D339A507D165B74290D6EE46D5C58148F020C3668ABE9EF2F7549170DC80DB41FFC1D678F
311
F19AEB10C7133832B104B80F691B3138F97A92D26E551F1F110400D45AC71A9B9AC41A1A1B1DAEED0B0810638EFFB511D46B121C6FEA0F38CD00E03CFFEB9713FE1F9C263E4DDEC160D0497FA9A132BA608584057FB15380825DE6C7FC3C667EE947D488A09898D8E939C4953BF4EC9836344D2CC6B2971B2A21A572B06096
311
F4982D2CC7232D46E8EA69DC83722E267754D777F97F96D5DA74E1E75178084D0E70F12AD33E5F71EF2AFA599B2BEBF60A5BE475F444F240CBFE8143C334E7ED9150FEEFEF7EB020C4DBED388DD1D6A167A76F3CBF119B578AE8CFA7736ACAFA4440A1C47185638A0D2F3EB5BDDEFDA958FB13CE4AA4923D5BF840392D4554
311
4329525749734866684BF7F8D9D54D892E19BCA9F829A0F8BFCBEEA6CFDFC61D74EA1A645ED7A1FF241739F15694BD835B66FEC5677E40FE69BD3F91AE402F036537218A401CB0828604AD189E575015C6F3F6BBC8AC79CF6C70653847254B31551EFCBEB5978B9DB85D58D0FA41A9DFE9C624834AA04949D24B5AE6D299E0
311
72D152D12097920F14AA92C31C3B97E28B6C2E6E9C23D63043ECBBC0A60FDF5BD0C33C127EA8A3308B8B6AFFEB28B4455BF6E7AF4FC6222728357EB8E46E85053E6A8843AB23295BF838ABDA94658FEF3F832F147046B4ACD6F7D48E8FCC9618582961C898D1C7A253C91BFECBDA6BA18A1FCF70755DCCEE2222F41B76D23C
311
A98D0CB3D95F0CF66D57FFF65E2A90F5DF40FC3187621E981BD0BC1D992787212688976B94A8F0C6EF646624B570B78E068826F87CE27041A95C9A4871FF65CC17FCB1639629AD6A9517000D63AC231F3D741CB8430777E7ECF80CE7A3F73C0F162F7E56AA71F4DA80A33CD6ACEE78E2C11FAC03DAFCE929B106F8F6B3ED2D
311
C71FF994BD9CEF4E9A94896EF1B6E2B7B4978168BCF0847A3D2A4F1B0500B926E634B174548E9FBAD27153FB5FC36799B1E6C7C38A94E1F9E996796D7B485E635D5287A2AE76FBD11A341DB3F8F810385BB7296391973DC6C37C452A9305AEBBE0CDB6C566DB59FE60C8E94B1FD090354BF51439FFD1B48D725228FFA88C84
311
F686F547107A7A235665A4593B7C34D748C1AC8D56DD5DA861EEFBADDECBBD65117E65851F90351AEB65F0EFCFF4BCFEF24CB7A5879699FAC437A7AF9099186CF006BB923A59E37D7A36A29FD8D2CBB914A5E9D0A8FD212FBF796AE9A67958FF1D5D8B85F78F96219D4714EB919929241B6C018AAE0C02069F8D919961EC5D
311
DFBFB7573E3AC8E08BFB7C8534BE6DE045B3CD63DBD71F7638BA2309CAE398EA3A7D8F98BBBC7AEB367EFA5CFA27A9F8F2F52FE878058E6209C026453F8E7E8A237DFC389E9590F6059B397CFD65183BBF936E86896612A5B5FEE49DAC8455D026218AFEBEC12B3523A45B57B82C9C97E02ACFA1184DB18E48CF615DBF39C3
311
CC6F0B4AE6BBEEA2E39D944E290302FA3DE33FA7E40296E2EF7BF1CD855BBECFAD0FD622BEE9746FC4FDFDE545AE6E3BC234CADF83A0FB76DFB145BF3828AE3436368AC24989454F8FF70A177672C711CAA1A76107218CF948CA01F873520E7A2B118EBB161ABAD432932029628B6761590C98AB590C8C8C79798CE9F715BA
311
696E839E9131A4BB68BE923F1747FBFF165331FFDD4D05997ACD168F12CA75348DAC04C7F509FE83898A8B421181AF492861CE81E4A2DD0A30850CFA95E05F097FF70F9E777310D584A75BA7018922E271DAB1D785671157685B7D383D3E074DDB4F1E44EF04B07BAAC75A062077C54B9752C738C9D804D402E02851F3F896
311
05AF189738C18C021D2139EAF72513824E10DDD3047BACC8521ED7E98B257D1166903B1B08FA6F918FD7E162913FEC7D0EF4787E29C35FBA8C6E2C9C20E9AB30AE42CA2A01A090E7D010C1B5BF9CEE2A304BF3A987FB40D836979B79E18D70F257DA61E808472DD85B82761825779D6B90CAEB0F23360C6F80A7D7D77545E9
311
5B3DFF0CF96A827F9B5BCECD2C9698718417EF80FEEDEE938AFF55859D0D540B7FE09435583A6F04874A0C7E8CF234DF4879722000167F5872CEC6BF3EF7E5A8CC8121E6A359227C8A29C95212F9F735BC72A887D56B8F309FC525BFB4FD767AAEC4AEFF249CFBBD2DE1AB9969A6155C7D8DABC307E47324C1F916C7BCFF40
311
ABA5644E9FFB9238D19ADADA49D9610F01ABBA57E4DFCBDCCBB2B93C8953206C91DE01B0E2651A6D6C31721915B31F7B7CBCE55466F6D70402788FA91D73BE4ADCBA99A35F17D6B83383704917D6833F0FA3CD45C926ADB8BC17999A4A0AFBCE2541F7B8CF4C2F5FBA611B3E626D64407CB32C122DFF4EF8674D6EDBB86C8F
311
7C6A16D50FA685E2CCA34F8F7D1D8265BB0042E9D7F1F666F7BE5FAA5184DF58E12122A42EF02F461B3F369AC746F96528AD208512AB56844CF75B97F352DF7995024FB02855385854F3798670D01CAC771AC3E1889EC25F61A20C1F8CAB46898817F9C47E2CDA1F286BF2F358298709FE567C91133E2638C8B53975E753EA
311
8BFD3578B5F7186B7BF084EBA3F77BAC3132A5779902EC22AF2D2E79F42D324E083386DAEE9810D1B44A5DAA54513C7A71E52A4AB9257D975B621308FE4D2141CC3DCFE946C154A3C1DFCCA7629EC69ACFA831634ADDA93C0388D2A9A2DDAFCF957C6995BCE7FBB6DC4EBAE79E63EB08E9A25F52F67076F7093CA545CA3053
311
B5BF576DEAD4E0017143C5F759F32B2D6F145B52B67B48909B7C7FCA6586EE385A2189C16932CB6DDFD9152AE317C430492A578ED27B72D85D40C7C93C097939E1B50F4D67F05334FE9DC362C30B7FF561B95259138ECFD9274C8D695C31B14D4EAA9F3D7FA8DDF652F8C5DEFA23284C799B7D94416DEE81E05A866302DC70
311
192A5368EA65E1CED8BF107A1E2D3119A71E85DC1A7B0C1E93274CE04DD0F2ABC8AC7C987FDB002B6F81757B43502EF7A0D92E416494FAEEA4C9C090CD9557AA4D532F4996A272B94355C5A0E4974EEA9627476F30809B94D8D8D860062E02204643BEC7D0438AF800FC7E2B26955D595421E83C69E1A07E0E3122285835F0
311
14AD538188CF9737CE76D464A353FA55A001AB2526B84E985083693BC76FE211CA1D000679C889E3C009832C87E1AC2EDD05C302557422DF0800E316FCAC86978A371F025A6C7DAA9F333E7BD160403A1A06EA75AA9888FF01504B0304140006080800D666475028BB58AF800100009E0500003D0000003230413646444634
311
2D453044302D343842352D383830432D3536413942433842363242382F536368656D61732F436F6D6D6F6E536368656D612E786D6CBD544D4FC23018BEFB2B96DE15493C78601010A34B880709DEDFB52FD0D8B54BD70DF6EFED3AC0B12E6442E2716BFB3CEFF3D18E26FB440405EA8C2B1992E1C323095052C5B8DC842437
311
EBFB673219DF8DA659866649B798C078B48AE6410122242F2A4994AC7F93815DF85C049C8564CA0A901499DD886B2EB9B1E02448F358701A9235880C49A0119892A20C89D1B9FD768815CAD268CB5E0355B40B1E47F3E37A2020464BED06AA57CE8FCC20C3C3446D46761A2632A8C1283D07031EFF2AE7CCB1BFEEE916E406
311
DFAC8E36FFD99A9D60A6944090EEDC3B670C7DC13DE86B6B2C5C240D6E503BB85ACD579D513F1B9F9A69DC9CC22AFA80C426D40AF0B21EA168559156B6276F0F726A6BFF04DCD513A87A62CAD41FB24FCB2858B3952E3D852084DA25B9303C15687973CC8E8AAE11DF2836C38C6A9E765E8C1BA1BFB1DC29CDFE518C8B5A76
311
55A4ED7E77291ABEB80DBD82EC866ADE1B8D05AF9E35CF09D7A061F38A986D9EC412B8F0F65E5D81534D9B231D1E5A8FE577A241F3A5FD01504B0304140006080800D6664750E336299B9F040000341300003E00000032304136464446342D453044302D343842352D383830432D3536413942433842363242382F53636865
311
6D61732F47656E65726963536368656D612E786D6CD5585B6FE238147EDF5F61E5BD1498E9A895A02398AA5D1E2A5665BAAF96710C78D6B9C87168D95FBFE7F81242134A968E469A4855437C72AEDFB965F4F53551642B7421B3741C0D7AFD88889467B14CD7E3A834AB8BEBE8EBED1FA3495108B3E01B91B0DBD1F3EC8E6C
311
991A470F22155A72F73CBABC1D4D5921DCD1934863A11F990102A6F61466977B8AC49FB13C174CB3940BE4504A22E3713489B7F82406516225536940BD88E4E552493E8E564C1522225AB0384BD56E1C195DC26FAB13882C2EBD62E1FF9E5B0FCC453132C99548446A1872B62267078F1EF14C3DB1DD1952DDBBB384AD4567
311
79F387C51992E0ADCE12FED2622BC5CB1952FC9BDF3295E9206E961AB116DA7ACE45F76F07A26EFC3FD762FD7362FC3C0BAA4DB34C09E682CA5167BADCD16CF94370E331E2F1A3D852008AAD5D64BA2373478338AEB1583B905396D158182655E1B938D07926CF007CC7E85E6709999B0D3827C0BF406BEF55C68CF5579DA3
311
2C8C85BE03EFE788787E8FEC95DC85C3E31A615658D81F9A34499612004CE69CAB12531B15A887ACA642C110F8C1A8C1974A85853F407794695C905C688E69B116550ACA946B9B4785FC179E0E229240B62665328E86D5BD2C800CF5D80289F35AC25E3DD51508F4BF9A74A0F5A557BB3D284BC6FF59312E282F956A75C5D4
311
53906F48D11A876599E49425602400842995BDF02C4D012E226658F78A710416AC552831FDDEF0E6F0BABEBEA9DC36718CCEF4DAC5A0DF871AECBDD8F448F015F8DA113A473609D1751672B723874B2CAB21ECD6E284E51DCC7D1A47A00F60EC21DC4CC3CDC406DC03760A4E6C772F2F4D561A9AE58C4B03F5B48387014721
311
39EDCB36819A66C472B52AB1139C648956F43E0DAEC067B56B0818F5961D3D446B8F1E1E78C0EAD7EE02AF2895D813E88AC5014A7B436DBB20F778D40A1D9737EFE45B47D49CC8360F9966B15AABAC802C1005548A93EE469F5D55317CD8BF0AA86CABADB2A009D4D6F60CFE53AE370AFE8C45415B15D362A5A038E766E34B
311
00F8C2E3E7098E2093B1C96349FDAEA158903B4BDAEA665F473FECE72186E3BDDCACCADA31839CD6D4FA7D47DF5469006ED340EBE71DF960DDEE88A3E17557039B58C278A1795BA8079419DA8FC5BA1BAA1A66238BF69C7B2BE4E6274839122B7D00BE8B7D52CF61B2D63216046008C8B330FC10F8907787DEF061F47965BB
311
A02FD8F53BA12F9827614979F53563D0BB1AD67A03DC0E00E2FB2CF3EFB457E70E65A3D7C78E7D700DBB45132AE9BBA5E468CD861408961AD8B00A55C2FCC677F4456039FD9F1907A5B3E2D0EE845FDBA2DAFA88C64195671AD6D282DA2E45B1F50A0D632B0D0B6718757DCC7C84A70A3656F222CDA6DBF07E204AB358961D
311
1BE31E53A82C2C0D56DBF61A5608B5A252A932A1DC6E32462430853353EA30417C8199A662E946A4EF352268B8CDB9A9C6762515ACE8E09BBC031C608A02C4BA89C9DDC074E46E0E26A17BCBD4ED43270D03E3645ADB81F6D62CC07A3243EB81C07E01681DDF2DB4730631E6DDA6CBBD048BE9F06AEB3CF06B31DD6C9575E3
311
7E9FF17161342C4C76D95519672A6509E0F5C4E71B4B1916440059F57D0921F496237E473A83E3E4E06353BD9D27593594D7B6707C08D22FEBDFBFFE03504B0304140006080800D66647508DFFFC99640100009B0300004500000032304136464446342D453044302D343842352D383830432D353641394243384236324238
311
2F536368656D61732F52656E6465724D6174657269616C536368656D612E786D6CA5535D6BC230147DDFAF08799F5FDB600FADA20EA430D968A7AF12D36B1B481349529DFF7EF9A85A718860DFDA73EFB987734EA3D16FC5D10E946652C4B8DFE9610482CA9C8922C6B5D93CBFE3D1F0291A6B0D26A3255464182D920FB423
311
3CC629881CD49C18508CF000E3EE309A100D61622AAB4A8A33B2483F11CB639C545B0E1508438C3D3C0361192846DB7ACD198DF186700D182920B914FC1063A36AFBEE8FBA03FFD3CC1D1F4FC9E151A2AF59F628C5B7821D83FDFD3489305080F2EE04BF962195FB285E9D2DD352320A9E827AE357594914E42B1F5FE35F83
311
688F60C4C91A6C946ED0668E8F244BC2EB0BA6E3BCCFC0B6A4B507F9F9F8D51EB315D9BA9E08D308E89F96931666E577837E2B4172199C68C4FE306156D47DF51C698C7B9D97FE5BEFE2190C3C38BB054E6E8163FB039CB4B993C80BF18D969203116D6BBD26238B821F9BB909AD6D9C71B85BCD8C33D66FEA3D31B4BC0AD4
311
5BEA46BBEDDFEC0F504B0304140006080800D666475087424D4D51000000570000004700000032304136464446342D453044302D343842352D383830432D3536413942433842363242382F4173736574446174612F41737365745461626C654F66436F6E74656E74732E62696E536160603034723577733472D675737473D4
311
35317236D5B574B470D13575353571743275753173341502AACB4D2C492DCA4CCC492C28484D2C4ACC4B4E050A82012F90744FCD03CA26072767A4E6260200504B0304140006080800D6664750C55C663656000000680000004500000032304136464446342D453044302D343842352D383830432D35364139424338423632
311
42382F4173736574446174612F53747265616D56657273696F6E5461626C652E696E665D8CBD0A80300C06F73E4B29FE6CDD8A2E82A083B8B7F209014925C9FBA3AEAEC7DD2555D896CB85E51C2A1BD834F6A1F56EC4494C4695278364ABB24ABD2146F88CCEBB89D5321FF8F3F43D672A3B44DF3CB6A1710F504B03041400
311
06080800D66647509167B7C537010000A20400003600000032304136464446342D453044302D343842352D383830432D3536413942433842363242382F4173736574446174612F636E782E786D6CCD94314FC3301085FF4A648931B61B158190E30AC1D209242A06B6AB7329561D3BB22F08FE3D769B0154C4D4A1EBE9BBBB
311
E727BF53ABCFC1551F18930DBE650B2E5985DE84CEFA5DCB26EAEB5B56ADB48A21D00F8C551E066C592933AD76314CE35CEAB087C995AAB37E3F17EF5342DAC0D6E153FF103CA1A7C42AE320A59625F38E037098287498F6BC0302BEE0115398A2C13C89EC80F3241311083BA61BD9C85A36B5BCD92C9ABBEBE5DD72F9A644
311
21B5DA86E066DEE665318C578D34C7BD4C4B250AA0D514ED4C95D730FD974ABEB55E894C6A95286657E60EFA1A73078CA3B306289B278221A43A4308831247582B515CF8E5C523F6D6DBD2B2CED280427CCE023192C50BF4E43FB5E7F766ED13813778C98E9C6A3CBF0F2F875FF47A8CE52137979796538DDCFAFE0C591187
311
7392A353AE8BFE06504B0304140006080800D6664750CF3E21D0E7000000600100006700000032304136464446342D453044302D343842352D383830432D3536413942433842363242382F5265736F75726365732F31324537464132432D464146412D343243352D394138442D3545353441423545443641352F7468756D62
311
6E61696C2F302F636E782E786D6C4D90C16EC4200C447F2542EA3181445BB55A39EC4FECA9978A126F8A966004A66AFFBED072D8D358E327CB3370F93EFCF085293B0AAB982725060C963617F65514BE8DAF62B8684844FC808921980357D16CA1614F5462B736BC99E29BEB5DB87773C780C9D9F7187631586F725E45B69F
311
7898C914A60DF37DDA0C9B699E12662AC9623DC0EEC07EC026348C9BD08B5AD4A89651BD5CE7E5FC7C3A9F4E6F201BA9E183C877DE05C644F1695196EA18EA3F0A64033494E43AD54208FDF01CC8BAD49039D5FC1DE29F582113A377D670AD499265E4B142680E90FFB006D9F256F92BA36AEB46FF02504B03041400060808
311
00D6664750A233C2345D000000800000006500000032304136464446342D453044302D343842352D383830432D3536413942433842363242382F5265736F75726365732F31324537464132432D464146412D343243352D394138442D3545353441423545443641352F7468756D626E61696C2F636E782E786D6C4D8B490E80
311
201004BF42E6EE76F3C0F216234B883063108CCF170C074F95AE5473F5C4C06E932E4F28601967600677D21E9D8092EDB002539227A2FCCB80E1168D80A6417297A89C5D6963B7129A0D1E8F2EE73AA7B62BBEB8B27DE50B504B0304140006080800D6664750BE89762363000000880000005B00000032304136464446342D
311
453044302D343842352D383830432D3536413942433842363242382F5265736F75726365732F31324537464132432D464146412D343243352D394138442D3545353441423545443641352F636E782E786D6C4DCC3B0E80201004D0AB90EDFD75167CCE820A4A845D83603CBE602CAC26799919AEEEE0D965E2E908050C6D0F
311
CCE04C8BC355404EB6198129C92351FAD580A10E464065907C8D948F8F166375F655BDC3FDC3B4E530A176BE7057BDC43B2A593FE403504B0304140006080800D6664750F7A92AF37F000000A30000003600000032304136464446342D453044302D343842352D383830432D3536413942433842363242382F5265736F7572
311
6365732F636E782E786D6C4D8CD10E822018465F85FDF7543229DB00F7A7F01E2ED1B9101A49EBF183E64557DF76F69D23DACFEAC8DBC6D712BC84EA700262FD3D8C8B9F25A46DA20D90568918C2F67703E287D54A281894986348CF1D8D761A922BD42DFEB1C38AE98B41D651830669CD3A4EAFD8F4946B5EE38DEBFE8C3C
311
1BC7A2E4F9F5F296BCFA02504B0304140006080800D6664750223597480B010000550300003400000032304136464446342D453044302D343842352D383830432D3536413942433842363242382F536368656D61732F636E782E786D6CCD93BD4E042114855F65426239033319A3D9306C616165A35676087777C90277C28F
311
D1B717568ADDC44E8BEDE0E4CBCD39072EDF7E3ADB7D408806FD42C681910EBC426DFC7E2139EDFA7BD26D050F88E90C239D970E16526522F83E605E9BA46127B3ADAA35FED8C407740EFD8B3A8093A45356C6B89078BA0E3227D4108F8396490EE31020620E0ACA84641CB4092A804CA08998D8C47A36F5ECEE759C36B7F3
311
669EDF38ADA4E0EF88B6F1C62708B8DE4C4C6139FA6288715A01C173308DAA2988387737943E382D84E03185D24223D3D75A48B9AED628994A59F404FE3082D31AF622F2237808465D6BE60B7BFF16FA19BC86F0545E2A1869AF35FB6F2EFF56013D6D40F9067521C437504B0304140006080800D6664750E3603EBE7A0000
311
00C20000002C00000032304136464446342D453044302D343842352D383830432D3536413942433842363242382F636E782E786D6C6DCD410EC2201085E1AB90D9DBEACE05D09878023D01A1D34A8419C380F1F82DA68B9AB8FDFEC93C3D7C52546FCC12980C9CBA232824CF63A0D9402DD3E10C6AB03A3397DD192872090D
311
3406ABE7CCF5B5D18893ABB1690CF4DCF02282E5EA8A5BB96FFE536F285CB347F95BEFFE81C9ED5AFF9D5B1FB575BB00504B0304140006080800D6664750A45C79D67E000000A300000007000000636E782E786D6C4D8CD10A832018465F45FE7B371725FF408DACF51EB12C64A6C3E5D8E34F4717BBFAE0F09D23DACFE6C8
311
DBC4970D5EC2E5C480187F0FB3F5AB84B42F1481B44AC410F6BF1B103F6D4642C1A0C41A437A1E6836CB945CA1CEFAC7012BD6F171186B7A6303A335EA8622B29E36BCBBEA1E35AF3466E35C943CBF5EDE92575F504B0304140006080800D6664750CA1DF9C9A900000073010000130000005B436F6E74656E745F54797065
311
735D2E786D6CA590410EC2300C04BF12E5DEBA70400835E500FC800F84E0B411AD13252E2ABF27A55740421CEDDDD9B55CEFA7A117778CC979527255565220197F75D42A39B22DB652EC9BFAFC089844F65252B2630E3B80643A1C742A7D40CA8AF571D09CC7D842D0E6A65B8475556DC07862242E78CE904D7D44ABC79EC5
311
69CAEBA537E3521C16DF5CA5A40EA17746733E0B6615DE7217475F386F18B9481C510F1F021CD9FF027EA0E1F5C4E609504B0304140006080800D66647503DEE336E64000000790000001B0000006175746F6465736B2D64657369676E2D7061636B6167652E786D6C35CBC10E83200C00D05F21DCA56CA76D41FC96062B12
311
0735B69A7DBE268BB7777961F8D5AF396893C2ADB70FE7ADA196782C2DF776D7A97B5933C430F15651E5469C55D70F80A4992A3ADC954792C525AE70A1E4D6AD9816CC044FEFDF01FE3FDE907802504B0304140006080800D66647502AEB7AA1F8000000960100003700000032304136464446342D453044302D343842352D
311
383830432D3536413942433842363242382F4173736574446174612F636F72652E786D6C8550CB6E833010FC15B47783718040641CA50D7FD0536F96ED502BC1467E54FDFCDA814AEDA9A75DCDCECCEE0E3D7F2D8FE25339AFAD19A12E3114CA082BB5994788E1867A28CE8C3A6BC32F1A14862F6A840C03A3B3B371DD2161
311
4D5026A3C64AB583DC7B15A0108FD48CE0C5875A78C963480C7F2F572EEE7C56655D6E3C4663D472976A99DCF44D2B070C93E1B59BA60322754B50D3763D1A5E9A1E75B86BC971BAB4C3B5A75516331AF4F2B35D38C58392C00826186182F0F1AD26A7B63935CD3BAD3293511F5CFA795F9ABF0376C9575F79E0B4DAA67F5C
311
E32AFF778DDA8403D95D37850756A7239F0346AB9C522ACF0853CD89B26F504B0304140006080800D66647507BBD9B3CF20000008E0100006800000032304136464446342D453044302D343842352D383830432D3536413942433842363242382F5265736F75726365732F31324537464132432D464146412D343243352D39
311
4138442D3545353441423545443641352F7468756D626E61696C2F302F636F72652E786D6C8550CB6EC32010FC156BEFD898D88E1D61A2A6F51FF4D41B02E2A2C460F188FAF985D895DA534F8B8679EC0E3D7F2DF7E2A19CD7D68C5097180A658495DACC23C470453D1467469DB5E1170D0AC31735428681D1D9D9B8EE90B0
311
2628935163A5DA41EEBD0A50887B7A8CE0C5A75A78C963480C7F2B572E6E7C56655D6E3C4663D472976A99DCF4552B070C93E1B59BA60322754B50D3763D1A2E4D8F3ADCB5E438BDB4C35B4FAB2C6634E8E5275D38C58392C00826186182F0F1BD26A7B63935CD07AD3293511F5CBA790FCDD7A5385A6DE81FB7B8CAFFDDA2
311
36E14076B74DE181D569B9E707A3556E278D677569E626D937504B0304140006080800D66647504A254BA3F9000000960100006600000032304136464446342D453044302D343842352D383830432D3536413942433842363242382F5265736F75726365732F31324537464132432D464146412D343243352D394138442D35
311
45353441423545443641352F7468756D626E61696C2F636F72652E786D6C8550CB6E833010FC15B47783718090C838EA833FE8A937D7768815B0911F553FBF76A0527BEA6957B333B3BB432F5FCB5C7C2AE7B53503D42586421961A536D300315C510FC58551676DF84583C2F0450D906160747236AE3B24AC09CA64D458A9
311
76907BAF0214624ECD005EDCD4C24B1E4362F87BB97271E7932AEB72E3311AA396BB54CBE4A6AF5A3960989C5EBA713C2052B704356DD7A3D373D3A30E772D398E4FEDE9B5A75516331AF4F2B35D38C58392C00826186182F0F1AD26E7B63937CD3BAD3293511F5CFA795F9ABF03166E71F9305CCFB4DAA67F5CE32AFF778D
311
DA8403D95D37850756A7231F0346AB9C522A8F0853CD89B26F504B0304140006080800D66647504FB52DCE0E010000B10100005C00000032304136464446342D453044302D343842352D383830432D3536413942433842363242382F5265736F75726365732F31324537464132432D464146412D343243352D394138442D35
311
45353441423545443641352F636F72652E786D6C85904D6EC3201484AF62B1C7C6041C3BC24424B14FD05577C8262E4A0C113F558F5F485CA95D75F5D030C3C71B76FC5AEFC5A7725E5BD383BA44A05066B2B3364B0F62B8C2161447CE9CB5E1970D1446AEAA0759069C2DCEC6C7264DD60465B26AECAC36517AAF0228A67B
311
3AF4C04F1F6A95A58C2139FCAD7CC8E9261755D6E5CBC7598C7ADEA27A4EAFE9AB560E7084BB73330C3B886B8A21A14D0BBB136961831A8AF783A0DDA565550E7316F4FA439F9C9241CD806384114418A2FD5B8D0F941C087967557672E6834B3B6FD0BC1DE0351EF6A3C067388A514082CF1476A2BD403A50224E74B83482
311
B2EA15FC038C8FF97F60D426ECF0067C257C62A6FF3F2F38AB7281693CDB4D3397CDBF01504B0304140006080800D6664750BEB71DFCFA000000960100003700000032304136464446342D453044302D343842352D383830432D3536413942433842363242382F5265736F75726365732F636F72652E786D6C8550CB6E8330
311
10FC15B47783718040641CF5C10F543DF566990DB112ECC88FAA9F5F3BA1527BEA6957B333B3BBC38F5FEBB5F844E7B53523D42585028DB2B336CB08319C480FC55170676DF84583C2C81547C83008BE381B6F1BA4AC0968326AEC8C1B28BDC70085BAA66604AFCEB8CA52C69018FE52DEA4BAC805CBBA7CF0048F51CF9B54
311
CFC94D9F343A10940D2FDD34ED08AB5B469AB6EBC9F0DCF4A4A35DCBF6D3533BBCF6BCCA62C1835E7FB62B8732E00C825146096584EEDF6B76689B43D37CF02A3305F7C1A59FB7A5F93B106FE86D740A3DAF1ED33FAEF136FFEF1AB5093BB6B93E141E449D8EBC0F04AF724AA9DC234C35272ABE01504B0304140006080800
311
D6664750A1694482F7000000940100003500000032304136464446342D453044302D343842352D383830432D3536413942433842363242382F536368656D61732F636F72652E786D6C8550CB6E833010FC15B47783718090C838EA832F684FBD59B643AC041BF951F5F36B0395DA534FBB9A9D99DD1D7AF99A1FC5A7725E5B
311
33405D62289411566A330D10C315F5505C1875D6865F34280C9FD5001906462767E3B243C29AA04C468D956A07B9F72A40211EA919C08B9B9A79C963480C7F2F172EEE7C52655D6E3C4663D472976A99DCF4552B070C93D34B378E0744EA96A0A6ED7A747A6E7AD4E1AE25C7F1A93DBDF6B4CA6246839E7FB60BA778501218
311
C104234C103EBED7E4DC36E7A6F9A0556632EA834B3FEF4BF377C0DED63B3DADB6D91FCFB8C8FF3DA336E14076CF4DE181D5E9C475C06895334A650D30D59C27FB06504B0304140006080800D66647508CEC582A01010000D80100002D00000032304136464446342D453044302D343842352D383830432D35364139424338
311
42363242382F636F72652E786D6C9551C152C32014FC95CCBB93109AD4D821749AD67E81276F185E53A60D6402387EBE60E2A8373DC12CBBFBD87D7CFF3EDEB3379C9DB6A68532A790A1E9ADD2666821F80B6920DB0B3E5BEB7FD0203372C416120C820FB30DD30AF5D67834093556E10A4AE7D043D6DFE3A505D75F7194B9
311
0C3E32DC2D9F647F9303E665BEF004F77AFC92F6334A8F0A04A38C12CA087D782ED9AEAE7655F5C28BC4143C68E3376C1D86E32BAACC4E3E4602516F78B13C475AD06A2569153FA92F1AE7E47CD89E4FE78A3CD1132555D3D5A469E891D4DBC363776CBA2DEB9A6812C5823B3FC76A569354C25FE58BF057B430A97F465B14
311
0E44F91DAA483D0B5E7C2E219E6927E203504B0304140006080800D666475058CED39D06010000B201000008000000636F72652E786D6C8D504B6EC32014BC0A628F8D89EDD81126EAC737E8AA3B0AC441B1C1021CB5B72FC4546A775D3D3433EFCD30F4FCB9CCE0AE9CD7D60CB02A3004CA082BB59906B8850BEA203833EA
311
AC0DBF641018BEA8012618323A39BBAD1912D60465126AAC5419E4DEAB008198E363805E5CD5C20BBE85A8F0B762E5E2C6275554C5AE6334E8E5675538C5839290114C30C204E1E35B454E4D7DAAEB775A2625A3DBA665B6D232BAEB8B560E324CFA97761C0F88540D4175D376A87FAE3BD4E2B621C7F1A9E95F3B5AA66546
311
7D70F1CFF948CC1980E7F7E44BCB9D62F4C3DA390B622809AC99BFA2092D13F127F4B6CA7F84D6261C483EB86F78C8AA18E84144E3D4601C8F7AE34C6DB36F504B01021400140006080800D6664750DDC57F2B10010000A80100004F000000000000000000000000000000000032304136464446342D453044302D34384235
311
2D383830432D3536413942433842363242382F4173736574446174612F446566696E6974696F6E4974657261746F7250726F706572746965732E62696E504B01021400140006080800D6664750DFD4CAAA1C0100003002000045000000000000000000000000007D01000032304136464446342D453044302D343842352D38
311
3830432D3536413942433842363242382F4173736574446174612F496E7374616E636550726F706572746965732E62696E504B01021400140006080800D666475088E57597CD3F0000904100006B00000000000000000000000000FC02000032304136464446342D453044302D343842352D383830432D3536413942433842
311
363242382F5265736F75726365732F31324537464132432D464146412D343243352D394138442D3545353441423545443641352F7468756D626E61696C2F302F67656E657269635F706E67504B01021400140006080800D666475028BB58AF800100009E0500003D0000000000000000000000000052430000323041364644
311
46342D453044302D343842352D383830432D3536413942433842363242382F536368656D61732F436F6D6D6F6E536368656D612E786D6C504B01021400140006080800D6664750E336299B9F040000341300003E000000000000000000000000002D45000032304136464446342D453044302D343842352D383830432D3536
311
413942433842363242382F536368656D61732F47656E65726963536368656D612E786D6C504B01021400140006080800D66647508DFFFC99640100009B0300004500000000000000000000000000284A000032304136464446342D453044302D343842352D383830432D3536413942433842363242382F536368656D61732F
311
52656E6465724D6174657269616C536368656D612E786D6C504B01021400140006080800D666475087424D4D51000000570000004700000000000000000000000000EF4B000032304136464446342D453044302D343842352D383830432D3536413942433842363242382F4173736574446174612F41737365745461626C65
311
4F66436F6E74656E74732E62696E504B01021400140006080800D6664750C55C663656000000680000004500000000000000000000000000A54C000032304136464446342D453044302D343842352D383830432D3536413942433842363242382F4173736574446174612F53747265616D56657273696F6E5461626C652E69
311
6E66504B01021400140006080800D66647509167B7C537010000A204000036000000000000000000000000005E4D000032304136464446342D453044302D343842352D383830432D3536413942433842363242382F4173736574446174612F636E782E786D6C504B01021400140006080800D6664750CF3E21D0E700000060
311
0100006700000000000000000000000000E94E000032304136464446342D453044302D343842352D383830432D3536413942433842363242382F5265736F75726365732F31324537464132432D464146412D343243352D394138442D3545353441423545443641352F7468756D626E61696C2F302F636E782E786D6C504B01
311
021400140006080800D6664750A233C2345D0000008000000065000000000000000000000000005550000032304136464446342D453044302D343842352D383830432D3536413942433842363242382F5265736F75726365732F31324537464132432D464146412D343243352D394138442D3545353441423545443641352F
311
7468756D626E61696C2F636E782E786D6C504B01021400140006080800D6664750BE89762363000000880000005B000000000000000000000000003551000032304136464446342D453044302D343842352D383830432D3536413942433842363242382F5265736F75726365732F31324537464132432D464146412D343243
311
352D394138442D3545353441423545443641352F636E782E786D6C504B01021400140006080800D6664750F7A92AF37F000000A300000036000000000000000000000000001152000032304136464446342D453044302D343842352D383830432D3536413942433842363242382F5265736F75726365732F636E782E786D6C
311
504B01021400140006080800D6664750223597480B010000550300003400000000000000000000000000E452000032304136464446342D453044302D343842352D383830432D3536413942433842363242382F536368656D61732F636E782E786D6C504B01021400140006080800D6664750E3603EBE7A000000C20000002C
311
000000000000000000000000004154000032304136464446342D453044302D343842352D383830432D3536413942433842363242382F636E782E786D6C504B01021400140006080800D6664750A45C79D67E000000A3000000070000000000000000000000000005550000636E782E786D6C504B01021400140006080800D6
311
664750CA1DF9C9A9000000730100001300000000000000000000000000A85500005B436F6E74656E745F54797065735D2E786D6C504B01021400140006080800D66647503DEE336E64000000790000001B00000000000000000000000000825600006175746F6465736B2D64657369676E2D7061636B6167652E786D6C504B
311
01021400140006080800D66647502AEB7AA1F80000009601000037000000000000000000000000001F57000032304136464446342D453044302D343842352D383830432D3536413942433842363242382F4173736574446174612F636F72652E786D6C504B01021400140006080800D66647507BBD9B3CF20000008E010000
311
68000000000000000000000000006C58000032304136464446342D453044302D343842352D383830432D3536413942433842363242382F5265736F75726365732F31324537464132432D464146412D343243352D394138442D3545353441423545443641352F7468756D626E61696C2F302F636F72652E786D6C504B010214
311
00140006080800D66647504A254BA3F9000000960100006600000000000000000000000000E459000032304136464446342D453044302D343842352D383830432D3536413942433842363242382F5265736F75726365732F31324537464132432D464146412D343243352D394138442D3545353441423545443641352F7468
311
756D626E61696C2F636F72652E786D6C504B01021400140006080800D66647504FB52DCE0E010000B10100005C00000000000000000000000000615B000032304136464446342D453044302D343842352D383830432D3536413942433842363242382F5265736F75726365732F31324537464132432D464146412D34324335
311
2D394138442D3545353441423545443641352F636F72652E786D6C504B01021400140006080800D6664750BEB71DFCFA000000960100003700000000000000000000000000E95C000032304136464446342D453044302D343842352D383830432D3536413942433842363242382F5265736F75726365732F636F72652E786D
311
6C504B01021400140006080800D6664750A1694482F7000000940100003500000000000000000000000000385E000032304136464446342D453044302D343842352D383830432D3536413942433842363242382F536368656D61732F636F72652E786D6C504B01021400140006080800D66647508CEC582A01010000D80100
311
002D00000000000000000000000000825F000032304136464446342D453044302D343842352D383830432D3536413942433842363242382F636F72652E786D6C504B01021400140006080800D666475058CED39D06010000B20100000800000000000000000000000000CE600000636F72652E786D6C504B0506000000001A
311
001A00210B0000FA6100000000
310
504B0304140006080800D6664750000000000000000000000000370000006662782F39443831464343452D453544302D343331392D424131312D4138393630343831424337452F617474726962757465732E62696E504B0304140006080800D6664750000000000000000000000000350000006662782F3944383146434345
310
2D453544302D343331392D424131312D4138393630343831424337452F76657274696365732E62696E504B0304140006080800D6664750F270F1330600000004000000360000006662782F39443831464343452D453544302D343331392D424131312D4138393630343831424337452F747269616E676C65732E62696E6366
310
60600000504B0304140006080800D666475088E57597CD3F000090410000420000006662782F39443831464343452D453544302D343331392D424131312D4138393630343831424337452F7265736F75726365732F322F305F67656E657269632E706E67355B773CD4FF1FBF73E71C0E67EF7576C9DEF3EC995D46C6A1EC50
310
46649CBDF79E192942562825CE965D8A868C2842C8DE9FDFD1F7E7F138F7078FCF6B3F5FCFD7EBFDFEC41B196891913091804020321D6D7513FC77D8C5070EC3FFEE51B21F068154CC75D455CC028A3EA68992803810109FDDE5D5CEC5521B28A1B422BF80741695D5B529DA1C2D058AD2388BDA9F476F7C2CADC939304173
310
DBF48A452BF8A700C0C70C3D121C1AA15A5270C22E2B9E28763651F7DA0D12CE11077B2ECD0D560B5E3DE2368B1E65C5E1C87384A4CC5F2D9FB8BE39E9B77C753783A37998F5CEF1B4FEE553463245C9712270880DF339E0B882A6BA713D865F6F384C842D440934EF264F4A304F8DE4EEFA1E2BF5E2D91F5ADD9613D6E31D
310
DB33ED31DB1D7916CAF091286EA3D31B9CFECB78BB0060245B943C4C040119FF780A74DD308BA9D028678674EB5504ECF284EE814DAED07440BAF649BE4B55DA2890F4D73E2D489A59EE54FDB0A85B59F2F52C4858A02705C4815A792B0C4A996A2023ECB195073E115E3E3647F64243A8338F2000BCB58DA5692C7E7C3D41
310
3F963FEDF3CF00FBB0F831A9D51360FECA43819F527B89FA260EB63C5DA676830AA3626A3693B23F1A17A0DFFCE3EE164E31B5365EDF0C89EF64D8E38AB0BA9A1117D7C3A0EC44F44F4023095E80BA610DE336D0F99593A88BFC5306E72DF98F7FD132ED95878DF2964EA7E43071359FD83B2BDF9C6B5BDF768F0F3C0FC351
310
199526F53D9460A34511F75D1B63E488178569472C91A94497807A3FD4A390C6558F26D416365C3656DE6E769DA9D8FC73774E1709812842DD8EF96AED1960F79D21B395CDDFE6F92CB4EB962A4668C76990E2EF29798C8941D67DA50F4A5F947872460F1F6FDB794E8A29FD7AC0C0D6E0714339CE258FB17AE8535221E346
310
4A10F29A0BE5EEECEFC5675926A89F49EB14E5711894F6586DB5754EB4D5DA9C6437EBA57DB97A24F8B8A8DB295FFD73266CF57E82694DF5166DDF93573AFE9C9C5EB05F8FEF8E89E0A8917B0B3724DB7BEBB53252581EFC3E38166BA131A3A5B42FE2AD00A769BBFA4458D2DE7822F8C4F63D0B8E21B285AE13325F3410A4
310
35C648C9D91FDEB109E73CEDA7BC796961AF79175E1A3CE4C5E8B0D009B0C9E29EFD98BC8E97554E3D8D838424E270F7685226E5AC268E021EDE3522D583E8F20C0BDE2959EF5BBFEEDAB32FE9A3ED0E39F211A86AA9DEBFC68182EDED132AB8BB794442D2D7EA9F4D8BFF52BC4D55BB165124EE90A42D101E67BBBB292FFB
310
4F66DE5BF2300E44546757DA7CEF8932BFC9F92A0707953491A55C5A5ACEDABD9FA1AEA01BAC3DC5A24E22E7C47213493996EFBC369D086ED9397C9BA6C7F9855C7BD5E15BFC8C53DB3D2A4C5901A57ACD2FBDF4D1676E95338B2C2BCE65FDA4C64F5FEFDC7D9CA5AA1FCF11E193F2FDABF0F4916BF13FB916A224380E6462
310
A9815F2300DC49CC4DF8D055CEF76462F4B7A7ACA7365C2707891370BC1D0AA6203C44CCAB47084FEC057F27FFCD57F89B8B9852459798A675C66BD7CE572CAF71FF7E6D7ECF7BF62CAB7B3F1107DCD04DC55A3F9961700286141C94A4F771FEB2BCDA2DDEE0CB0BAE402FF1DB0100F8E475DFFFC074DDB4498AB7D186A765
310
4DDB1CB680D703D47CEB4E72F8CB13D86A4AA68116E26387B93FD6738779B34FEDB8E517EDF2BAF28D9BE93A1D3A164320E07D42E514725C29515FF361754213EDE06B079A2E99EB1CA82A02019EADEEB87B9AF005BD04BBCECB14AACD6B24EFBE482194A97DD32400685FF1FEF1544D1B14EFB1E7F08E6D2CD2AF52DE757F
310
35F5E62332EE88EA26417AD5C3E0E319D68F25414E6D672BD4522B278C57D18F0113921C71D96527E091F00CEB15AE23D24667369BD3CEFA10C7549D930890BA4366F4EBC55F01F746109F98ABCDD5A3EE06619C6AD78AB33E48E4C9BD21BF7478B385EC05C4F8987E2C1BFA0A60EBEDAA0AE0B015C2720ECE180FB6F2DEFB
310
EB822D96338C9B63822183BBF52FB664A7AE57003AABCE512BF77E7E31BDA2E739AC4C131657DDFE5225E900FB56CC01CDE808FA4A9C9DA16AC679656BB64796283D89812B8F91136AE18EE5EBBAF47A73BE3C153EB5D4CD491B4BFB4FE690A4CF9ABA08C0D8AA64220C438C96EA6CA80B58FE5761E697B3A292EB9FBDA502
310
FA863E49FE694ADDFFF9D62C520BDD1A22014147A0903A05B9B729F54272EF83931FEEC057BFF8C8055C279EAC5C0011804828734024F6CFA319C9CC6867C727184465CD9BB7ED386AFFD96B294A85E3802FAE47244602D8273615952B98C4F23F7EAE4463D9D638EEE374A20959E0FE519C4CFB0FBFE5DD80C2AA3F9DB961
310
D1BDE57E67C9BB47B77FDD74EE3094F5DBBE3EBC1FBDB7393F5116263009E2EFE1AF9A221B2AE234C902BF70E9F280ED23E73908361565964333A3F01D0B006AF32FB21AA1316744B489D5A198E85299241735BE559675130955C902A8ED761FC0DBE337A9F91919AF5CE32AF902ADF9AB2615E00E8A94586BA1A90839B618
310
32FF1BFB76D2EFADE6DB1BA04CCAD3DA649E7E2A0219F592E22F2AD54847EEA8E42271011E9074F8F3DD9FBA6CDF88FFC9FC7E811AD1CA8F4557CE4AFC7BBEDCF0114A48689F20A584520C74DA8127124B767E2FB91A6B186246727BE63C9445BAE02088D58B8EFDC0F1072407CD9B89A13F6303B4A928F593AD489B58E686
310
9325790ADC406036C591729FE14021F94B7796BB11848D463536A092A26F077F94639F7CEEE2A724C66EC885F4A24F8B8A0AC321F8FD149BA529460FAA34E4663C02D41FDF80BCA222D42F0ABFF8490F4FA74C673807C2051D8E467B47B616072860069A9A303ABA9B319D58404461401B0A0F9BE5E1E151C14BC33B32ABE0
310
3DDE91708DFAEB15E7C0D593C86BB7D7EC17BE56E57975F077BFD5525F3A1A361D584A75E08CF29FC7B44B2B3085014F3A5A14517377C3F6B8F37E59514C3B12F8AACDEDDA4DFC49BE5710101534CD6FB6DE15B50F11A09472AABA727F0C49D9CB906B158030065F48EB3625E010CEC1D511D0053474B11E6A4F01C0D6EF1B
310
ED3A944FDEC70E0DDCDC756C86545910E0DAE3BE3AA9A404574C2995CD5CAF9549226BC94B4F4F0F5F9086F418F6B32346464610D8BC7391D3C3A3CCF04CFC1FB2A3A3170E369511868F14EEA4E5E438CC73DB1F3248AA94B6B2FF33B222FF3D1E7BF146CAD229770158063BCE4F5391964DF62F7E52A7BE0EEA829C9E13C4
310
C147D6F93FE59E111DAB5E4594D6F3CD1AD375EE039930EFE5AF2BB2D41C83C7DABD8C659BAFBE8FAB392CA634F3D15C1D945DB4588D2B0824A4EC928AAC565557CA2F0DAA588CA5BE30B3A8004F7BF005E96CBF891D7F18112A3619FDF530DC8AA64954258E1811789B5189B49B4EB53F5F89F7D37523894F3EB57B373763
310
C91E502F52CC99EB7BDDF933FC324C4FFC2561DFFA7339FAFDD0A4BFBE6D3A8FF9ED1FC49898139864602458968913181918F719CCF5A68B2EE9C1FF050E34E63107003B8120FA982C21B30A874E4F5E4B38D5A8290C4B8D9BE48A0BE31EA995BDC37AC6DE90BA17D259DEF53605D55922FEB1855D915B659FBEB350EE0DFB
310
2F9F766E1C84CC8964B75D08667445EAB966015F63A18A9E0A325C1B3DC628C0D3CB60F767FA93CC65F25458BD23C3B312716E5F40E5858AC06EBA9AB14F95DB99147B832069201541D09A0D856E12C629CF32683760EE855537D1901988D5EBC156676C7DD51D7207CF3267AF1D76C2AD867315E44618015313A98B19941C
310
696FED3461CAA9B5415F918556D7802EDACEFD6B2E45853A9735DFC9DBF7E440F9319F8B6805A973BCCDC76C069A9144E51F187EDCC12FC31B5DEAAF0A76137199B106EC84ADA6B6EE697D4E6A96E007417F4E880E8B1E89B4BCE9D81EF611E2ED8F0C1A6C25F620FAFAAB656A7C42D464880E8AFAB0E0FC8EA38CA9A8AEEA
310
EE3E4648BA4680270A89743CDD3E6C6CBF34B7B640EFA285ABC7EA0A1E28F3CC963D114A80123EE66D0AF7D5380EB41909B605AB4765B709B808590458157E69BA1378FEC4B48CAF6A730E3BE3C5EF2DD1A5EAF94B1DDE50CEB55DDFD7EE9A16747FA4B223359FB1FCC69E1194892BABB93A1D5C4E807AC0EA2E30180811E7
310
7A2291F6E7F7FAA5E0F60215BC6024E48DE436C511F0628B8CA189982D4D83CCA17D305A7E923C37941CFDFDCD93ACAF735EF5F0E61BBD3E6C41A59B242790D3A3BAC7064DCD89AA2E37214EC839820949D5CAA31E240D2948E48F690298974A96BA9A8432BC90F5071D6537C9666EA4564796B7AFFFA548077BEEA75F6308
310
3435074BA182F3699557397F71548383FDA8CA34D99B981E72835ECDA5DDDC151315173D05A21F651AAF8524E88209E2E7A737ED1045800CE3390050BCFB8BE588DF111617874C62575039CA588EEFDEFEFE319B739DE2EDC147092A262611E159650E787917885EF08F1F51B8F2D8A71D60B58B190FEF9541A1BE94BC19FE
310
A50784DA1419FE4B0FB51B8D36B5FF8E1286FD8AF42B91E59A5F1CC4D60174E764045FD8C57B18209B217F89A62252BD20BE0E63E12B8E8F029FE19E0E8D0870F58721A557082250D5424F7909369376E41666C0EE77CD87CB283F661D5FB6D0DA023CB67320A20DC7BE661E9E1BFE5463085C557DA1FF9BE835733766C3D1
310
39F2CF9E2208873AD0EB4814DE9E6BF2CAF81614D4D43906ED1C05A3265CABBFE192770FC2F64F940CB6B17B5F166F133C9AEEAD2641807C3E69515171DD74C4A85311513D6EC9530B3B601B6BA3EBFF3B5C3D2F7D69765141E345F75433953D013ADDF8F6AA7DC3F4A7563FE5C7D367937E2900D7EAD0F9FC9A4A1A9B5BDF
310
1FEF08532660C01C5D6DE22199AA774383E306DAB87E301ABB7D213887F9869D4942D0D71E94B27EDF216A318BD488D45DF84529EF575AF3C3938C0AAA0215B01994153E2054A0B894DA5C784980633AAD48576957CF4AEAEAFADC7C587368551C73DBE1E57C58AC713303A8BFC258BD04B51724459FF9E24C03A81E0E0679
310
CEB9B348C0DC998FEB9C6D6EFA77D247CC8F92D3848599ED89A23218D0636465AD1CEEB7DC140D7426F83491C4E8E8281C2FB35240918FFECE880CA2A42D70E8B20B34DF5221C7DB0CF90ECCB9C745B37A47E9B716FF7A97B7A252C1F3814DC7B1E1A7F72B8751D524EF7CAE45B0C73B3BE7D08ED39781B380DDFC9AA4A474
310
9C9493DB5BAD07A6EA6C092FBD0E85DB004DF06B8C9D3089C5320187E4CE1846158C7EA7DDAE8AD9AFFF21AA3A1026BB06A259845E8232DEE62811A4DA9CEAB3A4887320B76E2AE5615EAB7BDF738CBDD01F1E64064BC13D9EC53576751CA8CACD58B3CEB0E6CA585BD089B2A59B9FC101403387AADBDBE70586B93D64BF3A
310
D4453EF9C3B6A93817E8346991798601344F79A83C51F3D50F7BF2683A3605F51A72449489E0EE6169C749C60B1035651103AEE24D24E51A759C840DD3FC6504DA6FE107510E447B43461C79D22970B75DE5E1BD3007D1AFC619A4A4A69B5626AF5E9B8374E20677F77E2F8E73DF868E8BEC7EBA7B6A75EEF7205E1AB9486C
310
B642741D6E03FF13FCCEDB1C4AC129886268B01CDF4B124AF797CF784F3C6DEC97A17D4B558070A0F1C04DA4FF9BDBF34159AEFE958479824B3F58EBD1E19088A2AFDE501B6F2052368A3FD0E650A179EFAB1561E1D27527077136E652676C3670F42DCB3352F48F6BC86D2C3B0051727E41A0A4DC6CE2BE9D47F5CAA2935A
310
3C0539AF080665997194ABECD723B08129CC5B6B21D2E7D54CD4D12610E7E9FB8306771A89576C7A982002775ED44F3F744CF21EEBB27A631671D921938AAEE3EB0D19CD1E083727F607823E817BF599DCED5394E37EEBC2E88782E638920CA641EF74D4CDFCDEF06F4278ECB18E31E7E9876F2D783C8BF429C75395F57E98
310
C2B495A3DA077EB3AC3C158608B6B57FE3EA48484D9A480096FCEE0DE880950E7E5A5714131C5C41AAA29FD19AE81AC145FA1B9E85C7169A5AB837B213493DF7E9AA4B5FBF9CDEB36EBD21EF1181B7CF7366AB2A951D01E37AF4EB835D1BE8C117CFBE7625D2EBCDB0B20C5A4B45CED0BCDE3EE8DA9DA78C2E21DEAAFFD119
310
7E463C33CC6A80FB785669B856EFF7A8CCCA2841B5A5369173320B1170C368B2748D81062EA0296E5E2D95D7667A4A46D98A6FF475C76AAB0A8C8D45E226FAFC9FE0133EA9F60111F99CA81ACE03A1D14C89E8B0D69079C91464FA1D99E651D0EAF606F345C42A8A1AA9BA391031582B96D5B4176A77AADB01F12FD298A75D
310
EEBB2C82F0B8650E880722F8DDD90C56A7A058E5FDEF1AC93545BA27367C76F5D8F9690CB6F8DAE141EDD7971F0FB548A2AE435F224D6E5954CA155512F7332029D5A1230854B79F258EC5FFDB09F5F6343A8EB193229B7F7E79B3E48F8E183860B38C8269D1B53738FF1E0BACF6AADA6D4869E9DE708E79B5DADCC09B1BC7
310
6F649731CFAF59A83FD8BAE4C749D66FA87A3810D4D62FFE826FA400C0F325D2BC0F3CA35F5847B82A2ACC7961745C823E4D863D54460AF792CE6F79B5C7A33B25C3AEA6CDE15A919B6367D781E9D44F61BF828672594A3E1D9EDD6DF179A81F27EAC05B936575D73E05C209DDD2115CFB705DF9BBF3C911589B3640735E9E
310
618FC9C36A7326C82B2205E244C55D56FDB9D5DC93CE958D4BF8174D2B3DA54CB3C09F2C2A6DFF73D23B2197355761AD421EC581284A7EF8DE2CE3497C0C804D49B41DFD6A7360844E5BEFFB495CFCDB97A4595911CDBA623274CE852B5E278AF0BEB1770E9D37CD977B2766A7DED0E94B840E1E95E8C77DE5CB6354AF7871
310
427C28ADBEEF7BA0A28E19DE9ACD75F379FE373EAE6DDDAE3834692F9C2B03B4FCA8FCA9ABE8EEEBEBB725B88A7C90941E850682CA04061A7DF0CE82ED49BFAFFD42C309818FAE14755CAAE78B0F73243ECCCAD7DF58FCB9CDFAE7A4D3E6671A613639130D056C8383C8F4FCF4808C331E544DD26E4755D09EA05253B3049A
310
1E32587CC25D72E073E2CD96D04A71BBCB0038FEC3F53D254199C3CDC67CD66640269431860225392B2CB3ECD0B4498AAE78BA1994246AE1EE78F2EDFB79F6C6CB6B5E279C4D373FBC21CB2698C9ACBBEB6A4BB6B39E16AB0E421CCBFC7654D81ED86022F9BB522146F9F4772E2D0E4FA70120C95A85A417BF5078B232F475
310
4363EB1750B2AC2148EB46B1EA72AD9B4D23ADCBC589D70106C3EC2ABEEED84DFE28E718C6C83502C28E9FDD3B09DA0A6F6F7B72B706A31C9E2A331EE70DA56A083D2177BFD63C55B11D8D949FAFCF90B23A1E24B9B5018B9A17E99F2890EC302F330FE7936E2C23F0D237EC8916F5166AB84B62A21BB0B950146962D754F9
310
2CC2C8877BED8FC7B7B25726DD19545392570B3A2C66B58F027BEF412E552D12A588C4A3CC5C3193FCB3485EFFF700D0B9EEC077754A33DC1FB9E25AF814628F91DDFECB667D3F7690803F38D13F8AE39353523BB08FC6760144AFA2CE28236F65EDBB3D5F59A57D612B99E3D7E5F8A851666BF9B5A6658EFC96EEB37A378A
310
BB0EB3FDDF1303AF32C41BD1C8560745D7BD81066B0D6313359CF488563D3BA3F8E2185D1FAA3EBA1397C9D0E3DD232180A4DCADB6AF25DB3AC3CC26589C8239E66E81547BC7E2F328F9884764CA37EB5DBE390DFC03A5246B456A7C3684C4377D0EEF9A350680FA9A077E8B2957B489E09AB1AD41316944C2254B5984830F
310
691C93CAA767EECF976FA5647538830B5E63236A6F0365C1E0F3E327F24FE35EDDBD7360B0F7374837409F7A6311BECC12B7026D4FA1AE204FA3F5FE904B1F420C7A9044AE58E403E7C4848E7DA25DC9EDAC79DD756FAA26B9EA83ACE8A214A2612A22AFA19DAE7DBAC5F8CDE1292A485F98DAC731A29FE01A3966E96BCB9F
310
B5A4C8830E1B9AF0C54B87FBE221A097036E5D28D1F869F810C06A9BB0AC0612F69AEBAF893C6E7AD59460208BAB3A6B09CA4F6BDDAB8CF0D1F84B72487498395A70DCD754796E271099A567A55CF242BBED64696378BB6CF25EF0FCDB589F3A82F1116D010A9AB9FA4358809EE0C973A2B4229BAA876A70B03AB49CBA7FBE
310
71DB1832FFD32F9BF2C8E98075CACAFB36921235D0F552B6A67E94E094097A5D7DF681B40623DA535ADA7A9AD8E9A62407D7C9A5AE51D62A17A83A23728DE86BB56115804D3F2675F2C6B87541A0FC497BF0CA86420F558C9859EBE9FAD62747E323E3AADC03FDCDDFE7407B09DA90B44E3185723C5381EAEF589765E2F7A0
310
99BA46695BAD60CEF3491B8A171F5F56444F7CE9455312C3498C74173AEA0214EC029833B34B650CBB5A5508D5091665309642791708ECF27CF11DB3D797D6CFE474453BD4BFADB768094B2147814D81C7CBAF8228DCAF5564B5891F5EF6A860EB2E323CB82AB868D8EA048880D63B0DE5341F1B3D53297B928A11E15F25E5
310
148990F710747C3509ED14909C552EBE3973246FCE55D00564D8310BC3EBC5085D08D806799B77D6C57FDF5E55837F9E934F09C03C729271B64F12D0A9F9E938107CAF7BF1EC8CF1BB9B42363D33070F4CACB425E605DDB0A34A12BB936DE286B9887A4E2E558F0886498BFF49C311D96C277CF6A9FC0D75AD0ECC5226D7E0
310
E3572012E56D7FDE4410CEC7A6D0F997F225A2055B8B92E3956E875AE4993CB3D4C9063AF98FD45E1BAB165640A43439A2C9181A7C355B297C0A0CCFFAE19B6FA3C2BA238A885FBC98B8F6DAF4B94B97304878DF4D8BFF6A4AEDF79E90ED4E68F00CD7299F4E0D83E35601AF0CBEF18C1E870E74758FA91F5131075004DB3C
310
FCF09AE1DABC11957FD9808C92E8A678CE9DBE40DDA0E0D1D505AAFBCBA208232BFB6FB3704E8985E61ADE53DE74152F5C7DE74B1DEDCD37DC3E8FB30D7EBA8B9EFFC3606BF90B8D438279CB7709FC7C00D327F41817EEA71CD9E49FE9C8C9A81C70915D9F0F15958EC5AA4C3BBFAF46986B90F188BDB24B89DE3C6F29EC3E
310
6F66D84856EE96A35E657CA41B41EFD8DBFA16AD6E91439EA92B40B21C053249F51AE50EB0B24C770FFAF40DF12C8436366819C48E36547D4E7B72FE2BBF10828583057814A668BDF183F6B2E58DFB151103E56303E63D00F39C27C4661605DB644D19175D02E3F0241E8FC3458D17AAAADB117CE9EEA690D0DB01E634878C
310
04C2C9310B69FCAB831151E3AD293BEF6E46B0ABCECB50F5939B39C613D41E81FAE8D34CAE3C4566B761D37185FE864AC32FCB71AEF39DAA5BAB88609BB980CD2F07A8F941653B529567726E2B2A58D079DD57E1E5E31426CF184A04D7B03B985F276D47406AF276FE32E3328BA866EB1FD39BEF57863A317634AA5FE46740
310
9B3873F5069EF0D71AF00AD189D17BA1974ECDB2D623E9E14086386A6AAB5807825C37B015BFE892AFD154920EC437EB945D958E18622E1E0FE2FA06557CE4BB9BBD05A2D40E774DA2B65473791E314B7D6C886820B2FCFE4AA272B3B8B15E7344A145E8AF919B5454D89D36D413E87211186BF6F645E5EC94DCCE8E1C7990
310
22E4EC9BC86D7A0F2AFB1FC4B2CE48F84B3F49ECE65BAD24CADCC07EFF39AB06BE9E6B27A059938EA7208838455383DDBCFCD967DDE4650EF92A14FF933C975DB20BD7FEEBC4487576485963D757D16340D9599FEB362F775F38CA4185A86F74B629C81B133644A3B18FD056E997E0734F9BE26D11C0AAFC669E2AC9FC41D2
310
81F8B2E1C35AE27BCE05F3DA295488096688719D974DF1B5D182DB7792288697F8763CFB43562C1CDEE11C4AABD5C22B6E33F6F389CFC3477C5919DC0D533F8A7A1846B7ADB60ABDC26C43D0CFC8910B7C15EE22675BD02702ED39DB77A87A192CA7A543E6205B979B9F5A6B512A3CA799E198B2D5797C0AF8D1D872CA455D
310
4D431A7879D4DD76110B5FF7F4176B54477A9EB5E4A5D11214FDA585F0382751D8E2582BA5D2075053298FEB8F1537304E32CB22C2E2B693DC0A760B1DFCA751BDC445AFDCBB12820ED85F6D5298933C7EF1211E9E057684056CDA3FEF3BB6052355E162DF27C59E965A8DDB7F9437EB72CDDA3A090DE65A5B2F50326247B7
310
EC67B73ACC7047FC9B353D6EE990F772207C6EC52B39DC2F3C0754821DAB559F7C1809C7D0DD5B0499D0442E0A6E391B3D5DB46D11E731E6794EC77523FBDAA242ED67F9FA1FB684255671F63C9BCFE6E7E896D51001A6113EF2298BA494E0B0980D1FA5B9D60796554C02256B1E0345FB7C6186B6A19D2DCA270416262845
310
FA4F42DB5D9B0A0B6F07FCA2E56C242522E001E0CEB734AF310FC8BFB57E38E03AACE93B3326A2197891E68452B26A6307FDABFEE0223D3C03C3C73D2D5BC054C8311F12004CAE488E5C29287F8156A2CAA4AD0D7BE6B97264E4139F437CE73ADF52E5134C52B819777C18B323A5924E4F67AFD13B1CDC3A61793A79FAF5C0
310
CEB718E441071E797C6DCCB9EFCF7E4A1E9F3DF3C2F9C9E8294E9586868788C972857FB0556D7A26941A7EEB9B580AD78EC40B85DC906B4120A563CA3B87797ED612D3B035962BB75F6515A393F4CB057F564CDF54F2E5A024514E6A1F901DB80C7E70B1FC05E356A7E72FABF4775B3E3FB8F70A2A8E7B6A94542BB3041579
310
78CCC999E707A29CC795E67A59CC546A5D47B368954CA7B6E75EC9E1F6FC73CE3B4F71F8CB1A6B15923D61EAAEB14626AAA9D04A26EB9C66CD1BE86CA31A5D8703DE04CD1EBCE4F5CCB62F93909AD11E55799A781A956ED27D3E738F4538CB04ADABC7DAEF20BC35BA6A90BCC1DC61BA05F20D8832FFB9BC9B15E2DB838A0A
310
FBB7E0C82A562127E0446894F427794C3037186F622BF24DE1B00AA10A23BFA47B2A180D6DA5AD6F7326FEB8C100C2D7142EB2A0B2A9D1008A09BA343D70E054AB69E2A7EDB783CBD92537FAF4A44D1296AC2792729104B3276C276C951D0CF3CF3F1E6B017720A7B8505A5FF9589365979678C36F1BAF759EAF57C60F1FF5
310
FE9DCF5F8E764FF25A2D06CF25117A8FED51884C13B2B750DB0E4F5E3D64124FCF11F0AD8F1CC3B3DA4B38ED22BF1CB2585EE6BFEBBA63FBFD44F9537B9B37BDD6B358720F98A8125AED4349CCFEB0E135F19E208A04CA7E2B10711185D72E381F448036EF57C9F874E54A971CA37A639E986AC0226DC5AA00D5B14FEA9192
310
234B3DE617814FC221C92F33F1D392F297731B567FD98FD91D989379AF567A65B8ADF177591DB90FBEA99BF4ED11B16E50A0AB1DBF1156D034BBE04D69D08F939D8E92BF525A1DDAFF80ECBC95D8F45D3FDD289FD23F7D8B452F8EBB34EC082DEEE68E18EDDF072060FAD2AB1504DD4879BF67099FC58F6E9DEFBF645D1633
310
4A3E9A127C6F1AF6132CF287E433B43A0EE93812B4AA0B194E03EE3FF91EF9C6ED0074A2F6EB18A96A7C9890B1FCDA1F2095E944DB911ED54C60DF16FB74C8CE9BDC7C54C4F14078CF73C2FFF1F1BBCCD7CF64F71407EA1683DBC410D226627F66E509060D5C0AFD611DE681D509DB8DD12FB1265B03C6F5C55FF4C30BD941
310
87FF692B4F152982502F193098A789526A038AB529A52BC0DC4FB6285CBAC10A8B8DB75DCD9BDABBB221E27D1F8DA9F5EE5926A1C8AA9BA9BC09239C6A7F12914EA3B59EFF7AAEC3FFCCE56F1C5C2980AD072793527565E774F4631DB178CEEC691B1F367BEA0CF2907E1D6B854D527065979DDEF002D8B2ACEA7CE21AE297
310
737EDE1D45B31233B73FEA35BCFDD0B09721FDBAF6432681F2FD10C3E9EFB246FD6E854B344ACC9D8A0EEF876A7314B49B6A499FC650B099D650DBFEC7638ADFD245E2B7839DA5AC5F7D5623FC0ECEEC8653FC9B2BDD1AD4D00A566FBA7186DD3C9CD26512551637498CADB950FEC71ADB9A5524285DE328B8EC7EC75D2345
310
AEC6A27C42AF6D9B92155315C80DBFCABBB7DA0FAE425C4FB896B15C9BFAC4FE67DF5A23D30C93DA4D8F36FB15D100050DA6062E22AEC5F4DAC4F6FEEF97AE05DE63C6D38F9E068A20BC5E3B6BCD75320C5090924E7F93640A7735B1A43451C2D91EE62C6238B797349E59890AF3A520DF4A87095F3ABEC2E61F0593416CE4
310
6CDCBE0E00E2523FCCD04408588B5B6C9DB6459C786CE378770B54F51DA3A5E1DF2A3349BEAAC234A6CF8993B598B3B25B4B113E353A4D750FA7534749430F3EBF2512E7EA3FD43C6AB9A1F765A58463B306721A15D224FAFE8C6F5E3432D57EE697DA0DD5A9D4866A8BCCAAA9DFF1F06047851408FEC060471D0E3EB86BFA
310
F46E4B5E60311DC3E3CEA147C75CF971BE74689507154FF2D2E92F15CDB2B9182B11459FD8ACAC5A85F174BC94A7F4EE4C4F5CAFA7C02E37BF0BC77B7DCD0C047BC316F562A01A441AFA7931CC84A28CB9F4AA367EB515778F29BFE61195FA671F4352E5E46E3A64773F1F76EE5EB36D7BCE9BCEAD837A4D77F8DB8C92AEEF
310
6711920D7C7D0F76B0FD0EB7AB83724CD35BCA7D36DDDF5FBB7FF6F04A91F3E2BB3B8F1A43CD659639507FF6331C5F697BCC782AE57D757A27D97F1AB9E0AEDB43F92F1B2AACDF5FEC8ADBAF9F814E2027003BA2F9E144B1938A7A04050AE5D953B82C45619165C813A10E76DD6906B3C16438064D14CDA713AEC420034613
310
E1AC7241904A49FBF87409AFB1FCB9B72FE7933A87D8FBEDACECE4EDCF6A4FE9FB94D5DEB74FAB7CFEAE17EE965DF980DCCA2D04134994F9A2E94D2265DA4FE6AA7B7AC15FACAC2B5ABBCD7DFF542C5314FDAB2E1B9D8B65220B8E2B638BE008E8DCA22678C820C5053664D15E89F2D735B51A84955E81A443545E9FF787BE
310
0FA700A76D136C27DA179A7C6E8939E01BE756E19CB292798063D8B97F44E8A27BCF3A614FEB8BE974A718E86F7EC99B53CA35FA24F61F2B07266684623A3D4CF073E511F3A10A8FDAFAF0078C577F4DF9D339FE7862E5FA47CF4344209E5BF76D783B1B48E152AD281B15FCB934DCDA49CEC5706B1EE8B460F435324A5CAD
310
154725E21AB8044B75A557A79F6C807B9340AA3D92503E866F4274412926C8C504E4D5EF8C0E68DD0B028781A6B4054F11CF18941F101C57CCC796773ABC8DED9CD91FE5788806C05E548895354AEAC96546D55B0E94A59F148D061F42AA398D822CDECA4CDE79E13469BDCC44FDC990F366BA5978C15F97ED80CBFD73B0CD
310
9B8B83A4F6845BDFBFAF034019473FB9A63BD55D3A4A7284757071574029A4D016DCCBE95DD679EF3C4880BF169422F8C89B68A988D2B13793CAED4F74DE7486C72DC94DF46B8E93D8E02EFCB1FF9B3BA10C8AE7F653DF94F4AF466CDDCEF5776687F7C4C14B63E4EED1719DC2EC482D7DBCC7AE518CDE3D5FF86D39000EC3
310
673C0044E1D308BF05F74D1B5F033A7D1BE7F74BC55BBE3E4A20F920946CA0271EB17BD2B80E5660ACB8A29A79F5E4BBA49D4D945B6EEF4A7EFEAA65E5555BBB57A7E15D2F83C69F30BBB978D2B39F1F26FC097424D39BB33CA3D87ABF64E307938B685BAD44F71556A30B7E712CA4FE600613C3E554B69ADE949A7CFE214D
310
F1FFF05CB82151EC6FC31950239F94CF7AD39DC473F6EA356E5EC2C4EFA04383CEFE985A127484366FBEE3C0EC4FEA363E4F6632AE781392FD45D67B63FB8DF70E82734F431FD3443172A0E30A83D60982D55FA6A2CF86DBA8382502ACC6CDEF3B907982EED1160E14863FA242F9757347E1544275CCDCF71ECD5F8621CBEA
310
326B8BA884AD7F825781923E66971F04010D574C541D8427A438A37EEF8AF88240EED7362C953F5A81DE2D56109CDE2524EA0F5D2F87308C0C47BD97AD605878AB8589E17CA83930CB5E0DCCD75853D68B1AB136594926DE426C367428E9334AFAFF90ECE221BB5DC9E5BB53D2CDEF954EAA9CD814F0E5725F1965DD458E5F
310
8487683AD86B9D0076BE3EE91EB1CECC5331A67A3F79D8B27587C12EC2A6A70474749F27B4C0BBAFB94B34189E88DC18964BE4121B9137FD516C7755356E50D6714E31ACD222621EBBCD1CFF81D87479056A9DA0E0B8EA19D24CF937DA89F78E8650CCBDC110AAB6C4E46DCBFD0446BA9E2060E81F314AC2031E88135E5476
310
AC0160EF5C0DD2EEF1B8B5CB2D198BE9A554A9093B5F7D7E4B5407DDFCA1D9C152FD97F55BFFFDFE802954DFEC8995B983E28AC92F1971E28F531DC407A1280EB125F64A72E617EFB27DFBCEDCDA2D6F2BDADA36873EE46B9BE1782998C63DA7182BC383FB6FD15DA472B175D7E8B4FC88F38D6E07FEAA3FA3CBB8F6B449EC
310
F14D2175E5C5CCA3A42ABF24CA6C9395AF74535F4DDB38CB84F56614B0FD32D7E19CA5CF988DB4449C40E23DF2B16772594554579094450F56F253CD25EA7F77366FB1CFE79696C428BB64D5A41E986189427E5E4D7E2DAE3D5BB4972B3DC44EAABDDDD63A2264ECFA5C786EB0EE1FDC5BE34FA0F08376869FD1E61EA06CAE
310
15191135445EE8F0394161C3266A596AA035572BB0C8876180D8B9C77D307DF9DCDF7365ABDA6F3A2366436457A4DFC1F259666569A9E4A79C817BDD5610E5200FCE894A358EC72858D50EF67545DA81C6FACE3D457BAF70367E1E6BDD9A952FB4F56247F58F523B97E640246051A72F79BE42FFA0B3187F63097F91C48B86
310
8586F714B0EBD5A00A8412C1236E1298F60C72BE6C96B82B404CADAA304AE9F303176B14BA53FBC2D5E86377E35542019E24D97B96A49B2C0E5006E7795954DEAF5DA58958839043C6C70BD3B1B33B6DC5C31316D8A6923F142E26F6711A2258AF977DDF1F970ECC4F1F2B434B96D81BEB6E89BF3BBB3C7C8CC80505070723
310
D6D7D7D3C8CA27CA164A26024FED94B12A86031867241DA53D929636DA600F050BC40CE48B8BA03D69224720DEE2ED2127390BDF5E6EA64527BBD4C4C63FA76BB801FEEC0E61218EC98A8A86CD8313781617877E66692839B9468CF4DB8E50A73986E558E309C0D6F676F921BE02F1185454DC75B111572FF9D27D85EA14C0
310
5AD7271225B391C4275659CA4A43759D0BA44639BE4C30A84DB7F67A41399FB95CBF923B1B1672ABC807C1590557FB18D811983FA97F5E609516D62281D38B1281F68FC75528C35E4CD7DF0F7DBB5E5DD69C414EBEA2F4A5B241B996BA77AE6C772E367408C633EA3E438B68563EA8BE7667F3A4C4FDEEA52ABD78A2820F44
310
3B7914A15F180018D231E64519C56A12F6CA7C8DAE18F06F6B769DBF92329EF6A5D18FBCE600F36BD8E8198DE5CDAA96181F3A756EBA5501CEE58F497EA4F418A2B82565B9BCC611713C0B708CCA1F398B78C5F7D03B3437CC18F13061F55C7BEDADD5ACB1DB0E36D3CE47FF6EA1A563A57E9649EA5D14D1A50EAA45746338
310
1C073777EF1600607BAF6428A7DDC079D47A204EF1E1F1F0589FB054D45E02CE623B3823C317C601E589E22B1E88B448524B86A82828E32345EC18AE17214B42F8C41C6D428016D9BA31DDCB47572561E5A402E5BA4FCE55F78AF7268524AA04130F3A20BA5D1E9F9948EA48FC8F5314FDB35E21898198060034ACE5E3E2BB
310
CA34092518F275190AF65F45867FF0900AA4B81F25427414C372BF51DC29AA855C5428EE1EEDD6B849AD60F6E73475C2D2523F8A2772C840A478DED18A8C5C91B085F255DC4F54EA7AA8947354FD17ECF8FB3B4A0DE7B483CAF3A1165EE05BBA413E5C1FEF3DE1D6B8F2F3F3251C17D9FCAB48A9AAF63AC773A0E413BBC46A
310
9ADF84A566FC920E4D8C52C9769EE3301CADEEEDD92B312E02E2A7E35B7F1E7D203FE5A7D75578B06E99D0E46FFADB8FDA17ED8880390DA29094202D6F645F76F6F96409CDA05495A96E84B04A00D1A6C6C81D7F3DE9376E828CCF144EE50E364ACCE7237EA0BFB5607ED1AC3CFE73794E5B61739D14DF1743441B1AC98F00
310
ECEDE9E7301FA29755FBEFA68C91EF2B314CF510537EF1ABFC9A762496280B546F5EDAAF8A5B387D469FC9A878A92828C88608453ACEC6094DCA54111E7AD5B2663DFE2DD151B7F123B9F4FEF8EE36AB125FD7AD52A59B1B765B3E3F73E3F73DEA93875004D2AFFE3CDE9493B87A9904DD052028949041A91DC0E1BA47BA71
310
4343FD5B25E0A6A09503AFC17C790058A836A324FE31D7893512E28230332F153181C1E018E1124EBE1BA262AA428A518237D1EA7275E48C5C561BD19ED6912EDD8367DA0F31E40EEAE9683DA9257525AEA7B632B97119E17145A90231768A4F3B9120FF32E8319B015E3CBE26F1A754177D8185345817C096B0CE443A955D
310
13AC15E1FB5DEEA0239EC32A3C92241A237B0B02FFCB4F93CF2B02570C8D192E2F2A68CEEB42F12E6F8CEEFF46C251E22B4341C56FB08CCE550E7A9D6F4D6564B9EA52A83D5BF2C6E03FA19D2775E15A8A7ACF30A13C259EE7F5EF2AC3BA354F1500E1A07FC63FB4686E2F12EC69719F9ECF5FE3F35598DF2CE944008CE78F
310
0911BA5BE5D0A34E0098FF038669C26030BA9B300303039852A8F6F496341737CA7E0D2E3AAA36DE0A70AA7D9CA0D54D9AD84B18A44C9E625475E1C97B93BEBB38DCE7D227E67A2D00F531436136355F243D1FC0D712C5765754FA22FCFFAE97919161F46D6E61ACB37D83777B385889770B50765B127768443A5C4D3A4E35
310
A3151111F146B7CA116F918A049F1C272F2CD7976C69A0068773451659A97E0F4A08FE604C3FF6CE7385DB19F4D3ABC8A0D80DA8A42096AC377DB49382B36E270B6FA7570188B4B7D1DDDDA82ACA487CCA5D38BD3BD039ADBAFA4ACFF27809239B722081E2EB9F145320553D183F28471C388BC8814E5045676767AB58A8E7
310
2D1CED2CA731379515D2E533E4CF0B39DFC625F97AC4836831A4DE330E87A8126FA17EBE583D614E71E22A8DBF2825599743E0640037303E8E1B1E8EA4E1ABFA4F62907B5E4E0E5DCFDAB417C36C6848A2B8D15F1E505434C0707E16B1CFC2A1C36A42BBF55734F8F4301DDC2A5110CEE8C0747F69519265012A2174BF4E95
310
5ECD4FDE095A3ABC70536B7AD0B9D7892F81287D667C108703C9B66A221E9A0929D030008F77FF6F5D2108EF5706FC87A3069B976F7C9FC3239D13D283CDEA83597461079FEEE049B0F392889898B7D87D31F8D60ED7B56B91823A8E4EDDB36C6172ECEE42BD42B12CD67994FA0F0DFAE9389356F4CD4425A4B8AA55CBF7EC
310
D585C6A2C2316791E43D5C06841ADBB226A87FD61515FFBB0167B74E56BD7F3E90A57A97FEDCBDF483A0D6699A8C0849CAEB4947FAA90D8E332D9DEBD9F4738C37DA0CAF9CF3DAA68BCB67C420459C7A64498D6E848E5CADE92BB6901F607AA331104A67F7CD650EE169B1DAE94D2C31C2F993632259B6957E246EFE4C5481
310
107B07118607700040E5812A2A2A38DA0076875258C753F60E0F2662C748EDD5F3F3686B8FC3BD6FE631ECCAA1E8B1C1E565AD117E54893E79F4672E32F9E46B2A183DFDCF3EECB4D4D077DBEA0DA254D256045109670050129E9B9B1A9E4A11344D61497A992778095151510C4BB7EF2009B63AA4360635312E4CF668B7E0
310
D3D85A8688E2BD83B569439892ADB63461930D428E0DE42E4AC57CE48DA5CC1449530D8BD3D6A0F08DF20C8E8F570F2CFFFCEA286E30969B4654D498A58D9DA782E19FE3F002181838925592C4A1EF0B332D88B61A92C644547BED490D3A42CFFAB70E36D961F694F6307F72FF15A1C79D5B1B5CEFD353D9E2B52566DEC8F8
310
F09CB3E8359C0F68EBBB7898243E34E12A015B2685AB303C04D3A9E00671FF3DFF0A184E4A2ABEB2B666AF5B3A209C73D8EF29DCDB069C9F391EEE9DD0F74C7BCDE16F8F02E3B8816122BBEB50665775B600549D8BB33A54A6BF940C028118BC6878C79958D6784F9DEAA6E26748386FFAF8D0D0101E2847B6563F5D8DC1D7
310
8F787BE00E2C941AE12148D4A81599FE8F68D4DA5CDED75530ADE138240300EE13B0FC13A1687FED6774662C05A2B7DFB186732F0D7A93545D8B0A6390AE5054D9CB582DA846D7A061B3358B45E2B52DDE63E114397EDB7E09233A579155D795BE76102CF277F4DF8B188C4F2879BEAE3C08347124BF9ED23B128259FE107D
310
31E34A652F090B30B39E0D9AF917B76A2806135621A8A60681F16AF216514BBD02711585B5B1AE823F4B2D0369EA5B6BCB863072727FFC871CA6C9AB79A814D989057E9470A3D238BC87CBB4A0EA49AFE2B86F22E499793CAA9047080450166BDC357524561E258C77CB697F1ABB32562CF87C3B7AA12F911EF19FB3E5C022
310
22E887D08202A60A17151F5E053A86B437771088B4FEE14D652C43E8D939995D34545E12E2FF93D4E366EAD25F10CB7DED141563C3D0C447AF06078A91135FD4B9611583CB4BF3BD167F2399CEAB0E0100F8FFC305F00F1711717173138B4B48C83022295DE657EFEDD97F238ECA80F528AFB4F8D67AD4E2594B9A3AA86D74
310
87EFC313BA95745C186F0CDD84CC12DC9CB0424B42203D351FD9C0A3AF10CC7F388E0329279087386421F194F4A29464C1DEF7EF8BE515E4A199DCD5B909342598D8FE6A231F71336248D5CEC5454455C7BE383B3BC7B260FED27F703FDC39A170F3827239102F59D4DEE7FEF82EAA1A5E4BA94DCC4CC44E7E2EDE20F24244
310
E4454369D2E87C3F823F193FD4FD27E1C23984B01898D15ABC20711A8A558054951A6AE280096BA36CBA439603B7B0B4C45F248C14B2383B4B5CD8ECECE4FF859AD4A6CA2326D020EF090F4041D28DB66E5256B56232CC52829DE8060BAE6BBF37D4B7469B822454FE93210A3E8D15E69FFCF01123222611C51C4FD0A041A0
310
CFA2471CF6BE38D2B20FA4C3525B5B8B586759475CF80ADFE67A284AC24651E52B8E683D24C2622642F27E7C3C22783BCF63648BC398BD6CD0D9C97E7E7E3EACB6126DB7A6C1FD9F1031302EE67ED96F22B77C7CA0239BB324207559B105E4693EB26EC46182A92C9C0DBD24F29B31C5C5AC1F84300E0E17CEEAC15F5736FA
310
4A98971E2F1423BFCD68D4BBD5F86E74B40A369F39507C88FCDB35D2DD8DEBEA4AF999E23CF2816D204200DF6E611781B9884C1AC8888B4DE397320472959434323A5A36B22A8E1F721A270DF3BD65E4A31C11FF048AFB0D8B7B6881423793963A23CFCE935FC189ED36FAE35C46DA3574C979E4394BE52084F3081837BE03
310
3396D2EBD80F1F691B273F660D2B32FA27A33B1DE4ADA5F0FA4651511102DFA410DDA86E065272CA314D5249DF91B06BB92807B28EFD54F08F7B525252782CD276DD02E6B0319B13DF87B1F6361AD6B28FC0D711CF445429B9E5A433CD493051C49A9E03DDB1B147D880253514A5DED88009018620EE229101C041950E2D8A
310
A8E1F5F5438E0C0C0C60EEDEE9E3E0C051948C69F84BB7B2A48A1F3C8EB9E6864687F4F4F6F6E2FA87608ADAF9C5E117B7C1A737E710769DA1D15ECE6A84502AA855398712D5FB51BE92E4EF824969CE18278798AC303C2C7980DD2500ADF8FB1E6D6C2FAAFF9987178923334A244758BAA01A9A1B70FA5097D01E1CC2A58D
310
AD0EC94CE6430AA9B0C10D75E3C6BAC670EFBADEE1607739CE0FC18A2587E3EC3058562014C64219C69BC269082D5C2F4A659278D585755912176D78A1B641719C2A394CED495A1AC5D583FD2F5EDD93308EA7EAE8A6DD396598BDBD3D4CFED62D18A5BDFDE0DD5C80D1A89BA62697B131AE7CE9A6594138582F1B37D68F17
310
49AC7CB67A70695D48A4A056AC1FBD4E82358CEAE38F54B95A9016F9000F9879C0D9D131768635CA798895F27D6F1614F11F2838A83611AA51C9A3DDB539D42979C29F10465655C17BEC3E2760B80DCBF609198C7B171A531905F3EC218D696025975E986C6B4C666666787271F202805577DD5A3EF0CAFAF91B62DC4B2DB4
310
217A7606282F31D8DDBC290593BAA93EA6353AFA9939B877978481E15CFC9F2755CDC00C538F63A4BA3E80AE009B73CA0185687D339A507D165B74290D6EE46D5C58148F020C3668ABE9EF2F7549170DC80DB41FFC1D678FF19AEB10C7133832B104B80F691B3138F97A92D26E551F1F110400D45AC71A9B9AC41A1A1B1DAE
310
ED0B0810638EFFB511D46B121C6FEA0F38CD00E03CFFEB9713FE1F9C263E4DDEC160D0497FA9A132BA608584057FB15380825DE6C7FC3C667EE947D488A09898D8E939C4953BF4EC9836344D2CC6B2971B2A21A572B06096F4982D2CC7232D46E8EA69DC83722E267754D777F97F96D5DA74E1E75178084D0E70F12AD33E5F
310
71EF2AFA599B2BEBF60A5BE475F444F240CBFE8143C334E7ED9150FEEFEF7EB020C4DBED388DD1D6A167A76F3CBF119B578AE8CFA7736ACAFA4440A1C47185638A0D2F3EB5BDDEFDA958FB13CE4AA4923D5BF840392D45544329525749734866684BF7F8D9D54D892E19BCA9F829A0F8BFCBEEA6CFDFC61D74EA1A645ED7A1
310
FF241739F15694BD835B66FEC5677E40FE69BD3F91AE402F036537218A401CB0828604AD189E575015C6F3F6BBC8AC79CF6C70653847254B31551EFCBEB5978B9DB85D58D0FA41A9DFE9C624834AA04949D24B5AE6D299E072D152D12097920F14AA92C31C3B97E28B6C2E6E9C23D63043ECBBC0A60FDF5BD0C33C127EA8A3
310
308B8B6AFFEB28B4455BF6E7AF4FC6222728357EB8E46E85053E6A8843AB23295BF838ABDA94658FEF3F832F147046B4ACD6F7D48E8FCC9618582961C898D1C7A253C91BFECBDA6BA18A1FCF70755DCCEE2222F41B76D23CA98D0CB3D95F0CF66D57FFF65E2A90F5DF40FC3187621E981BD0BC1D992787212688976B94A8F0
310
C6EF646624B570B78E068826F87CE27041A95C9A4871FF65CC17FCB1639629AD6A9517000D63AC231F3D741CB8430777E7ECF80CE7A3F73C0F162F7E56AA71F4DA80A33CD6ACEE78E2C11FAC03DAFCE929B106F8F6B3ED2DC71FF994BD9CEF4E9A94896EF1B6E2B7B4978168BCF0847A3D2A4F1B0500B926E634B174548E9F
310
BAD27153FB5FC36799B1E6C7C38A94E1F9E996796D7B485E635D5287A2AE76FBD11A341DB3F8F810385BB7296391973DC6C37C452A9305AEBBE0CDB6C566DB59FE60C8E94B1FD090354BF51439FFD1B48D725228FFA88C84F686F547107A7A235665A4593B7C34D748C1AC8D56DD5DA861EEFBADDECBBD65117E65851F9035
310
1AEB65F0EFCFF4BCFEF24CB7A5879699FAC437A7AF9099186CF006BB923A59E37D7A36A29FD8D2CBB914A5E9D0A8FD212FBF796AE9A67958FF1D5D8B85F78F96219D4714EB919929241B6C018AAE0C02069F8D919961EC5DDFBFB7573E3AC8E08BFB7C8534BE6DE045B3CD63DBD71F7638BA2309CAE398EA3A7D8F98BBBC7A
310
EB367EFA5CFA27A9F8F2F52FE878058E6209C026453F8E7E8A237DFC389E9590F6059B397CFD65183BBF936E86896612A5B5FEE49DAC8455D026218AFEBEC12B3523A45B57B82C9C97E02ACFA1184DB18E48CF615DBF39C3CC6F0B4AE6BBEEA2E39D944E290302FA3DE33FA7E40296E2EF7BF1CD855BBECFAD0FD622BEE974
310
6FC4FDFDE545AE6E3BC234CADF83A0FB76DFB145BF3828AE3436368AC24989454F8FF70A177672C711CAA1A76107218CF948CA01F873520E7A2B118EBB161ABAD432932029628B6761590C98AB590C8C8C79798CE9F715BA696E839E9131A4BB68BE923F1747FBFF165331FFDD4D05997ACD168F12CA75348DAC04C7F509FE
310
83898A8B421181AF492861CE81E4A2DD0A30850CFA95E05F097FF70F9E777310D584A75BA7018922E271DAB1D785671157685B7D383D3E074DDB4F1E44EF04B07BAAC75A062077C54B9752C738C9D804D402E02851F3F89605AF189738C18C021D2139EAF72513824E10DDD3047BACC8521ED7E98B257D1166903B1B08FA6F
310
918FD7E162913FEC7D0EF4787E29C35FBA8C6E2C9C20E9AB30AE42CA2A01A090E7D010C1B5BF9CEE2A304BF3A987FB40D836979B79E18D70F257DA61E808472DD85B82761825779D6B90CAEB0F23360C6F80A7D7D77545E95B3DFF0CF96A827F9B5BCECD2C9698718417EF80FEEDEE938AFF55859D0D540B7FE09435583A6F
310
04874A0C7E8CF234DF4879722000167F5872CEC6BF3EF7E5A8CC8121E6A359227C8A29C95212F9F735BC72A887D56B8F309FC525BFB4FD767AAEC4AEFF249CFBBD2DE1AB9969A6155C7D8DABC307E47324C1F916C7BCFF40ABA5644E9FFB9238D19ADADA49D9610F01ABBA57E4DFCBDCCBB2B93C8953206C91DE01B0E2651A
310
6D6C31721915B31F7B7CBCE55466F6D70402788FA91D73BE4ADCBA99A35F17D6B83383704917D6833F0FA3CD45C926ADB8BC17999A4A0AFBCE2541F7B8CF4C2F5FBA611B3E626D64407CB32C122DFF4EF8674D6EDBB86C8F7C6A16D50FA685E2CCA34F8F7D1D8265BB0042E9D7F1F666F7BE5FAA5184DF58E12122A42EF02F
310
461B3F369AC746F96528AD208512AB56844CF75B97F352DF7995024FB02855385854F3798670D01CAC771AC3E1889EC25F61A20C1F8CAB46898817F9C47E2CDA1F286BF2F358298709FE567C91133E2638C8B53975E753EA8BFD3578B5F7186B7BF084EBA3F77BAC3132A5779902EC22AF2D2E79F42D324E083386DAEE9810
310
D1B44A5DAA54513C7A71E52A4AB9257D975B621308FE4D2141CC3DCFE946C154A3C1DFCCA7629EC69ACFA831634ADDA93C0388D2A9A2DDAFCF957C6995BCE7FBB6DC4EBAE79E63EB08E9A25F52F67076F7093CA545CA3053B5BF576DEAD4E0017143C5F759F32B2D6F145B52B67B48909B7C7FCA6586EE385A2189C16932CB
310
6DDFD9152AE317C430492A578ED27B72D85D40C7C93C097939E1B50F4D67F05334FE9DC362C30B7FF561B95259138ECFD9274C8D695C31B14D4EAA9F3D7FA8DDF652F8C5DEFA23284C799B7D94416DEE81E05A866302DC70192A5368EA65E1CED8BF107A1E2D3119A71E85DC1A7B0C1E93274CE04DD0F2ABC8AC7C987FDB00
310
2B6F81757B43502EF7A0D92E416494FAEEA4C9C090CD9557AA4D532F4996A272B94355C5A0E4974EEA9627476F30809B94D8D8D860062E02204643BEC7D0438AF800FC7E2B26955D595421E83C69E1A07E0E3122285835F014AD538188CF9737CE76D464A353FA55A001AB2526B84E985083693BC76FE211CA1D000679C889
310
E3C009832C87E1AC2EDD05C302557422DF0800E316FCAC86978A371F025A6C7DAA9F333E7BD160403A1A06EA75AA9888FF01504B0304140006080800D666475051464CB48900000043010000360000006662782F39443831464343452D453544302D343331392D424131312D4138393630343831424337452F646972656374
310
6F72792E786D6C9D8F310EC2300C45AF127987122606C71DD918B841D4B851A43646695A717C52A85029031293A5A76FBF6FACEF7DA7264E43906840EF0FA03836E242F406C6DCEE4EA06AC22492573150D1F66C60C640E8938CB705396EEDD86DE9B5042FE27813D640EA63BB001C722AF6E55CB61E4863F58284D5D3F53D
310
D715CE1C3985E63FD7F1B7EBDD617E9F1E504B0304140006080800D6664750488FF8873E070000541C0000340000006662782F39443831464343452D453544302D343331392D424131312D4138393630343831424337452F6F626A656374732E786D6CDD59596FDB4610FE2B0BF6A57D20295287A5405620EB0884C0491021
310
45DF8815B594B7E6852569CBFDF59DBD2892A6243A4D80A03660D1ABDDD9996FEEE1F4FD310AD11361194DE25BC3B17A0622B19FEC697CB8358A3C30C7067A3F4353962479659F81621C915B832F1BB3E9812545AA96F624C045D85C5DDFFD85329FC4C4407E88B3ECD6C8FC0712610B1779B227D9A3B5C739B60EC1D1722C
310
B9B14EF6C070FAD0B82AC58CC439B00AEB3150511C38F57F41247B36B5F986DA36B7DBB6FE856DB610BCCE288DB31CC7FE2BAE1A74DC6E5CF59DC172E50E27E67030E89B8391EB9877EBBBA5E9DCF47B8BD1623199AF26069A4D774912960A4849BC072DBE1833676AF36F4AF1150A6D7CFB491C135FA1D9B6614F145D4AB2
310
262635601D215A452152D6CA42BFA3F067B67502A5C6520D6D2D9CFEAC5A6FB2FB1B40C8BA5829CB08B7F22C67A06B85BDF487DED496AB35BDD00C4538278CE2108574C7300305C156A9A01A19EE2D9C14E298092D6A7A555EC1B0AFFB521B97411186DC7F8D99F0340FFC91E499E08CFE43D889FBEA6DC013485BD0381F2B
310
61F39714484CA6B65894DFF55DF5A5041205213E80B580987C53DF6DE0B5E0B160B334661FD7BBE396C787F6CB5396A484E5DCF284332BBFD31AAC9816185F075024AE75DD9D50F90AD07F02E44B5ED01434C7E871701C68D9198EB32061116807F590D9833F3DC41F5F3D4DEDF2F00CA15AAC3C8729B8ED0FC2B42646EDEE
310
0AA4B3E913187DC2FA4AB8AD8F43B0E97B1A733F07434161024B10EF83DDD1986D2098C2229CC221480FBF539B3F22F8907420DE3434D4167E3B284A3B4CD3CF4EBAFA0036C3A85FAAAA26E3397C873F04DFF972FB715BB000FBE45E39F6920434A63924D376866AA0D75CFEDBE693F0C857F2D476F970CF21E181A3452F5B
310
A517241403ACF03C2C552356EE29B87B18E2982445A6D6DB02959F8409F3762F9EF4E1D6BBFED446202F03FFE616D01ACC20BBFB8CA61C1463A6C42B23A175C289C741658007A9546F87FD470EAFE743C4FA1E3EC06A316B122DA2D4C35152C43C7CBF36EFA66856BF277E1C67E2F626EE78321C2A8307DEC505DA7F747028
310
D9E73745383D73CDA2A62F15373490D29306102FDB64F0A16A2A722F49B14FF3766B6888D191E53D0D822283B0DE0A4C8363ABEF0C2536FAAFEBA2DE1B564BA62E4BAB98F268840FC40B30CF89ADFCD5002D896B25B5227908932CA331C9444DF32AD63550EC59103AA4A56BAA2D664B332F2239FE1E8B1549B261B08C04A1
310
07D557CEEBDFEBF6AA1954F9F61C455EEB25B127E47FF1321CA5A1ACEBAE61E0B88D1B5A71E54CF32B9EC03E3D9C7BBD3D1165FA35EA6524D1F876A23EF96EF267E061F8A7C3A3AFA050AC4356BDAE59C71A3A13FE338630341A3AFDD14DA98A6B68E9CB725EB78405545AFE8BF74CE8E1A15B10D42ABF784F46C2C0A36158
310
449ECC213989A06CC379C13A79EC08A249F32215191A2E51B929A02114D59DC3ACA85774C502978982E55C98AD5C0342D118FABA4E82BC92A2D588852E440FCB5BB5EBFA7F3BD5FF1C31ABBDCD2379794ED8BE95D37AE9A1AB365D64F080A97262A95E417936ADBA5F249A9DEB380C341115E16467A12C849127CA8719A26B
310
6AED39B2679CFB104AB7E2D3BC038FD893FDA90EA99153A3116306976A6ABAB6AD764710EE7802A9156B1B1E52239850601E69EFF943F81583AAA15ACC6C5509D9727DC3539B05C398131F17687DFEB06D508195CEA7BF708CC87383825A5DF0E2EF02A96F9B538DDBA0A024FAB6B9703C7F28A25D8C29CF8DDC2CF03E7DF7
310
5EF49FB7363417F6643976D68BC5CA5C0D973D73D07726E6DDDC71CCF97832EA0DC6CEDDE2666533922505F34966BB76CFD3D5561A1FB46148E8BA74213089B8DE2E6A7B6E2AF87FDC8584C90E9FB3C55FB509290B3E5E92357CB16B13D21AA8776FEB189C5781BA3D89BDA9D696F3056DE097D31604239DEFBB17179AB4CE
310
F0ED3C5732E21B13EFD9FEE6A7E7985A406FCD0FB51D6D21BF1E8B615ED592A574472CC722EEEA663D7717E67ABE9E9B0377313427F3F1D21CAE8683F9DD70B51CCD4F9D84CA855DF3CA2F114335B395D11B4C90B324A430C8277B742009F44030A9E8105F594432D1DB4001A0D2B87E8BD0E1F4939CC3E67817EAD3FE0386
310
6176A83272E1C32015FA8E5B43ADA3DF6074CAA79762A0653D42E251D66EA082D15B034C20A7905FAC1D8CC0C4C051506F8C38416D383EF0AE499E2AFF3F1DE3E880AD9CE42AF774C1454956B34E1827A4E2DD02443B5D907CBFE89A1D847378DC157929CC69E1248D0241BF4490C2C1A4F051C17B84C073592EC7127B6A90
310
749AE65FB40349D5CC313B88917C05EFF9F28BCDA7E99BCF280D8B0357E7A57C5FA364F23A232CE4E06A0A86A1C44C31EFC417EFEC2F2C81D752115A533002F4FB713CFAC35E245194C472C99EAB975B68FB00AFAAF6B61E1342E1D273C6B6A87BD4AB00987565C4C2FBEC111640B58CF279AA84B866006578AA1880D608D7
310
051CABEDDF2C914A029512B65ABA7278C47B00048EC4DFFF70B7A96EA80C2DC117802B39DB2D1FF4C2D46630389FFD0B504B0304140006080800D6664750C0E8C65EE1000000550100003C0000006662782F39443831464343452D453544302D343331392D424131312D4138393630343831424337452F7265736F75726365
310
732F322F636E782E786D6C4D90CD6A042110845F45841C479D6142C2E2B82FB1A75C16A3BD46D6B1077F42F2F6D18D819CBAA9FA68AA4B9EBFF6403E21658F71A33313944034687D741BADE536BD5272563221967F182551EFB0D12E53255DC27A0CC9C24DD7D0D5E0E37D88E2EA2042F2E67A444789093AE78D66F301BB66
310
BA16B490EFCCEAA2D9CC1264ACC9403B51FC0EE38449A00B58AA16B188492C9378B9CCCBE9793DADEB9BE49D54F21D310CDEC702098FA745186C6B6C8984E41D50B2263FA8FE4633FEE2B1164FF2662B994B6A1D0CAC7C1F0DF3BB76C01FC8AFAB24EF4FB6F168A0CD5E88FA01504B0304140006080800D6664750FF15A4A4
310
5D000000800000003A0000006662782F39443831464343452D453544302D343331392D424131312D4138393630343831424337452F7265736F75726365732F636E782E786D6C4D8B3B0E80201005AF42B6F75B59F0390B113044D83508C6E30BC6C26AF226F3B8BA6360974DA7271430F523308B2B198F9B80925DB7005392
310
27A2FCCB80A18E5640D320F996A81C9F32D6E9129A0D1EF74FCE750E6D57BC7165FBCA07504B0304140006080800D6664750FBDDA5974301000056050000300000006662782F39443831464343452D453544302D343331392D424131312D4138393630343831424337452F636E782E786D6CCD94414EC3301045AF12596219
310
3B898A4095E34A2C38010BC4CE71A6C134F144F604D1DB6397B405A10A1695DA9D357E96FE9FF91EB9FA18FAEC1D7CB0E86A56F28265E00CB6D675359B689DDFB36CA5A447A46F18CB9C1EA066A9CC94EC3C4EE35C6A61ADA73E557BEB3673511379DB4C048165A6D721D42C98571834D713610B61C35B4D9A97DC43C0C91B
310
88EFC90E30BF371E3441CB545554455E547971F75456CBDBC572B1789122914A3688FDCC5B47E071BCA90A83F1E8A29C428A042839793B53C90353476DBCB14E8A78AF64887A5D3773B41D13378EBD359A62A3041A02CA23047A90E20B565224C73F7C3F3E3C1F35C4536B3D1842BFBD581BCA536D3848E33111FFEBC20EFC
310
CB3C366FD1F2E5E67ED2F02CEC6C76F7C90D31BABF9310F3A45DD75FE30738483B7FFEE362216BAED1F45ED9993C8BDD0A8C834F1B517D02504B0304140006080800D666475065D970737E000000A30000000B0000006662782F636E782E786D6C4D8CD10AC22018465F45FE7B4B6995823A3667EF319A1B92D3B0193D7E1A
310
BBE8EA83C3778E683FAB476F9B5E2E0609F44000D9708F930B8B84BCCD98016A9548316E7F3740615CAD848A418925C5FCDCD164E731FB4ABD0B8F1DF281D19BD6069BF3407073A21CF71DA5B863FC421A467B7D35C53856A5CCAF57B6E6D517504B0304140006080800D6664750A6D797065F000000820000000700000063
310
6E782E786D6C4DCB3B0E80201045D1AD90E9FD7516806B51190811670C8A61F982B1B0BAC9C97B72CA7B1037C6D3332918DA1E04D2CAC69353902EDB8C20262D23F3F59B81A079470595414B17391D1F19B4730A5583A7ED43BBE4025D9592775E5ADFFA01504B0304140006080800D6664750ECFD112DA800000026010000
310
130000005B436F6E74656E745F54797065735D2E786D6C7D4F4B0EC22010BD0A61DF525D18634ABB506FE00510A79458060253536F2FD89D5197F3FED3F68B9BD80362B21E25DFD40D6780DADF2C1AC9671AAA3D677DD75E9E0112CB5A4C928F44E12044D22338956A1F003333F8E814E5331A1194BE2B0362DB343BA13D12
310
2055543278D79E6050F344ECBC6478EDCD76CE8EABAE5449AE4298AC56946789C28AAFBEABC53F3EAF09A84A1441B91F0101CD4780756578C173A578FFDDBD00504B0304140006080800D66647503DEE336E64000000790000001B0000006175746F6465736B2D64657369676E2D7061636B6167652E786D6C35CBC10E8320
310
0C00D05F21DCA56CA76D41FC96062B120735B69A7DBE268BB7777961F8D5AF396893C2ADB70FE7ADA196782C2DF776D7A97B5933C430F15651E5469C55D70F80A4992A3ADC954792C525AE70A1E4D6AD9816CC044FEFDF01FE3FDE907802504B0304140006080800D666475093411755F30000008E0100003D000000666278
310
2F39443831464343452D453544302D343331392D424131312D4138393630343831424337452F7265736F75726365732F322F636F72652E786D6C8550CB6EC32010FC156BEFD898D23A89309193D65FD0536F0888831283C5A3EAE71762576A4F3DED6A76667677D8F16BBE579FDA07E36C0F6D8DA1D2563A65ECD4438A17B4
310
83EAC899772EFEA24165C5AC7B283070367997960D92CE466D0B6A9DD21B2842D0112A79CF4D0F415EF52C6A916266845BBD08791393AEDB7AE5719692519BD4A8EC662E467BE0BBFD79DC8D94204CDE4644E980D1E9DC6144073ABCD0FDE9B523843545CC5934F3CF76E9B5885A012798E0AC45B87B6FC9E1991E28FD604D
310
617216A2CF3F6F4BCB7799CE9A15FDE39616F5BF5B32363E91CD6D5504E06D3EEE31E0AC29E9E4F2882ED79224FF06504B0304140006080800D6664750991A7DD9F8000000960100003B0000006662782F39443831464343452D453544302D343331392D424131312D4138393630343831424337452F7265736F7572636573
310
2F636F72652E786D6C8550CB6E833010FC15B477C0B86E4922E388A4E50B7AEACD321B6225D8C88FAA9F5F3B50A93DF5B4ABD999D9DDE1C7AFF95E7CA2F3DA9A0E9A8A408146D9519BA983182EE50E8AA3E0CEDAF08B06859133769061107C72362E1BA4AC0968326AEC881B28BDC70085BAA7A603AFAE38CB4AC69018FE56
310
2D52DDE4845553AD3CC163D4E326D56372D3178D0EC46E7F1E7603A325A16F43C9584FCAD3B92525EB59FFC2F6A7D796525E67B1E041CF3FDB9543197004410925495B92F6BDA187677660EC83D79929B80F2EFDBC2DCDDF8170E86D740A3DAFD7E91FD7B88CFFBB466DC213DD5C578507D1A4231F03C1EB9C522A8F0853CD
310
898A6F504B0304140006080800D666475015E2B99DF3000000B1010000310000006662782F39443831464343452D453544302D343331392D424131312D4138393630343831424337452F636F72652E786D6C8D50CB6EC32010FC156BEFD8E0388D1361A2C471BFA0A7DE10100725068B47D5CF2FC4AED4DE725A343BC3CC0E
310
3D7E4F8FE24B39AFADE98094180A658495DA8C1DC470452D1447469DB5E10F0D0AC327D5418681D1D1D938AF90B02628935163A55A41EEBD0A5088477A74E0C54D4DBCE4312486BF973317773EAA92940B8FD1A0A75FA9708A072581D5B8C608D708EF3E487DD83687A6F9A45566321AA396AB9596C95D5FB572C0F69796BC
310
F7FD8086ED05A36643F6E87C22049DDAFD1B6E5A72EE7703ADB298511F5CBA79FD245FF7AA7C11FECB1C67F942666DC2A65E0D17850746529EE782D12A1798C6B3DD3473D9EC07504B0304140006080800D6664750E9DD7ADB53010000DD0200000C0000006662782F636F72652E786D6C8D52CB6E833010FC15E43B605CB7
310
4923E328499B2FE8A937C738D40AD8C8D8289FDFE525CAA1698564ACD99DD9D991D9FE5E5751A75CABADC95196601429236DA14D99A3E0AFF116457BCE9CB5FE471B8A8CA8558E7A1871563A1B9A0992D678657AD4D8424DA0685BE551242BB8E4A8955FAA1689081E3ADA5BD2087913A54AB264ECE32C045D4C545D809ABE
310
6AE510DFBE9ECEDB33253126EFE798D2038E8FA70D8EE9811E5EE8EBF16D43084B7B32675ED7F374E994F0AA409C6082811BE3CD474676CF7447E9274BFB4ECE5AEF60E76968BF1DE2D7CB9DA523BED20B4DF1B75ED0C63F91496F64B48867606F287096F6F9C06F086F9D210C86FCBCB854F30A37803A25BD75142A850D4B
310
A9135550208DA3E163E95805E541E0371DF240E7B10604254C09D68487EB25F87EFADA53A35CDCF97B64ACAB45B5981B2D2EE73268B5D24C97B6B2EE3FEC79D539CCB47F98FC1B504B0304140006080800D6664750137128BE06010000B201000008000000636F72652E786D6C8D50CB6EC32010FC15B477DB98D23A893091
310
93D65FD0536FD41017C5068B47D4FE7D2176A5F6D6D3A279EC0CCB8E9FF3846ECA796D4D0B758901293358A9CDD8420C976207E8C899B336FC92013262562D6418381B9D8DCB060DD60465326AAC541B28BC5701D030A5470B7EF850B328450C49E1AFE52286AB18555997AB8EB3A0E71FEBE094084A022798E002930237AF
310
35393CD203A56FACCA4ACE62D4728BD232A5EB8B560EF86E7FEE773D4D1EF2D2179476B8389D1B5CD08E764F747F7A6E0861553673E6834B7FDE96A49E017971CBB9AC5A29CEDEAD9D36412A259135D31770CCAA4CFC291D17F98FD2DA8407B22D5C1D1E789D0ADD89149C2F98C6FDBC69E66BF36F504B0102140014000608
310
0800D66647500000000000000000000000003700000000000000000000000000000000006662782F39443831464343452D453544302D343331392D424131312D4138393630343831424337452F617474726962757465732E62696E504B01021400140006080800D66647500000000000000000000000003500000000000000
310
000000000000550000006662782F39443831464343452D453544302D343331392D424131312D4138393630343831424337452F76657274696365732E62696E504B01021400140006080800D6664750F270F13306000000040000003600000000000000000000000000A80000006662782F39443831464343452D453544302D
310
343331392D424131312D4138393630343831424337452F747269616E676C65732E62696E504B01021400140006080800D666475088E57597CD3F0000904100004200000000000000000000000000020100006662782F39443831464343452D453544302D343331392D424131312D4138393630343831424337452F7265736F
310
75726365732F322F305F67656E657269632E706E67504B01021400140006080800D666475051464CB4890000004301000036000000000000000000000000002F4100006662782F39443831464343452D453544302D343331392D424131312D4138393630343831424337452F6469726563746F72792E786D6C504B01021400
310
140006080800D6664750488FF8873E070000541C000034000000000000000000000000000C4200006662782F39443831464343452D453544302D343331392D424131312D4138393630343831424337452F6F626A656374732E786D6C504B01021400140006080800D6664750C0E8C65EE1000000550100003C000000000000
310
000000000000009C4900006662782F39443831464343452D453544302D343331392D424131312D4138393630343831424337452F7265736F75726365732F322F636E782E786D6C504B01021400140006080800D6664750FF15A4A45D000000800000003A00000000000000000000000000D74A00006662782F394438314643
310
43452D453544302D343331392D424131312D4138393630343831424337452F7265736F75726365732F636E782E786D6C504B01021400140006080800D6664750FBDDA597430100005605000030000000000000000000000000008C4B00006662782F39443831464343452D453544302D343331392D424131312D4138393630
310
343831424337452F636E782E786D6C504B01021400140006080800D666475065D970737E000000A30000000B000000000000000000000000001D4D00006662782F636E782E786D6C504B01021400140006080800D6664750A6D797065F000000820000000700000000000000000000000000C44D0000636E782E786D6C504B
310
01021400140006080800D6664750ECFD112DA8000000260100001300000000000000000000000000484E00005B436F6E74656E745F54797065735D2E786D6C504B01021400140006080800D66647503DEE336E64000000790000001B00000000000000000000000000214F00006175746F6465736B2D64657369676E2D7061
310
636B6167652E786D6C504B01021400140006080800D666475093411755F30000008E0100003D00000000000000000000000000BE4F00006662782F39443831464343452D453544302D343331392D424131312D4138393630343831424337452F7265736F75726365732F322F636F72652E786D6C504B010214001400060808
310
00D6664750991A7DD9F8000000960100003B000000000000000000000000000C5100006662782F39443831464343452D453544302D343331392D424131312D4138393630343831424337452F7265736F75726365732F636F72652E786D6C504B01021400140006080800D666475015E2B99DF3000000B10100003100000000
310
0000000000000000005D5200006662782F39443831464343452D453544302D343331392D424131312D4138393630343831424337452F636F72652E786D6C504B01021400140006080800D6664750E9DD7ADB53010000DD0200000C000000000000000000000000009F5300006662782F636F72652E786D6C504B0102140014
310
0006080800D6664750137128BE06010000B201000008000000000000000000000000001C550000636F72652E786D6C504B050600000000120012002D060000485600000000
  0
XRECORD
  5
86E97
102
{ACAD_REACTORS
330
86E92
102
}
330
86E92
100
AcDbXrecord
280
     1
270
     1
271
     1
  0
XRECORD
  5
86E96
102
{ACAD_REACTORS
330
86E92
102
}
330
86E92
100
AcDbXrecord
280
     1
270
     1
271
     1
  0
XRECORD
  5
86E98
102
{ACAD_REACTORS
330
86E92
102
}
330
86E92
100
AcDbXrecord
280
     1
270
     1
271
     1
  0
XRECORD
  5
86E95
102
{ACAD_REACTORS
330
86E92
102
}
330
86E92
100
AcDbXrecord
280
     1
270
     1
271
     1
  0
XRECORD
  5
A7DFB
102
{ACAD_REACTORS
330
A7DFA
102
}
330
A7DFA
100
AcDbXrecord
280
     1
102
DISPLAYNAME
  1
Imperial24
102
FLAGS
 90
        0
  0
XRECORD
  5
A7DFF
102
{ACAD_REACTORS
330
A7DFE
102
}
330
A7DFE
100
AcDbXrecord
280
     1
102
DISPLAYNAME
  1
Metric50
102
FLAGS
 90
        0
  0
CELLSTYLEMAP
  5
A7DF0
102
{ACAD_REACTORS
330
86F00
102
}
330
86F00
100
AcDbCellStyleMap
 90
        3
300
CELLSTYLE
  1
TABLEFORMAT_BEGIN
 90
        5
170
     1
 91
        0
 92
    32768
 62
   257
 93
        1
300
CONTENTFORMAT
  1
CONTENTFORMAT_BEGIN
 90
        0
 91
        0
 92
      512
 93
        0
300

 40
0.0
140
1.0
 94
        5
 62
     0
340
11
144
0.25
309
CONTENTFORMAT_END
171
     1
301
MARGIN
  1
CELLMARGIN_BEGIN
 40
0.06
 40
0.06
 40
0.06
 40
0.06
 40
0.18
 40
0.18
309
CELLMARGIN_END
 94
        6
 95
        1
302
GRIDFORMAT
  1
GRIDFORMAT_BEGIN
 90
        0
 91
        1
 62
     0
 92
       -2
340
0
 93
        0
 40
0.045
309
GRIDFORMAT_END
 95
        2
302
GRIDFORMAT
  1
GRIDFORMAT_BEGIN
 90
        0
 91
        1
 62
     0
 92
       -2
340
0
 93
        0
 40
0.045
309
GRIDFORMAT_END
 95
        4
302
GRIDFORMAT
  1
GRIDFORMAT_BEGIN
 90
        0
 91
        1
 62
     0
 92
       -2
340
0
 93
        0
 40
0.045
309
GRIDFORMAT_END
 95
        8
302
GRIDFORMAT
  1
GRIDFORMAT_BEGIN
 90
        0
 91
        1
 62
     0
 92
       -2
340
0
 93
        0
 40
0.045
309
GRIDFORMAT_END
 95
       16
302
GRIDFORMAT
  1
GRIDFORMAT_BEGIN
 90
        0
 91
        1
 62
     0
 92
       -2
340
0
 93
        0
 40
0.045
309
GRIDFORMAT_END
 95
       32
302
GRIDFORMAT
  1
GRIDFORMAT_BEGIN
 90
        0
 91
        1
 62
     0
 92
       -2
340
0
 93
        0
 40
0.045
309
GRIDFORMAT_END
309
TABLEFORMAT_END
  1
CELLSTYLE_BEGIN
 90
        1
 91
        1
300
_TITLE
309
CELLSTYLE_END
300
CELLSTYLE
  1
TABLEFORMAT_BEGIN
 90
        5
170
     1
 91
        0
 92
        0
 62
   257
 93
        1
300
CONTENTFORMAT
  1
CONTENTFORMAT_BEGIN
 90
        0
 91
        0
 92
      512
 93
        0
300

 40
0.0
140
1.0
 94
        5
 62
     0
340
11
144
0.18
309
CONTENTFORMAT_END
171
     1
301
MARGIN
  1
CELLMARGIN_BEGIN
 40
0.06
 40
0.06
 40
0.06
 40
0.06
 40
0.18
 40
0.18
309
CELLMARGIN_END
 94
        6
 95
        1
302
GRIDFORMAT
  1
GRIDFORMAT_BEGIN
 90
        0
 91
        1
 62
     0
 92
       -2
340
0
 93
        0
 40
0.045
309
GRIDFORMAT_END
 95
        2
302
GRIDFORMAT
  1
GRIDFORMAT_BEGIN
 90
        0
 91
        1
 62
     0
 92
       -2
340
0
 93
        0
 40
0.045
309
GRIDFORMAT_END
 95
        4
302
GRIDFORMAT
  1
GRIDFORMAT_BEGIN
 90
        0
 91
        1
 62
     0
 92
       -2
340
0
 93
        0
 40
0.045
309
GRIDFORMAT_END
 95
        8
302
GRIDFORMAT
  1
GRIDFORMAT_BEGIN
 90
        0
 91
        1
 62
     0
 92
       -2
340
0
 93
        0
 40
0.045
309
GRIDFORMAT_END
 95
       16
302
GRIDFORMAT
  1
GRIDFORMAT_BEGIN
 90
        0
 91
        1
 62
     0
 92
       -2
340
0
 93
        0
 40
0.045
309
GRIDFORMAT_END
 95
       32
302
GRIDFORMAT
  1
GRIDFORMAT_BEGIN
 90
        0
 91
        1
 62
     0
 92
       -2
340
0
 93
        0
 40
0.045
309
GRIDFORMAT_END
309
TABLEFORMAT_END
  1
CELLSTYLE_BEGIN
 90
        2
 91
        1
300
_HEADER
309
CELLSTYLE_END
300
CELLSTYLE
  1
TABLEFORMAT_BEGIN
 90
        5
170
     1
 91
        0
 92
        0
 62
   257
 93
        1
300
CONTENTFORMAT
  1
CONTENTFORMAT_BEGIN
 90
        0
 91
        0
 92
      512
 93
        0
300

 40
0.0
140
1.0
 94
        2
 62
     0
340
11
144
0.18
309
CONTENTFORMAT_END
171
     1
301
MARGIN
  1
CELLMARGIN_BEGIN
 40
0.06
 40
0.06
 40
0.06
 40
0.06
 40
0.18
 40
0.18
309
CELLMARGIN_END
 94
        6
 95
        1
302
GRIDFORMAT
  1
GRIDFORMAT_BEGIN
 90
        0
 91
        1
 62
     0
 92
       -2
340
0
 93
        0
 40
0.045
309
GRIDFORMAT_END
 95
        2
302
GRIDFORMAT
  1
GRIDFORMAT_BEGIN
 90
        0
 91
        1
 62
     0
 92
       -2
340
0
 93
        0
 40
0.045
309
GRIDFORMAT_END
 95
        4
302
GRIDFORMAT
  1
GRIDFORMAT_BEGIN
 90
        0
 91
        1
 62
     0
 92
       -2
340
0
 93
        0
 40
0.045
309
GRIDFORMAT_END
 95
        8
302
GRIDFORMAT
  1
GRIDFORMAT_BEGIN
 90
        0
 91
        1
 62
     0
 92
       -2
340
0
 93
        0
 40
0.045
309
GRIDFORMAT_END
 95
       16
302
GRIDFORMAT
  1
GRIDFORMAT_BEGIN
 90
        0
 91
        1
 62
     0
 92
       -2
340
0
 93
        0
 40
0.045
309
GRIDFORMAT_END
 95
       32
302
GRIDFORMAT
  1
GRIDFORMAT_BEGIN
 90
        0
 91
        1
 62
     0
 92
       -2
340
0
 93
        0
 40
0.045
309
GRIDFORMAT_END
309
TABLEFORMAT_END
  1
CELLSTYLE_BEGIN
 90
        3
 91
        2
300
_DATA
309
CELLSTYLE_END
  0
ENDSEC
  0
SECTION
  2
ACDSDATA
 70
     2
 71
     8
  0
ACDSSCHEMA
 90
        0
  1
AcDb_Thumbnail_Schema
  2
AcDbDs::ID
280
    10
 91
        8
  2
Thumbnail_Data
280
    15
 91
        0
101
ACDSRECORD
 95
        0
 90
        1
  2
AcDbDs::TreatedAsObjectData
280
     1
291
     1
101
ACDSRECORD
 95
        0
 90
        2
  2
AcDbDs::Legacy
280
     1
291
     1
101
ACDSRECORD
  1
AcDbDs::ID
 90
        3
  2
AcDs:Indexable
280
     1
291
     1
101
ACDSRECORD
  1
AcDbDs::ID
 90
        4
  2
AcDbDs::HandleAttribute
280
     7
282
     1
  0
ACDSSCHEMA
 90
        1
  1
AcDbDs::TreatedAsObjectDataSchema
  2
AcDbDs::TreatedAsObjectData
280
     1
 91
        0
  0
ACDSSCHEMA
 90
        2
  1
AcDbDs::LegacySchema
  2
AcDbDs::Legacy
280
     1
 91
        0
  0
ACDSSCHEMA
 90
        3
  1
AcDbDs::IndexedPropertySchema
  2
AcDs:Indexable
280
     1
 91
        0
  0
ACDSSCHEMA
 90
        4
  1
AcDbDs::HandleAttributeSchema
  2
AcDbDs::HandleAttribute
280
     7
 91
        1
284
     1
  0
ACDSRECORD
 90
        0
  2
AcDbDs::ID
280
    10
320
851A5
  2
Thumbnail_Data
280
    15
 94
     2009
310
89504E470D0A1A0A0000000D494844520000010000000096080300000006E4A6BE00000300504C5445212830FFFFFF2128300000000000000000000000000000000000000000000000000000330000660000990000CC0000FF0033000033330033660033990033CC0033FF0066000066330066660066990066CC0066FF0099
310
000099330099660099990099CC0099FF00CC0000CC3300CC6600CC9900CCCC00CCFF00FF0000FF3300FF6600FF9900FFCC00FFFF3300003300333300663300993300CC3300FF3333003333333333663333993333CC3333FF3366003366333366663366993366CC3366FF3399003399333399663399993399CC3399FF33CC00
310
33CC3333CC6633CC9933CCCC33CCFF33FF0033FF3333FF6633FF9933FFCC33FFFF6600006600336600666600996600CC6600FF6633006633336633666633996633CC6633FF6666006666336666666666996666CC6666FF6699006699336699666699996699CC6699FF66CC0066CC3366CC6666CC9966CCCC66CCFF66FF0066
310
FF3366FF6666FF9966FFCC66FFFF9900009900339900669900999900CC9900FF9933009933339933669933999933CC9933FF9966009966339966669966999966CC9966FF9999009999339999669999999999CC9999FF99CC0099CC3399CC6699CC9999CCCC99CCFF99FF0099FF3399FF6699FF9999FFCC99FFFFCC0000CC00
310
33CC0066CC0099CC00CCCC00FFCC3300CC3333CC3366CC3399CC33CCCC33FFCC6600CC6633CC6666CC6699CC66CCCC66FFCC9900CC9933CC9966CC9999CC99CCCC99FFCCCC00CCCC33CCCC66CCCC99CCCCCCCCCCFFCCFF00CCFF33CCFF66CCFF99CCFFCCCCFFFFFF0000FF0033FF0066FF0099FF00CCFF00FFFF3300FF3333
310
FF3366FF3399FF33CCFF33FFFF6600FF6633FF6666FF6699FF66CCFF66FFFF9900FF9933FF9966FF9999FF99CCFF99FFFFCC00FFCC33FFCC66FFCC99FFCCCCFFCCFFFFFF00FFFF33FFFF66FFFF99FFFFCCFFFFFF0000000D0D0D1A1A1A2828283535354343435050505D5D5D6B6B6B787878868686939393A1A1A1AEAEAEBB
310
BBBBC9C9C9D6D6D6E4E4E4F1F1F1FFFFFF0000000000000000000000000000000000000000000000000000000000002E4550F1000004944944415478DAED9B4772C3300C45FF0D780D6E70FF192DBCC98EA78A0A09921255AC66167C671CB945C1130002900588CA56876EF8E9DCB6D5B435BDC3BED8D50C0093D160EBFBED
310
E0D9AA01747CACF9C87B5770CFC261A814009C8D6C77876E1117922F4422914824128944229148241289442291482412894422914824CA4E7F024000080001704D267313F54999E3CADBFEFE3648A9F13EFD26957EA9C750BE07E86BAA00C0786C15B43AA32A0058539621A0A22418BE34C64B7F570B80C1981500F821001A
310
6EE4EE31DCB330FEB81709F6C1B4ED3E0AF77007C06852861E1001204C3645B6F12FF093F6A3CC096503080CB656C15B165939F300B7FD2A00723776CAEB00BCD16B1E00E701709BD3AE89FCE3B700044E3902B8EA01FE381279200E005C2A8800D86CC1805EF6802045F1BEB35E058652E656001C7D1C8E4F03F0E1E177EA
310
83706715D0FA460FA0A5DE01008AC203D1D2487B65E05D00D6F7F43400C489876B025E3D8E02F85E0100FA5925480085A11704E38B1E403F2A85E9A01E06B08D398755801E0540F937430F02D8AF35B2A803E82C80BD6EF040BB954721440F79C0BEFDB95482B452075E034007DAC18C01DC5908E53F11A2273CA0A89118B5
310
0E2045601602AA7100177A8132A6C254A20790FB39341586EF865253617A7B15B87E6A90078D7E26C8B3B2D4549836A7C2EF0318185CEDF7E2010F0F03293515C6CE5498EE2E8571C005AE7A008FC1230F40722A0CDA990A537121108FC579E0BE3215C6EE54980A03F0E84AD01742EAE942E87900D149033F150685E7CAD2
310
047AFBD5B339E00D0F8801F88C68A361CB077AFB2B08013E4F18240472676608DB006AE80609341F0B07A3F2CD34B000505C2F70722A4C2B00EAED05285D11F649B0996E30D913683CBF0CE63312A3A40BE85627423E11B63A11A206014461D02480C809C8668167DBE1DC00844E40377F43A40C008113901EBF26DB1C0076
310
024D4A115A0B8130FCD55024B71702EC049501305F3B416F7204E0D297A47E0EC07C2B9AEEA9550F18C2400D8ED02E00E87160522B80037BD5C33CA59E3AC09C4A09630ED8BA64E67B00C6CCFF977C3DC0E580D1949B0098C59980EC018CA340F891985A05A002006A0D80290680D11680AD0BEFAB038A01A0353C80E170EF
310
5BBC7BE164491E608782DA037006FA37C5578F0F2FFDD9DFE3C5963AF9570B0230F9C17999A243C001704160BD41E1C295F2890BE633ED05525A5C0DFE196FD1D27115477E1EB0F5A1CFE7EFF3D9DA510D21B0FDA185FDF8817BFF12C01F4A00302B3F0FC6DD21002805004CDC8E3406C034EE01587C1FB36D0066D192B716
310
02682F045ACF018B2488B697418807B45D07DC590A97E20167FE9514003385CFC8D377B3C183629AA1D300BC9593E90E0082AD2C01E02E00980170EEC05BB503E0218E37BF210F28B717B81580E16460F8E0FB74D8040036DE0298E5C72600F8E5108E4743009C1304A1602409B69304434740A2C836F04B65D100E63DC471
310
006E02513C006C0330B346DB034865C40A3DC0AC7A402D00B098236479E2F3B921C27C9ADAF82AF046139E290601200004800010000240002C4AA5BDD36C4D0040BB00782ED47808549D032E7FBD5656813BF40FE09EF25E964E32530000000049454E44AE426082
  0
ENDSEC
  0
EOF
