  0
SECTION
  2
HEADER
  9
$ACADVER
  1
AC1027
  9
$ACADMAINTVER
 70
   125
  9
$DWGCODEPAGE
  3
ANSI_932
  9
$LASTSAVEDBY
  1
SERIZAH
  9
$REQUIREDVERSIONS
160
                 0
  9
$INSBASE
 10
0.0
 20
0.0
 30
0.0
  9
$EXTMIN
 10
-812.0301867334292
 20
-476.1959252161104
 30
-0.0000000000112498
  9
$EXTMAX
 10
1235.27773343604
 20
611.2421971211915
 30
0.0000000000002956
  9
$LIMMIN
 10
-1249.479608370413
 20
-758.4627269689661
  9
$LIMMAX
 10
1273.505948089114
 20
1166.87415941288
  9
$ORTHOMODE
 70
     0
  9
$REGENMODE
 70
     1
  9
$FILLMODE
 70
     1
  9
$QTEXTMODE
 70
     0
  9
$MIRRTEXT
 70
     0
  9
$LTSCALE
 40
50.0
  9
$ATTMODE
 70
     1
  9
$TEXTSIZE
 40
45.0
  9
$TRACEWID
 40
0.05
  9
$TEXTSTYLE
  7
STANDARD
  9
$CLAYER
  8
OUTLINE
  9
$CELTYPE
  6
BYLAYER
  9
$CECOLOR
 62
   256
  9
$CELTSCALE
 40
1.0
  9
$DISPSILH
 70
     0
  9
$DIMSCALE
 40
1.0
  9
$DIMASZ
 40
10.0
  9
$DIMEXO
 40
10.0
  9
$DIMDLI
 40
200.0
  9
$DIMRND
 40
0.0
  9
$DIMDLE
 40
0.0
  9
$DIMEXE
 40
10.0
  9
$DIMTP
 40
0.0
  9
$DIMTM
 40
0.0
  9
$DIMTXT
 40
45.0
  9
$DIMCEN
 40
0.082
  9
$DIMTSZ
 40
0.0
  9
$DIMTOL
 70
     0
  9
$DIMLIM
 70
     0
  9
$DIMTIH
 70
     0
  9
$DIMTOH
 70
     0
  9
$DIMSE1
 70
     0
  9
$DIMSE2
 70
     0
  9
$DIMTAD
 70
     1
  9
$DIMZIN
 70
     8
  9
$DIMBLK
  1
ORIGIN
  9
$DIMASO
 70
     1
  9
$DIMSHO
 70
     0
  9
$DIMPOST
  1

  9
$DIMAPOST
  1

  9
$DIMALT
 70
     0
  9
$DIMALTD
 70
     2
  9
$DIMALTF
 40
25.4
  9
$DIMLFAC
 40
1.0
  9
$DIMTOFL
 70
     1
  9
$DIMTVP
 40
0.0
  9
$DIMTIX
 70
     0
  9
$DIMSOXD
 70
     0
  9
$DIMSAH
 70
     0
  9
$DIMBLK1
  1

  9
$DIMBLK2
  1

  9
$DIMSTYLE
  2
STANDARD
  9
$DIMCLRD
 70
   256
  9
$DIMCLRE
 70
   256
  9
$DIMCLRT
 70
   256
  9
$DIMTFAC
 40
1.0
  9
$DIMGAP
 40
10.0
  9
$DIMJUST
 70
     0
  9
$DIMSD1
 70
     0
  9
$DIMSD2
 70
     0
  9
$DIMTOLJ
 70
     1
  9
$DIMTZIN
 70
     0
  9
$DIMALTZ
 70
     0
  9
$DIMALTTZ
 70
     0
  9
$DIMUPT
 70
     0
  9
$DIMDEC
 70
     3
  9
$DIMTDEC
 70
     3
  9
$DIMALTU
 70
     2
  9
$DIMALTTD
 70
     2
  9
$DIMTXSTY
  7
STANDARD
  9
$DIMAUNIT
 70
     0
  9
$DIMADEC
 70
     0
  9
$DIMALTRND
 40
0.0
  9
$DIMAZIN
 70
     0
  9
$DIMDSEP
 70
    46
  9
$DIMATFIT
 70
     3
  9
$DIMFRAC
 70
     0
  9
$DIMLDRBLK
  1
ORIGIN
  9
$DIMLUNIT
 70
     2
  9
$DIMLWD
 70
    -1
  9
$DIMLWE
 70
    -1
  9
$DIMTMOVE
 70
     0
  9
$DIMFXL
 40
1.0
  9
$DIMFXLON
 70
     0
  9
$DIMJOGANG
 40
0.7853981633974483
  9
$DIMTFILL
 70
     0
  9
$DIMTFILLCLR
 70
     0
  9
$DIMARCSYM
 70
     0
  9
$DIMLTYPE
  6
BYLAYER
  9
$DIMLTEX1
  6
BYLAYER
  9
$DIMLTEX2
  6
BYLAYER
  9
$DIMTXTDIRECTION
 70
     0
  9
$LUNITS
 70
     2
  9
$LUPREC
 70
     1
  9
$SKETCHINC
 40
0.1
  9
$FILLETRAD
 40
3.0
  9
$AUNITS
 70
     1
  9
$AUPREC
 70
     3
  9
$MENU
  1
ACAD
  9
$ELEVATION
 40
0.0
  9
$PELEVATION
 40
0.0
  9
$THICKNESS
 40
0.0
  9
$LIMCHECK
 70
     0
  9
$CHAMFERA
 40
0.0
  9
$CHAMFERB
 40
0.0
  9
$CHAMFERC
 40
0.0
  9
$CHAMFERD
 40
0.0
  9
$SKPOLY
 70
     0
  9
$TDCREATE
 40
2450330.393194445
  9
$TDUCREATE
 40
2450330.018205995
  9
$TDUPDATE
 40
2459424.704513889
  9
$TDUUPDATE
 40
2459424.329513889
  9
$TDINDWG
 40
5.3775946065
  9
$TDUSRTIMER
 40
5.3775897801
  9
$USRTIMER
 70
     1
  9
$ANGBASE
 50
0.0
  9
$ANGDIR
 70
     0
  9
$PDMODE
 70
     3
  9
$PDSIZE
 40
-2.0
  9
$PLINEWID
 40
0.0
  9
$SPLFRAME
 70
     0
  9
$SPLINETYPE
 70
     6
  9
$SPLINESEGS
 70
     8
  9
$HANDSEED
  5
A776E
  9
$SURFTAB1
 70
     6
  9
$SURFTAB2
 70
     6
  9
$SURFTYPE
 70
     6
  9
$SURFU
 70
     6
  9
$SURFV
 70
     6
  9
$UCSBASE
  2

  9
$UCSNAME
  2

  9
$UCSORG
 10
0.0
 20
0.0
 30
0.0
  9
$UCSXDIR
 10
1.0
 20
0.0
 30
0.0
  9
$UCSYDIR
 10
0.0
 20
1.0
 30
0.0
  9
$UCSORTHOREF
  2

  9
$UCSORTHOVIEW
 70
     0
  9
$UCSORGTOP
 10
0.0
 20
0.0
 30
0.0
  9
$UCSORGBOTTOM
 10
0.0
 20
0.0
 30
0.0
  9
$UCSORGLEFT
 10
0.0
 20
0.0
 30
0.0
  9
$UCSORGRIGHT
 10
0.0
 20
0.0
 30
0.0
  9
$UCSORGFRONT
 10
0.0
 20
0.0
 30
0.0
  9
$UCSORGBACK
 10
0.0
 20
0.0
 30
0.0
  9
$PUCSBASE
  2

  9
$PUCSNAME
  2

  9
$PUCSORG
 10
0.0
 20
0.0
 30
0.0
  9
$PUCSXDIR
 10
1.0
 20
0.0
 30
0.0
  9
$PUCSYDIR
 10
0.0
 20
1.0
 30
0.0
  9
$PUCSORTHOREF
  2

  9
$PUCSORTHOVIEW
 70
     0
  9
$PUCSORGTOP
 10
0.0
 20
0.0
 30
0.0
  9
$PUCSORGBOTTOM
 10
0.0
 20
0.0
 30
0.0
  9
$PUCSORGLEFT
 10
0.0
 20
0.0
 30
0.0
  9
$PUCSORGRIGHT
 10
0.0
 20
0.0
 30
0.0
  9
$PUCSORGFRONT
 10
0.0
 20
0.0
 30
0.0
  9
$PUCSORGBACK
 10
0.0
 20
0.0
 30
0.0
  9
$USERI1
 70
     0
  9
$USERI2
 70
     0
  9
$USERI3
 70
     0
  9
$USERI4
 70
     0
  9
$USERI5
 70
     0
  9
$USERR1
 40
20.0
  9
$USERR2
 40
0.0
  9
$USERR3
 40
0.0
  9
$USERR4
 40
0.0
  9
$USERR5
 40
0.0
  9
$WORLDVIEW
 70
     1
  9
$SHADEDGE
 70
     3
  9
$SHADEDIF
 70
    70
  9
$TILEMODE
 70
     1
  9
$MAXACTVP
 70
    64
  9
$PINSBASE
 10
0.0
 20
0.0
 30
0.0
  9
$PLIMCHECK
 70
     0
  9
$PEXTMIN
 10
1.000000000000000E+20
 20
1.000000000000000E+20
 30
1.000000000000000E+20
  9
$PEXTMAX
 10
-1.000000000000000E+20
 20
-1.000000000000000E+20
 30
-1.000000000000000E+20
  9
$PLIMMIN
 10
0.0
 20
0.0
  9
$PLIMMAX
 10
12.0
 20
9.0
  9
$UNITMODE
 70
     0
  9
$VISRETAIN
 70
     1
  9
$PLINEGEN
 70
     0
  9
$PSLTSCALE
 70
     1
  9
$TREEDEPTH
 70
  3020
  9
$CMLSTYLE
  2
STANDARD
  9
$CMLJUST
 70
     0
  9
$CMLSCALE
 40
1.0
  9
$PROXYGRAPHICS
 70
     1
  9
$MEASUREMENT
 70
     0
  9
$CELWEIGHT
370
    -1
  9
$ENDCAPS
280
     0
  9
$JOINSTYLE
280
     0
  9
$LWDISPLAY
290
     1
  9
$INSUNITS
 70
     0
  9
$HYPERLINKBASE
  1

  9
$STYLESHEET
  1
MONOCHROME.CTB
  9
$XEDIT
290
     1
  9
$CEPSNTYPE
380
     0
  9
$PSTYLEMODE
290
     1
  9
$FINGERPRINTGUID
  2
{97DA8DB6-C4F0-4C3D-ABEB-53C4FBBC7EFF}
  9
$VERSIONGUID
  2
{8553CD41-34FB-B54B-9DF5-E4CE485FC7E6}
  9
$EXTNAMES
290
     1
  9
$PSVPSCALE
 40
0.0
  9
$OLESTARTUP
290
     0
  9
$SORTENTS
280
   127
  9
$INDEXCTL
280
     0
  9
$HIDETEXT
280
     0
  9
$XCLIPFRAME
280
     2
  9
$HALOGAP
280
     0
  9
$OBSCOLOR
 70
   257
  9
$OBSLTYPE
280
     0
  9
$INTERSECTIONDISPLAY
280
     0
  9
$INTERSECTIONCOLOR
 70
   257
  9
$DIMASSOC
280
     1
  9
$PROJECTNAME
  1

  9
$CAMERADISPLAY
290
     0
  9
$LENSLENGTH
 40
50.0
  9
$CAMERAHEIGHT
 40
0.0
  9
$STEPSPERSEC
 40
2.0
  9
$STEPSIZE
 40
6.0
  9
$3DDWFPREC
 40
2.0
  9
$PSOLWIDTH
 40
0.25
  9
$PSOLHEIGHT
 40
4.0
  9
$LOFTANG1
 40
1.570795999999999
  9
$LOFTANG2
 40
1.570795999999999
  9
$LOFTMAG1
 40
0.0
  9
$LOFTMAG2
 40
0.0
  9
$LOFTPARAM
 70
     7
  9
$LOFTNORMALS
280
     1
  9
$LATITUDE
 40
37.795
  9
$LONGITUDE
 40
-122.394
  9
$NORTHDIRECTION
 40
0.0
  9
$TIMEZONE
 70
 -8000
  9
$LIGHTGLYPHDISPLAY
280
     1
  9
$TILEMODELIGHTSYNCH
280
     1
  9
$CMATERIAL
347
86E81
  9
$SOLIDHIST
280
     0
  9
$SHOWHIST
280
     1
  9
$DWFFRAME
280
     2
  9
$DGNFRAME
280
     0
  9
$REALWORLDSCALE
290
     1
  9
$INTERFERECOLOR
 62
     1
  9
$INTERFEREOBJVS
345
86EA3
  9
$INTERFEREVPVS
346
86EA0
  9
$CSHADOW
280
     0
  9
$SHADOWPLANELOCATION
 40
0.0
  0
ENDSEC
  0
SECTION
  2
CLASSES
  0
CLASS
  1
ACDBDICTIONARYWDFLT
  2
AcDbDictionaryWithDefault
  3
ObjectDBX Classes
 90
        0
 91
        1
280
     0
281
     0
  0
CLASS
  1
MATERIAL
  2
AcDbMaterial
  3
ObjectDBX Classes
 90
     1153
 91
        3
280
     0
281
     0
  0
CLASS
  1
VISUALSTYLE
  2
AcDbVisualStyle
  3
ObjectDBX Classes
 90
     4095
 91
       24
280
     0
281
     0
  0
CLASS
  1
TABLESTYLE
  2
AcDbTableStyle
  3
ObjectDBX Classes
 90
     4095
 91
        1
280
     0
281
     0
  0
CLASS
  1
SCALE
  2
AcDbScale
  3
ObjectDBX Classes
 90
     1153
 91
       17
280
     0
281
     0
  0
CLASS
  1
MLEADERSTYLE
  2
AcDbMLeaderStyle
  3
ACDB_MLEADERSTYLE_CLASS
 90
     4095
 91
        1
280
     0
281
     0
  0
CLASS
  1
ACDBSECTIONVIEWSTYLE
  2
AcDbSectionViewStyle
  3
ObjectDBX Classes
 90
     1025
 91
        2
280
     0
281
     0
  0
CLASS
  1
ACDBDETAILVIEWSTYLE
  2
AcDbDetailViewStyle
  3
ObjectDBX Classes
 90
     1025
 91
        2
280
     0
281
     0
  0
CLASS
  1
DICTIONARYVAR
  2
AcDbDictionaryVar
  3
ObjectDBX Classes
 90
        0
 91
       13
280
     0
281
     0
  0
CLASS
  1
CELLSTYLEMAP
  2
AcDbCellStyleMap
  3
ObjectDBX Classes
 90
     1152
 91
        4
280
     0
281
     0
  0
CLASS
  1
SORTENTSTABLE
  2
AcDbSortentsTable
  3
ObjectDBX Classes
 90
        0
 91
        1
280
     0
281
     0
  0
CLASS
  1
SOLID_BACKGROUND
  2
AcDbSolidBackground
  3
SCENEOE
 90
     4095
 91
        0
280
     0
281
     0
  0
CLASS
  1
NPOCOLLECTION
  2
AcDbImpNonPersistentObjectsCollection
  3
ObjectDBX Classes
 90
     1153
 91
        0
280
     0
281
     0
  0
CLASS
  1
AMGSETTINGSOBJ
  2
AmgSettingsObj
  3
"AcadM|Product Description: AutoCAD Mechanical|Company: Autodesk, Inc."
 90
     1024
 91
        0
280
     0
281
     0
  0
CLASS
  1
ACME_DOCUMENT
  2
AcMeDbDoc
  3
AcMeServices
 90
     1024
 91
        0
280
     0
281
     0
  0
CLASS
  1
ACMESCOPE
  2
AcMeScope
  3
AcMeServices
 90
     1024
 91
        0
280
     0
281
     0
  0
CLASS
  1
ACMECOMMANDHISTORY
  2
AcMeCommandHistory
  3
AcMeServices
 90
     1024
 91
        0
280
     0
281
     0
  0
CLASS
  1
ACIMSYSVARMAN
  2
AcImSysVarManager
  3
AcMeServices
 90
     1024
 91
        0
280
     0
281
     0
  0
CLASS
  1
ACIMINTSYSVAR
  2
AcImIntSysVar
  3
AcMeServices
 90
     1024
 91
        0
280
     0
281
     0
  0
CLASS
  1
ACMESTATEMGR
  2
AcMeStateMgr
  3
AcMeServices
 90
     1024
 91
        0
280
     0
281
     0
  0
CLASS
  1
ACDBENTITYCACHE
  2
AcMeEntityCache
  3
AcMeServices
 90
     1024
 91
        0
280
     0
281
     0
  0
CLASS
  1
ACGREFMASTER
  2
AcGrefMaster
  3
AcAttribServices
 90
     1024
 91
        0
280
     0
281
     0
  0
CLASS
  1
ACME_DATABASE
  2
AcMeDbDatabase
  3
AcMeServices
 90
     1024
 91
        0
280
     0
281
     0
  0
CLASS
  1
ACRFINSADJUSTERMGR
  2
AcRfInsAdjusterMgr
  3
AcMeServices
 90
     1024
 91
        0
280
     0
281
     0
  0
CLASS
  1
ACGREFACADMASTER
  2
AcGrefacadMaster
  3
AcGrefServices
 90
     1024
 91
        0
280
     0
281
     0
  0
CLASS
  1
AMIMASTER
  2
AmiMaster
  3
AmiServices
 90
     1024
 91
        0
280
     0
281
     0
  0
CLASS
  1
AMDTMENUSTATEMGR
  2
AmdtMenuStateMgr
  3
McadcomServices
 90
     1024
 91
        0
280
     0
281
     0
  0
CLASS
  1
AMDTMCOMMENUSTATE
  2
AmdtMcomMenuState
  3
McadcomServices
 90
     1024
 91
        0
280
     0
281
     0
  0
CLASS
  1
MAPIAMMOUDLE
  2
MApiAmModule
  3
MApiAmServices
 90
     1024
 91
        0
280
     0
281
     0
  0
CLASS
  1
ACIMSTRSYSVAR
  2
AcImStrSysVar
  3
AcMeServices
 90
     1024
 91
        0
280
     0
281
     0
  0
CLASS
  1
AMDTAMMENUSTATE
  2
AmdtAmMenuState
  3
DesignerAssemblies_arx
 90
     1024
 91
        0
280
     0
281
     0
  0
CLASS
  1
ACAMPROJECT
  2
AcAmProject
  3
DesignerAssemblies
 90
     1024
 91
        0
280
     0
281
     0
  0
CLASS
  1
ACAMGRCOMPDEF
  2
AcAmGrCompDef
  3
DesignerAssemblies
 90
     1024
 91
        0
280
     0
281
     0
  0
CLASS
  1
ACAMCOMPDEF
  2
AcAmCompDef
  3
DesignerAssemblies
 90
     1024
 91
        0
280
     0
281
     0
  0
CLASS
  1
ACAMCOMPDEFMGR
  2
AcAmCompDefMgr
  3
DesignerAssemblies
 90
     1024
 91
        0
280
     0
281
     0
  0
CLASS
  1
AMCONTEXTMGR
  2
AcAmContextMgr
  3
DesignerAssemblies
 90
     1024
 91
        0
280
     0
281
     0
  0
CLASS
  1
ACAMCONTEXTMODELER
  2
AcAmContextModeler
  3
DesignerAssemblies
 90
     1024
 91
        0
280
     0
281
     0
  0
CLASS
  1
ACMDATADICTIONARY
  2
AcmDataDictionary
  3
"AcmSymBB|Product Description: AutoCAD Mechanical|Company: Autodesk, Inc."
 90
     1024
 91
        0
280
     0
281
     0
  0
CLASS
  1
ACAMGRCOMPDEFSET
  2
AcAmGrCompDefSet
  3
DesignerAssemblies
 90
     1024
 91
        0
280
     0
281
     0
  0
CLASS
  1
AMDTBROWSERDBTAB
  2
AmdtBrowserDbTab
  3
McadcomServices
 90
     1024
 91
        0
280
     0
281
     0
  0
CLASS
  1
CBROWSERAPPOBJECT
  2
CBrowserAppObject
  3
McadcomServices
 90
     1024
 91
        0
280
     0
281
     0
  0
CLASS
  1
DM_PLACEHOLDER
  2
AcDmSelsetPlaceholder
  3
McadcomServices
 90
     1024
 91
        0
280
     0
281
     0
  0
CLASS
  1
ACMSTANDARDANSI
  2
AcmStandardANSI
  3
"Amdt_StdImp|Product Description: AutoCAD Mechanical|Company: Autodesk, Inc."
 90
     1024
 91
        0
280
     0
281
     0
  0
CLASS
  1
ACMSURFSTANDARDANSI
  2
AcmSurfTextStdANSI
  3
"Amdt_StdImp|Product Description: AutoCAD Mechanical|Company: Autodesk, Inc."
 90
     1024
 91
        0
280
     0
281
     0
  0
CLASS
  1
ACMFCFSTANDARDANSI
  2
AcmFCFStdANSI
  3
"Amdt_StdImp|Product Description: AutoCAD Mechanical|Company: Autodesk, Inc."
 90
     1024
 91
        0
280
     0
281
     0
  0
CLASS
  1
ACMWELDSTANDARDANSI
  2
AcmWeldingStdANSI
  3
"Amdt_StdImp|Product Description: AutoCAD Mechanical|Company: Autodesk, Inc."
 90
     1024
 91
        0
280
     0
281
     0
  0
CLASS
  1
ACMIDSTANDARDANSI
  2
AcmIdStdANSI
  3
"Amdt_StdImp|Product Description: AutoCAD Mechanical|Company: Autodesk, Inc."
 90
     1024
 91
        0
280
     0
281
     0
  0
CLASS
  1
ACMDATUMSTANDARDANSI
  2
AcmDatumStdANSI
  3
"Amdt_StdImp|Product Description: AutoCAD Mechanical|Company: Autodesk, Inc."
 90
     1024
 91
        0
280
     0
281
     0
  0
CLASS
  1
ACMBOMSTANDARDANSI
  2
AcmBOMStdANSI
  3
"Amdt_StdImp|Product Description: AutoCAD Mechanical|Company: Autodesk, Inc."
 90
     1024
 91
        0
280
     0
281
     0
  0
CLASS
  1
ACMDETAILSTANDARDANSI
  2
AmdtDetailSymStdANSI
  3
"Amdt_StdImp|Product Description: AutoCAD Mechanical|Company: Autodesk, Inc."
 90
     1024
 91
        0
280
     0
281
     0
  0
CLASS
  1
ACMSECTIONSTANDARDANSI
  2
AmdtSectionSymStdANSI
  3
"Amdt_StdImp|Product Description: AutoCAD Mechanical|Company: Autodesk, Inc."
 90
     1024
 91
        0
280
     0
281
     0
  0
CLASS
  1
ACMCENTERLINESTANDARDANSI
  2
AmdtCenterLineStdANSI
  3
"Amdt_StdImp|Product Description: AutoCAD Mechanical|Company: Autodesk, Inc."
 90
     1024
 91
        0
280
     0
281
     0
  0
CLASS
  1
ACMTHREADLINESTANDARDANSI
  2
AmdtThreadLineStdANSI
  3
"Amdt_StdImp|Product Description: AutoCAD Mechanical|Company: Autodesk, Inc."
 90
     1024
 91
        0
280
     0
281
     0
  0
CLASS
  1
ACMNOTESTANDARDANSI
  2
AmdtNoteStdANSI
  3
"Amdt_StdImp|Product Description: AutoCAD Mechanical|Company: Autodesk, Inc."
 90
     1024
 91
        0
280
     0
281
     0
  0
CLASS
  1
ACMTAPERSTANDARDANSI
  2
AcmTaperStdANSI
  3
"Amdt_StdImp|Product Description: AutoCAD Mechanical|Company: Autodesk, Inc."
 90
     1024
 91
        0
280
     0
281
     0
  0
CLASS
  1
ACMANOOTATIONVIEWSTANDARDANSI
  2
AmdtAnViewStdANSI
  3
"Amdt_StdImp|Product Description: AutoCAD Mechanical|Company: Autodesk, Inc."
 90
     1024
 91
        0
280
     0
281
     0
  0
CLASS
  1
ACAMGLAYSTD
  2
AcAmgLayStd
  3
"AmgLay|Product Description: AutoCAD Mechanical|Company: Autodesk, Inc."
 90
     1024
 91
        0
280
     0
281
     0
  0
CLASS
  1
ACAMGDIMSTD
  2
AcAmgDimStd
  3
"AmgDim|Product Description: AutoCAD Mechanical|Company: Autodesk, Inc."
 90
     1024
 91
        0
280
     0
281
     0
  0
CLASS
  1
AMGOBJPROPCFG
  2
AmgObjPropCfg
  3
"AmgLay|Product Description: AutoCAD Mechanical|Company: Autodesk, Inc."
 90
     1024
 91
        0
280
     0
281
     0
  0
CLASS
  1
ACAMGHOLECHARTSTDANSI
  2
AcAmgHoleChartStdANSI
  3
"AmgDim" "Product Description: AutoCAD Mechanical|Company: Autodesk, Inc."
 90
     1024
 91
        0
280
     0
281
     0
  0
CLASS
  1
ACAMGTITLESTD
  2
AcAmgTitleStd
  3
"AmgTitle|Product Description: AutoCAD Mechanical|Company: Autodesk, Inc."
 90
     1024
 91
        0
280
     0
281
     0
  0
CLASS
  1
ACMSECTIONSTANDARDCUSTOM
  2
AmdtSectionSymStdCustom
  3
"Amdt_StdImp|Product Description: AutoCAD Mechanical|Company: Autodesk, Inc."
 90
     1024
 91
        0
280
     0
281
     0
  0
CLASS
  1
ACMDETAILTANDARDCUSTOM
  2
AmdtDetailSymStdCustom
  3
"Amdt_StdImp|Product Description: AutoCAD Mechanical|Company: Autodesk, Inc."
 90
     1024
 91
        0
280
     0
281
     0
  0
CLASS
  1
FIELD
  2
AcDbField
  3
ObjectDBX Classes
 90
     1152
 91
        0
280
     0
281
     0
  0
CLASS
  1
FIELDLIST
  2
AcDbFieldList
  3
ObjectDBX Classes
 90
     1152
 91
        1
280
     0
281
     0
  0
CLASS
  1
AMDTNOTETEMPLATEDB
  2
AmdtNoteTemplateDB
  3
"AcmSymBB" "Product Description: AutoCAD Mechanical|Company: Autodesk, Inc."
 90
     1024
 91
        0
280
     0
281
     0
  0
CLASS
  1
ACAMGFILTERDAT
  2
AcAmgFilterDat
  3
"AcadM|Product Description: AutoCAD Mechanical|Company: Autodesk, Inc."
 90
     1024
 91
        0
280
     0
281
     0
  0
ENDSEC
  0
SECTION
  2
TABLES
  0
TABLE
  2
VPORT
  5
8
330
0
100
AcDbSymbolTable
 70
     1
1001
ACAD
1000
DbSaveVer
1071
      226
  0
VPORT
  5
86E7B
330
8
100
AcDbSymbolTableRecord
100
AcDbViewportTableRecord
  2
*Active
 70
     0
 10
0.0
 20
0.0
 11
1.0
 21
1.0
 12
123.3004801579653
 22
27.73709098263896
 13
0.0
 23
0.0
 14
50.0
 24
50.0
 15
100.0
 25
100.0
 16
-0.0000000000020322
 26
0.0
 36
9126.149298115036
 17
88.32329319333984
 27
39.78604496990153
 37
0.0
 40
1095.835327915196
 41
2.036082474226803
 42
50.0
 43
0.0
 44
0.0
 50
0.0
 51
0.0
 71
     0
 72
   500
 73
     1
 74
     2
 75
     0
 76
     0
 77
     0
 78
     0
281
     0
 65
     0
110
0.0
120
0.0
130
0.0
111
1.0
121
0.0
131
0.0
112
0.0
122
1.0
132
0.0
 79
     0
146
0.0
348
86E9F
 60
     3
 61
     5
292
     1
282
     1
141
0.0
142
0.0
 63
   250
421
  3355443
1001
ACAD_NAV_VCDISPLAY
1070
     3
  0
ENDTAB
  0
TABLE
  2
LTYPE
  5
5
330
0
100
AcDbSymbolTable
 70
    19
  0
LTYPE
  5
13
330
5
100
AcDbSymbolTableRecord
100
AcDbLinetypeTableRecord
  2
BYBLOCK
 70
     0
  3

 72
    65
 73
     0
 40
0.0
  0
LTYPE
  5
14
330
5
100
AcDbSymbolTableRecord
100
AcDbLinetypeTableRecord
  2
BYLAYER
 70
     0
  3

 72
    65
 73
     0
 40
0.0
  0
LTYPE
  5
15
330
5
100
AcDbSymbolTableRecord
100
AcDbLinetypeTableRecord
  2
CONTINUOUS
 70
     0
  3
実線
 72
    65
 73
     0
 40
0.0
  0
LTYPE
  5
8A62C
330
5
100
AcDbSymbolTableRecord
100
AcDbLinetypeTableRecord
  2
CENTER
 70
     0
  3
____ _ ____ _ ____ _ ____ _ ____ _ ____ _ ____
 72
    65
 73
     4
 40
0.6
 49
0.375
 74
     0
 49
-0.075
 74
     0
 49
0.075
 74
     0
 49
-0.075
 74
     0
  0
LTYPE
  5
A6C51
330
5
100
AcDbSymbolTableRecord
100
AcDbLinetypeTableRecord
  2
CENTERX2
 70
     0
  3
Center (2x) ________  __  ________  __  _____
 72
    65
 73
     4
 40
4.0
 49
2.5
 74
     0
 49
-0.5
 74
     0
 49
0.5
 74
     0
 49
-0.5
 74
     0
  0
LTYPE
  5
A73B6
330
5
100
AcDbSymbolTableRecord
100
AcDbLinetypeTableRecord
  2
HIDDEN
 70
     0
  3
Hidden __ __ __ __ __ __ __ __ __ __ __ __ __ _
 72
    65
 73
     2
 40
0.375
 49
0.25
 74
     0
 49
-0.125
 74
     0
  0
LTYPE
  5
A73B7
330
5
100
AcDbSymbolTableRecord
100
AcDbLinetypeTableRecord
  2
PHANTOM2
 70
     0
  3
Phantom (.5x) ___ _ _ ___ _ _ ___ _ _ ___ _ _
 72
    65
 73
     6
 40
1.25
 49
0.625
 74
     0
 49
-0.125
 74
     0
 49
0.125
 74
     0
 49
-0.125
 74
     0
 49
0.125
 74
     0
 49
-0.125
 74
     0
  0
LTYPE
  5
A73F0
330
5
100
AcDbSymbolTableRecord
100
AcDbLinetypeTableRecord
  2
AM_ISO02W050
 70
     0
  3
__ __ __ __ __ __ __ __ __ __ __ __ __ __ __
 72
    65
 73
     2
 40
7.5
 49
6.0
 74
     0
 49
-1.5
 74
     0
  0
LTYPE
  5
A73F1
330
5
100
AcDbSymbolTableRecord
100
AcDbLinetypeTableRecord
  2
AM_ISO08W050
 70
     0
  3
____ . ____ . ____ . ____ . ____ . ____ . ____
 72
    65
 73
     4
 40
18.0
 49
12.0
 74
     0
 49
-1.5
 74
     0
 49
3.0
 74
     0
 49
-1.5
 74
     0
  0
LTYPE
  5
A73F2
330
5
100
AcDbSymbolTableRecord
100
AcDbLinetypeTableRecord
  2
AM_ISO09W050
 70
     0
  3
_____ . . _____ . . _____ . . ____ .. ____
 72
    65
 73
     6
 40
22.5
 49
12.0
 74
     0
 49
-1.5
 74
     0
 49
3.0
 74
     0
 49
-1.5
 74
     0
 49
3.0
 74
     0
 49
-1.5
 74
     0
  0
LTYPE
  5
A73F3
330
5
100
AcDbSymbolTableRecord
100
AcDbLinetypeTableRecord
  2
Amconstr
 70
     0
  3
_______________________
 72
    65
 73
     2
 40
9999.0
 49
9999.0
 74
     0
 49
0.0
 74
     0
  0
LTYPE
  5
A73F4
330
5
100
AcDbSymbolTableRecord
100
AcDbLinetypeTableRecord
  2
AM_ISO08W050x2
 70
     0
  3
__ . __ . __ . __ . __ . __
 72
    65
 73
     4
 40
9.0
 49
6.0
 74
     0
 49
-0.75
 74
     0
 49
1.5
 74
     0
 49
-0.75
 74
     0
  0
LTYPE
  5
A73F5
330
5
100
AcDbSymbolTableRecord
100
AcDbLinetypeTableRecord
  2
AM_ISO02W050x2
 70
     0
  3
 _ _ _ _ _ _ _ _ _ _ _ _
 72
    65
 73
     2
 40
3.75
 49
3.0
 74
     0
 49
-0.75
 74
     0
  0
LTYPE
  5
A73F8
330
5
100
AcDbSymbolTableRecord
100
AcDbLinetypeTableRecord
  2
Amzigzag
 70
     0
  3
/\/-/\/-/\/-/\/-/\/-/\/
 72
    65
 73
     2
 40
11.0001
 49
0.0001
 74
     4
 75
   136
340
A73F7
 46
0.04
 50
0.0
 44
0.0
 45
0.0
 49
-11.0
 74
     0
  0
LTYPE
  5
A73F9
330
5
100
AcDbSymbolTableRecord
100
AcDbLinetypeTableRecord
  2
CENTER2
 70
     0
  3
Center (.5x) ___ _ ___ _ ___ _ ___ _ ___ _ ___
 72
    65
 73
     4
 40
1.125
 49
0.75
 74
     0
 49
-0.125
 74
     0
 49
0.125
 74
     0
 49
-0.125
 74
     0
  0
LTYPE
  5
A73FA
330
5
100
AcDbSymbolTableRecord
100
AcDbLinetypeTableRecord
  2
HIDDEN2
 70
     0
  3
Hidden (.5x) _ _ _ _ _ _ _ _ _ _ _ _ _ _ _ _ _
 72
    65
 73
     2
 40
0.1875
 49
0.125
 74
     0
 49
-0.0625
 74
     0
  0
LTYPE
  5
A73FB
330
5
100
AcDbSymbolTableRecord
100
AcDbLinetypeTableRecord
  2
Amzigzag2
 70
     0
  3
/\/-/\/-/\/-/\/-/\/-/\/
 72
    65
 73
     2
 40
0.4401
 49
0.0001
 74
     4
 75
   136
340
A73F7
 46
0.0016
 50
0.0
 44
0.0
 45
0.0
 49
-0.4400000000000003
 74
     0
  0
LTYPE
  5
A740D
330
5
100
AcDbSymbolTableRecord
100
AcDbLinetypeTableRecord
  2
ACANSTGB
 70
     0
  3
__ . . __ . .
 72
    65
 73
     6
 40
0.35433070866
 49
0.15748031496
 74
     0
 49
-0.03937007874
 74
     0
 49
0.03937007874
 74
     0
 49
-0.03937007874
 74
     0
 49
0.03937007874
 74
     0
 49
-0.03937007874
 74
     0
  0
LTYPE
  5
A740E
330
5
100
AcDbSymbolTableRecord
100
AcDbLinetypeTableRecord
  2
ACANSTGL
 70
     0
  3
_ _ _ _ _
 72
    65
 73
     2
 40
0.11811023622
 49
0.07874015748
 74
     0
 49
-0.03937007874
 74
     0
  0
ENDTAB
  0
TABLE
  2
LAYER
  5
2
102
{ACAD_XDICTIONARY
360
87810
102
}
330
0
100
AcDbSymbolTable
 70
    10
  0
LAYER
  5
10
102
{ACAD_XDICTIONARY
360
86EEC
102
}
330
2
100
AcDbSymbolTableRecord
100
AcDbLayerTableRecord
  2
0
 70
     0
 62
     7
  6
CONTINUOUS
370
    -3
390
F
347
86E91
348
0
  0
LAYER
  5
22
102
{ACAD_XDICTIONARY
360
86EEE
102
}
330
2
100
AcDbSymbolTableRecord
100
AcDbLayerTableRecord
  2
SIZE
 70
     0
 62
    30
  6
CONTINUOUS
370
    -3
390
F
347
86E91
348
0
  0
LAYER
  5
31
102
{ACAD_XDICTIONARY
360
86EF0
102
}
330
2
100
AcDbSymbolTableRecord
100
AcDbLayerTableRecord
  2
DETAIL
 70
     0
 62
     5
  6
CONTINUOUS
370
    -3
390
F
347
86E91
348
0
  0
LAYER
  5
32
102
{ACAD_XDICTIONARY
360
86EF2
102
}
330
2
100
AcDbSymbolTableRecord
100
AcDbLayerTableRecord
  2
OUTLINE
 70
     0
 62
     3
  6
CONTINUOUS
370
    -3
390
F
347
86E91
348
0
  0
LAYER
  5
33
102
{ACAD_XDICTIONARY
360
86EF4
102
}
330
2
100
AcDbSymbolTableRecord
100
AcDbLayerTableRecord
  2
BASIS
 70
     0
 62
     6
  6
CENTER
370
    -3
390
F
347
86E91
348
0
  0
LAYER
  5
34
102
{ACAD_XDICTIONARY
360
86EF6
102
}
330
2
100
AcDbSymbolTableRecord
100
AcDbLayerTableRecord
  2
NOTE
 70
     0
 62
     4
  6
CONTINUOUS
370
    -3
390
F
347
86E91
348
0
  0
LAYER
  5
35
102
{ACAD_XDICTIONARY
360
86EF8
102
}
330
2
100
AcDbSymbolTableRecord
100
AcDbLayerTableRecord
  2
ARRANGE
 70
     0
 62
     1
  6
CONTINUOUS
370
    -3
390
F
347
86E91
348
0
  0
LAYER
  5
37
102
{ACAD_XDICTIONARY
360
86EFA
102
}
330
2
100
AcDbSymbolTableRecord
100
AcDbLayerTableRecord
  2
ETC
 70
     0
 62
    61
  6
CONTINUOUS
370
    -3
390
F
347
86E91
348
0
  0
LAYER
  5
3A
330
2
100
AcDbSymbolTableRecord
100
AcDbLayerTableRecord
  2
DEFPOINTS
 70
     0
 62
     7
  6
CONTINUOUS
290
     0
370
    -3
390
F
347
86E91
348
0
  0
LAYER
  5
6ACAC
102
{ACAD_XDICTIONARY
360
86EFE
102
}
330
2
100
AcDbSymbolTableRecord
100
AcDbLayerTableRecord
  2
SERVICE_SPACE
 70
     0
 62
     2
  6
CONTINUOUS
370
    18
390
F
347
86E91
348
0
  0
ENDTAB
  0
TABLE
  2
STYLE
  5
3
330
0
100
AcDbSymbolTable
 70
     4
  0
STYLE
  5
11
330
3
100
AcDbSymbolTableRecord
100
AcDbTextStyleTableRecord
  2
STANDARD
 70
     0
 40
45.0
 41
0.9
 50
0.0
 71
     0
 42
45.0
  3
SIMPLEX.shx
  4
BIGFONT.shx
  0
STYLE
  5
A73F7
330
3
100
AcDbSymbolTableRecord
100
AcDbTextStyleTableRecord
  2

 70
     1
 40
0.0
 41
1.0
 50
0.0
 71
     0
 42
45.0
  3
genltshp.shx
  4

  0
STYLE
  5
A740B
330
3
100
AcDbSymbolTableRecord
100
AcDbTextStyleTableRecord
  2
ACANSTS
 70
     0
 40
0.0
 41
1.0
 50
0.0
 71
     0
 42
45.0
  3
romans.shx
  4

  0
STYLE
  5
A740C
330
3
100
AcDbSymbolTableRecord
100
AcDbTextStyleTableRecord
  2
ACANSGDT
 70
     0
 40
0.0
 41
1.0
 50
0.0
 71
     0
 42
45.0
  3
amgdt.shx
  4

  0
ENDTAB
  0
TABLE
  2
VIEW
  5
6
330
0
100
AcDbSymbolTable
 70
     1
  0
VIEW
  5
3C
330
6
100
AcDbSymbolTableRecord
100
AcDbViewTableRecord
  2
ALL
 70
     0
 40
4282.62
 10
0.0
 20
41.30990399999999
 41
5940.0
 11
0.0
 21
0.0
 31
1.0
 12
0.0
 22
0.0
 32
0.0
 42
50.0
 43
0.0
 44
0.0
 50
0.0
 71
     0
281
     0
 72
     0
 73
     0
348
86E9F
  0
ENDTAB
  0
TABLE
  2
UCS
  5
7
330
0
100
AcDbSymbolTable
 70
     0
  0
ENDTAB
  0
TABLE
  2
APPID
  5
9
330
0
100
AcDbSymbolTable
 70
    17
  0
APPID
  5
12
330
9
100
AcDbSymbolTableRecord
100
AcDbRegAppTableRecord
  2
ACAD
 70
     0
  0
APPID
  5
86ECF
330
9
100
AcDbSymbolTableRecord
100
AcDbRegAppTableRecord
  2
ACAD_NAV_VCDISPLAY
 70
     0
  0
APPID
  5
86EE4
330
9
100
AcDbSymbolTableRecord
100
AcDbRegAppTableRecord
  2
ACAD_EXEMPT_FROM_CAD_STANDARDS
 70
     0
  0
APPID
  5
8A3A7
330
9
100
AcDbSymbolTableRecord
100
AcDbRegAppTableRecord
  2
AcadAnnoMonitorAlertIconDisabled
 70
     0
  0
APPID
  5
8A621
330
9
100
AcDbSymbolTableRecord
100
AcDbRegAppTableRecord
  2
ACAD_MLEADERVER
 70
     0
  0
APPID
  5
A4872
330
9
100
AcDbSymbolTableRecord
100
AcDbRegAppTableRecord
  2
AcadAnnoPO
 70
     0
  0
APPID
  5
A4873
330
9
100
AcDbSymbolTableRecord
100
AcDbRegAppTableRecord
  2
ACAD_DSTYLE_DIMJAG
 70
     0
  0
APPID
  5
A4874
330
9
100
AcDbSymbolTableRecord
100
AcDbRegAppTableRecord
  2
ACAD_DSTYLE_DIMTALN
 70
     0
  0
APPID
  5
A5A18
330
9
100
AcDbSymbolTableRecord
100
AcDbRegAppTableRecord
  2
ACAD_DSTYLE_DIMRADIAL_EXTENSION
 70
     0
  0
APPID
  5
A6762
330
9
100
AcDbSymbolTableRecord
100
AcDbRegAppTableRecord
  2
AcAecLayerStandard
 70
     0
  0
APPID
  5
A6763
330
9
100
AcDbSymbolTableRecord
100
AcDbRegAppTableRecord
  2
AcCmTransparency
 70
     0
  0
APPID
  5
A6C52
330
9
100
AcDbSymbolTableRecord
100
AcDbRegAppTableRecord
  2
ACAD_PSEXT
 70
     0
  0
APPID
  5
A73AF
330
9
100
AcDbSymbolTableRecord
100
AcDbRegAppTableRecord
  2
MCAD_NO_VIS
 70
     0
  0
APPID
  5
A73B0
330
9
100
AcDbSymbolTableRecord
100
AcDbRegAppTableRecord
  2
ACAD_TEMP_GRAPHIC
 70
     0
  0
APPID
  5
A73BC
330
9
100
AcDbSymbolTableRecord
100
AcDbRegAppTableRecord
  2
ACATTRIBSERVICES
 70
     0
  0
APPID
  5
A73D4
330
9
100
AcDbSymbolTableRecord
100
AcDbRegAppTableRecord
  2
DESIGNERASSEMBLIES
 70
     0
  0
APPID
  5
A73EE
330
9
100
AcDbSymbolTableRecord
100
AcDbRegAppTableRecord
  2
ACAD_DSTYLE_DIMBREAK
 70
     0
  0
ENDTAB
  0
TABLE
  2
DIMSTYLE
  5
A
330
0
100
AcDbSymbolTable
 70
     8
100
AcDbDimStyleTable
 71
     1
340
213
  0
DIMSTYLE
105
213
102
{ACAD_REACTORS
330
A5CB3
330
A5CE9
330
A61A7
330
A6F16
330
A7147
330
A719D
330
A7294
330
A5CDC
330
A5C82
102
}
330
A
100
AcDbSymbolTableRecord
100
AcDbDimStyleTableRecord
  2
STANDARD
 70
     0
340
11
  0
DIMSTYLE
105
A73ED
330
A
100
AcDbSymbolTableRecord
100
AcDbDimStyleTableRecord
  2
AM_ANSI
 70
     0
  4
mm
 41
0.12
 42
0.05
 43
0.5
 44
0.1
 47
0.1
 48
0.1
 78
     7
 79
     2
 90
        1
140
0.12
141
0.0
146
0.71
147
0.06
176
   256
177
   256
178
     2
274
     4
284
     7
340
11
345
13
346
13
347
13
371
    -1
372
    -1
1001
ACAD_DSTYLE_DIMJAG
1070
   388
1040
1.5
1001
ACAD_DSTYLE_DIMBREAK
1070
   391
1040
0.125
  0
DIMSTYLE
105
A73FC
330
A
100
AcDbSymbolTableRecord
100
AcDbDimStyleTableRecord
  2
AM_ANSI$3
 70
     0
  4
mm
 41
0.12
 42
0.05
 43
0.5
 44
0.1
 47
0.1
 48
0.1
 78
     7
 79
     2
 90
        1
140
0.12
141
0.0
146
0.71
147
0.06
176
   256
177
   256
178
     2
274
     4
284
     7
288
     1
289
     0
340
11
345
13
346
13
347
13
371
    -1
372
    -1
1001
ACAD_DSTYLE_DIMBREAK
1070
   391
1040
0.125
1001
ACAD_DSTYLE_DIMJAG
1070
   388
1040
1.5
  0
DIMSTYLE
105
A73FD
330
A
100
AcDbSymbolTableRecord
100
AcDbDimStyleTableRecord
  2
AM_ANSI$4
 70
     0
  4
mm
 41
0.12
 42
0.05
 43
0.5
 44
0.1
 47
0.1
 48
0.1
 78
     7
 79
     2
 90
        1
140
0.12
141
0.0
146
0.71
147
0.06
176
   256
177
   256
178
     2
274
     4
284
     7
288
     1
289
     0
340
11
345
13
346
13
347
13
371
    -1
372
    -1
1001
ACAD_DSTYLE_DIMBREAK
1070
   391
1040
0.125
1001
ACAD_DSTYLE_DIMJAG
1070
   388
1040
1.5
  0
DIMSTYLE
105
A73FE
330
A
100
AcDbSymbolTableRecord
100
AcDbDimStyleTableRecord
  2
AM_ANSI$7
 70
     0
  4
mm
 41
0.12
 42
0.05
 43
0.5
 44
0.1
 47
0.1
 48
0.1
 78
     7
 79
     2
 90
        1
140
0.12
141
0.0
146
0.71
147
0.06
176
   256
177
   256
178
     2
274
     4
284
     7
340
11
345
13
346
13
347
13
371
    -1
372
    -1
1001
ACAD_DSTYLE_DIMBREAK
1070
   391
1040
0.125
1001
ACAD_DSTYLE_DIMJAG
1070
   388
1040
1.5
  0
DIMSTYLE
105
A73FF
330
A
100
AcDbSymbolTableRecord
100
AcDbDimStyleTableRecord
  2
AM_ANSI$SF
 70
     0
  4
mm
 41
0.12
 42
0.05
 43
0.5
 44
0.1
 47
0.1
 48
0.1
 75
     1
 76
     1
 78
     7
 79
     2
 90
        1
140
0.12
141
0.0
146
0.71
147
0.06
176
   256
177
   256
178
     2
274
     4
284
     7
340
11
345
13
346
13
347
13
371
    -1
372
    -1
1001
ACAD_DSTYLE_DIMBREAK
1070
   391
1040
0.125
1001
ACAD_DSTYLE_DIMJAG
1070
   388
1040
1.5
  0
DIMSTYLE
105
A7404
330
A
100
AcDbSymbolTableRecord
100
AcDbDimStyleTableRecord
  2
AM_ANSI$SH
 70
     0
  4
mm
 41
0.12
 42
0.05
 43
0.5
 44
0.1
 47
0.1
 48
0.1
 75
     1
 76
     1
 78
     7
 79
     2
 90
        1
140
0.12
141
0.0
146
0.71
147
0.06
173
     1
176
   256
177
   256
178
     2
274
     4
284
     7
340
11
343
A7400
345
13
346
13
347
13
371
    -1
372
    -1
1001
ACAD_DSTYLE_DIMBREAK
1070
   391
1040
0.125
1001
ACAD_DSTYLE_DIMJAG
1070
   388
1040
1.5
  0
ENDTAB
  0
TABLE
  2
BLOCK_RECORD
  5
1
330
0
100
AcDbSymbolTable
 70
    17
  0
BLOCK_RECORD
  5
1E
102
{ACAD_XDICTIONARY
360
66E76
102
}
330
1
100
AcDbSymbolTableRecord
100
AcDbBlockTableRecord
  2
*MODEL_SPACE
340
851A5
 70
     0
280
     1
281
     0
  0
BLOCK_RECORD
  5
1A
102
{ACAD_XDICTIONARY
360
66E74
102
}
330
1
100
AcDbSymbolTableRecord
100
AcDbBlockTableRecord
  2
*PAPER_SPACE
340
851A6
 70
     0
280
     1
281
     0
  0
BLOCK_RECORD
  5
46
330
1
100
AcDbSymbolTableRecord
100
AcDbBlockTableRecord
  2
_ORIGIN
340
0
102
{BLKREFS
331
A7683
331
A7684
331
A76A8
331
A76A9
331
A76B7
331
A76B8
331
A7611
331
A7612
331
A761A
331
A761B
331
A763F
331
A7640
331
A765D
331
A765E
331
A767A
331
A767B
331
A71B6
331
A71B7
331
A71C0
331
A71C1
331
A71F7
331
A71F8
331
A7200
331
A7201
331
A76F4
331
A76F5
102
}
 70
     0
280
     1
281
     0
  0
BLOCK_RECORD
  5
A5C83
330
1
100
AcDbSymbolTableRecord
100
AcDbBlockTableRecord
  2
*D1
340
0
 70
     0
280
     1
281
     0
  0
BLOCK_RECORD
  5
A5CB4
330
1
100
AcDbSymbolTableRecord
100
AcDbBlockTableRecord
  2
*D2
340
0
 70
     0
280
     1
281
     0
  0
BLOCK_RECORD
  5
A5CDD
330
1
100
AcDbSymbolTableRecord
100
AcDbBlockTableRecord
  2
*D3
340
0
 70
     0
280
     1
281
     0
  0
BLOCK_RECORD
  5
A5CEA
330
1
100
AcDbSymbolTableRecord
100
AcDbBlockTableRecord
  2
*D4
340
0
 70
     0
280
     1
281
     0
  0
BLOCK_RECORD
  5
A61A8
330
1
100
AcDbSymbolTableRecord
100
AcDbBlockTableRecord
  2
*D5
340
0
 70
     0
280
     1
281
     0
  0
BLOCK_RECORD
  5
A623D
330
1
100
AcDbSymbolTableRecord
100
AcDbBlockTableRecord
  2
*D6
340
0
 70
     0
280
     1
281
     0
  0
BLOCK_RECORD
  5
A624A
330
1
100
AcDbSymbolTableRecord
100
AcDbBlockTableRecord
  2
*D7
340
0
 70
     0
280
     1
281
     0
  0
BLOCK_RECORD
  5
A6F17
330
1
100
AcDbSymbolTableRecord
100
AcDbBlockTableRecord
  2
*D8
340
0
 70
     0
280
     1
281
     0
  0
BLOCK_RECORD
  5
A6F2D
330
1
100
AcDbSymbolTableRecord
100
AcDbBlockTableRecord
  2
*D9
340
0
 70
     0
280
     1
281
     0
  0
BLOCK_RECORD
  5
A6F3B
330
1
100
AcDbSymbolTableRecord
100
AcDbBlockTableRecord
  2
*D10
340
0
 70
     0
280
     1
281
     0
  0
BLOCK_RECORD
  5
A7148
330
1
100
AcDbSymbolTableRecord
100
AcDbBlockTableRecord
  2
*D11
340
0
 70
     0
280
     1
281
     0
  0
BLOCK_RECORD
  5
A719E
330
1
100
AcDbSymbolTableRecord
100
AcDbBlockTableRecord
  2
*D12
340
0
 70
     0
280
     1
281
     0
  0
BLOCK_RECORD
  5
A7295
330
1
100
AcDbSymbolTableRecord
100
AcDbBlockTableRecord
  2
*D13
340
0
 70
     0
280
     1
281
     0
  0
BLOCK_RECORD
  5
A7400
330
1
100
AcDbSymbolTableRecord
100
AcDbBlockTableRecord
  2
GENAXEH
340
0
 70
     0
280
     1
281
     0
  0
BLOCK_RECORD
  5
A7410
330
1
100
AcDbSymbolTableRecord
100
AcDbBlockTableRecord
  2
_ACMFILLEDHALF
340
0
 70
     0
280
     1
281
     0
  0
ENDTAB
  0
ENDSEC
  0
SECTION
  2
BLOCKS
  0
BLOCK
  5
1F
330
1E
100
AcDbEntity
  8
0
100
AcDbBlockBegin
  2
*MODEL_SPACE
 70
     0
 10
0.0
 20
0.0
 30
0.0
  3
*MODEL_SPACE
  1

  0
ENDBLK
  5
20
330
1E
100
AcDbEntity
  8
0
100
AcDbBlockEnd
  0
BLOCK
  5
1B
330
1A
100
AcDbEntity
 67
     1
  8
0
100
AcDbBlockBegin
  2
*PAPER_SPACE
 70
     0
 10
0.0
 20
0.0
 30
0.0
  3
*PAPER_SPACE
  1

  0
ENDBLK
  5
1C
330
1A
100
AcDbEntity
 67
     1
  8
0
100
AcDbBlockEnd
  0
BLOCK
  5
47
330
46
100
AcDbEntity
  8
0
100
AcDbBlockBegin
  2
_ORIGIN
 70
     0
 10
0.0
 20
0.0
 30
0.0
  3
_ORIGIN
  1

  0
CIRCLE
  5
48
330
46
100
AcDbEntity
  8
0
  6
ByBlock
 62
     0
100
AcDbCircle
 10
0.0
 20
0.0
 30
0.0
 40
0.5
  0
LINE
  5
49
330
46
100
AcDbEntity
  8
0
  6
ByBlock
 62
     0
100
AcDbLine
 10
0.0
 20
0.0
 30
0.0
 11
-1.0
 21
0.0
 31
0.0
  0
ENDBLK
  5
4A
330
46
100
AcDbEntity
  8
0
100
AcDbBlockEnd
  0
BLOCK
  5
A5C84
330
A5C83
100
AcDbEntity
  8
0
100
AcDbBlockBegin
  2
*D1
 70
     1
 10
0.0
 20
0.0
 30
0.0
  3
*D1
  1

  0
LINE
  5
A76B4
330
A5C83
100
AcDbEntity
  8
SIZE
440
 16777216
100
AcDbLine
 10
-420.0000000000271
 20
-153.0
 30
0.0
 11
-420.0000000000271
 21
-476.1114333088245
 31
0.0
  0
LINE
  5
A76B5
330
A5C83
100
AcDbEntity
  8
SIZE
440
 16777216
100
AcDbLine
 10
-245.0000000000275
 20
-211.5999999999992
 30
0.0
 11
-245.0000000000275
 21
-476.1114333088246
 31
0.0
  0
LINE
  5
A76B6
330
A5C83
100
AcDbEntity
  8
SIZE
440
 16777216
100
AcDbLine
 10
-410.0000000000271
 20
-466.1114333088247
 30
0.0
 11
-255.0000000000276
 21
-466.1114333088247
 31
0.0
  0
INSERT
  5
A76B7
330
A5C83
100
AcDbEntity
  8
SIZE
440
 16777216
100
AcDbBlockReference
  2
_ORIGIN
 10
-420.0000000000271
 20
-466.1114333088247
 30
0.0
 41
10.0
 42
10.0
 43
10.0
 50
180.0
  0
INSERT
  5
A76B8
330
A5C83
100
AcDbEntity
  8
SIZE
440
 16777216
100
AcDbBlockReference
  2
_ORIGIN
 10
-245.0000000000275
 20
-466.1114333088247
 30
0.0
 41
10.0
 42
10.0
 43
10.0
  0
MTEXT
  5
A76B9
330
A5C83
100
AcDbEntity
  8
SIZE
440
 16777216
100
AcDbMText
 10
-332.5000000000273
 20
-433.6114333088247
 30
0.0
 40
45.0
 41
0.0
 46
0.0
 71
     5
 72
     1
  1
\A1;175
 73
     1
 44
1.0
  0
POINT
  5
A76BA
330
A5C83
100
AcDbEntity
  8
DEFPOINTS
 62
     0
440
 16777216
100
AcDbPoint
 10
-420.0000000000271
 20
-143.0
 30
0.0
  0
POINT
  5
A76BB
330
A5C83
100
AcDbEntity
  8
DEFPOINTS
 62
     0
440
 16777216
100
AcDbPoint
 10
-245.0000000000275
 20
-201.5999999999992
 30
0.0
  0
POINT
  5
A76BC
330
A5C83
100
AcDbEntity
  8
DEFPOINTS
 62
     0
440
 16777216
100
AcDbPoint
 10
-245.0000000000275
 20
-466.1114333088247
 30
0.0
  0
ENDBLK
  5
A5C85
330
A5C83
100
AcDbEntity
  8
0
100
AcDbBlockEnd
  0
BLOCK
  5
A5CB5
330
A5CB4
100
AcDbEntity
  8
0
100
AcDbBlockBegin
  2
*D2
 70
     1
 10
0.0
 20
0.0
 30
0.0
  3
*D2
  1

  0
LINE
  5
A763C
330
A5CB4
100
AcDbEntity
  8
SIZE
440
 16777216
100
AcDbLine
 10
-245.0000000000275
 20
-211.5999999999992
 30
0.0
 11
-245.0000000000275
 21
-476.1114333088246
 31
0.0
  0
LINE
  5
A763D
330
A5CB4
100
AcDbEntity
  8
SIZE
440
 16777216
100
AcDbLine
 10
254.9999999999725
 20
-211.6001953129992
 30
0.0
 11
254.9999999999724
 21
-476.1114333088245
 31
0.0
  0
LINE
  5
A763E
330
A5CB4
100
AcDbEntity
  8
SIZE
440
 16777216
100
AcDbLine
 10
-235.0000000000275
 20
-466.1114333088247
 30
0.0
 11
244.9999999999725
 21
-466.1114333088247
 31
0.0
  0
INSERT
  5
A763F
330
A5CB4
100
AcDbEntity
  8
SIZE
440
 16777216
100
AcDbBlockReference
  2
_ORIGIN
 10
-245.0000000000275
 20
-466.1114333088247
 30
0.0
 41
10.0
 42
10.0
 43
10.0
 50
180.0
  0
INSERT
  5
A7640
330
A5CB4
100
AcDbEntity
  8
SIZE
440
 16777216
100
AcDbBlockReference
  2
_ORIGIN
 10
254.9999999999724
 20
-466.1114333088247
 30
0.0
 41
10.0
 42
10.0
 43
10.0
  0
MTEXT
  5
A7641
330
A5CB4
100
AcDbEntity
  8
SIZE
440
 16777216
100
AcDbMText
 10
4.999999999972461
 20
-433.6114333088247
 30
0.0
 40
45.0
 41
0.0
 46
0.0
 71
     5
 72
     1
  1
\A1;500
 73
     1
 44
1.0
  0
POINT
  5
A7642
330
A5CB4
100
AcDbEntity
  8
DEFPOINTS
 62
     0
440
 16777216
100
AcDbPoint
 10
-245.0000000000275
 20
-201.5999999999992
 30
0.0
  0
POINT
  5
A7643
330
A5CB4
100
AcDbEntity
  8
DEFPOINTS
 62
     0
440
 16777216
100
AcDbPoint
 10
254.9999999999725
 20
-201.6001953129992
 30
0.0
  0
POINT
  5
A7644
330
A5CB4
100
AcDbEntity
  8
DEFPOINTS
 62
     0
440
 16777216
100
AcDbPoint
 10
254.9999999999724
 20
-466.1114333088247
 30
0.0
  0
ENDBLK
  5
A5CB6
330
A5CB4
100
AcDbEntity
  8
0
100
AcDbBlockEnd
  0
BLOCK
  5
A5CDE
330
A5CDD
100
AcDbEntity
  8
0
100
AcDbBlockBegin
  2
*D3
 70
     1
 10
0.0
 20
0.0
 30
0.0
  3
*D3
  1

  0
LINE
  5
A76A5
330
A5CDD
100
AcDbEntity
  8
SIZE
440
 16777216
100
AcDbLine
 10
273.9999999999763
 20
-180.6001953130001
 30
0.0
 11
1031.520375114366
 21
-180.600195313
 31
0.0
  0
LINE
  5
A76A6
330
A5CDD
100
AcDbEntity
  8
SIZE
440
 16777216
100
AcDbLine
 10
273.9999999999744
 20
179.3998046869999
 30
0.0
 11
1031.520375114366
 21
179.399804687
 31
0.0
  0
LINE
  5
A76A7
330
A5CDD
100
AcDbEntity
  8
SIZE
440
 16777216
100
AcDbLine
 10
1021.520375114366
 20
-170.600195313
 30
0.0
 11
1021.520375114366
 21
169.399804687
 31
0.0
  0
INSERT
  5
A76A8
330
A5CDD
100
AcDbEntity
  8
SIZE
440
 16777216
100
AcDbBlockReference
  2
_ORIGIN
 10
1021.520375114366
 20
-180.600195313
 30
0.0
 41
10.0
 42
10.0
 43
10.0
 50
270.0
  0
INSERT
  5
A76A9
330
A5CDD
100
AcDbEntity
  8
SIZE
440
 16777216
100
AcDbBlockReference
  2
_ORIGIN
 10
1021.520375114366
 20
179.399804687
 30
0.0
 41
10.0
 42
10.0
 43
10.0
 50
90.0
  0
MTEXT
  5
A76AA
330
A5CDD
100
AcDbEntity
  8
SIZE
440
 16777216
100
AcDbMText
 10
989.0203751143658
 20
-0.6001953130002863
 30
0.0
 40
45.0
 41
602.5173262384781
 46
0.0
 71
     5
 72
     1
  1
\A1;349～371
 11
0.0000000000000001
 21
1.0
 31
0.0
 73
     1
 44
1.0
  0
POINT
  5
A76AB
330
A5CDD
100
AcDbEntity
  8
DEFPOINTS
 62
     0
440
 16777216
100
AcDbPoint
 10
263.9999999999763
 20
-180.6001953130001
 30
0.0
  0
POINT
  5
A76AC
330
A5CDD
100
AcDbEntity
  8
DEFPOINTS
 62
     0
440
 16777216
100
AcDbPoint
 10
263.9999999999744
 20
179.3998046869999
 30
0.0
  0
POINT
  5
A76AD
330
A5CDD
100
AcDbEntity
  8
DEFPOINTS
 62
     0
440
 16777216
100
AcDbPoint
 10
1021.520375114366
 20
179.399804687
 30
0.0
  0
ENDBLK
  5
A5CDF
330
A5CDD
100
AcDbEntity
  8
0
100
AcDbBlockEnd
  0
BLOCK
  5
A5CEB
330
A5CEA
100
AcDbEntity
  8
0
100
AcDbBlockBegin
  2
*D4
 70
     1
 10
0.0
 20
0.0
 30
0.0
  3
*D4
  1

  0
LINE
  5
A7659
330
A5CEA
100
AcDbEntity
  8
SIZE
440
 16777216
100
AcDbLine
 10
234.9999999999725
 20
-196.3844665605001
 30
0.0
 11
234.9999999999725
 21
-339.0934908334647
 31
0.0
  0
LINE
  5
A765A
330
A5CEA
100
AcDbEntity
  8
SIZE
440
 16777216
100
AcDbLine
 10
274.9999999999725
 20
-196.3844665605001
 30
0.0
 11
274.9999999999725
 21
-339.0934908334647
 31
0.0
  0
LINE
  5
A765B
330
A5CEA
100
AcDbEntity
  8
SIZE
440
 16777216
100
AcDbLine
 10
264.9999999999725
 20
-329.0934908334647
 30
0.0
 11
244.9999999999725
 21
-329.0934908334647
 31
0.0
  0
LINE
  5
A765C
330
A5CEA
100
AcDbEntity
  8
SIZE
440
 16777216
100
AcDbLine
 10
234.9999999999725
 20
-329.0934908334647
 30
0.0
 11
107.1694749727934
 21
-329.0934908334647
 31
0.0
  0
INSERT
  5
A765D
330
A5CEA
100
AcDbEntity
  8
SIZE
440
 16777216
100
AcDbBlockReference
  2
_ORIGIN
 10
274.9999999999725
 20
-329.0934908334647
 30
0.0
 41
10.0
 42
10.0
 43
10.0
  0
INSERT
  5
A765E
330
A5CEA
100
AcDbEntity
  8
SIZE
440
 16777216
100
AcDbBlockReference
  2
_ORIGIN
 10
234.9999999999725
 20
-329.0934908334647
 30
0.0
 41
10.0
 42
10.0
 43
10.0
 50
180.0
  0
MTEXT
  5
A765F
330
A5CEA
100
AcDbEntity
  8
SIZE
440
 16777216
100
AcDbMText
 10
149.9551892585077
 20
-296.5934908334647
 30
0.0
 40
45.0
 41
0.0
 46
0.0
 71
     5
 72
     1
  1
\A1;40
 73
     1
 44
1.0
  0
POINT
  5
A7660
330
A5CEA
100
AcDbEntity
  8
DEFPOINTS
 62
     0
440
 16777216
100
AcDbPoint
 10
234.9999999999725
 20
-186.3844665605001
 30
0.0
  0
POINT
  5
A7661
330
A5CEA
100
AcDbEntity
  8
DEFPOINTS
 62
     0
440
 16777216
100
AcDbPoint
 10
274.9999999999725
 20
-186.3844665605001
 30
0.0
  0
POINT
  5
A7662
330
A5CEA
100
AcDbEntity
  8
DEFPOINTS
 62
     0
440
 16777216
100
AcDbPoint
 10
274.9999999999725
 20
-329.0934908334647
 30
0.0
  0
ENDBLK
  5
A5CEC
330
A5CEA
100
AcDbEntity
  8
0
100
AcDbBlockEnd
  0
BLOCK
  5
A61A9
330
A61A8
100
AcDbEntity
  8
0
100
AcDbBlockBegin
  2
*D5
 70
     1
 10
0.0
 20
0.0
 30
0.0
  3
*D5
  1

  0
LINE
  5
A760E
330
A61A8
100
AcDbEntity
  8
SIZE
440
 16777216
100
AcDbLine
 10
-420.0000000000271
 20
159.0999999999999
 30
0.0
 11
-420.0000000000271
 21
424.0232896252017
 31
0.0
  0
LINE
  5
A760F
330
A61A8
100
AcDbEntity
  8
SIZE
440
 16777216
100
AcDbLine
 10
420.0000000000271
 20
162.9000000000001
 30
0.0
 11
420.0000000000271
 21
424.0232896252017
 31
0.0
  0
LINE
  5
A7610
330
A61A8
100
AcDbEntity
  8
SIZE
440
 16777216
100
AcDbLine
 10
-410.0000000000271
 20
414.0232896252016
 30
0.0
 11
410.0000000000271
 21
414.0232896252016
 31
0.0
  0
INSERT
  5
A7611
330
A61A8
100
AcDbEntity
  8
SIZE
440
 16777216
100
AcDbBlockReference
  2
_ORIGIN
 10
-420.0000000000271
 20
414.0232896252016
 30
0.0
 41
10.0
 42
10.0
 43
10.0
 50
180.0
  0
INSERT
  5
A7612
330
A61A8
100
AcDbEntity
  8
SIZE
440
 16777216
100
AcDbBlockReference
  2
_ORIGIN
 10
420.0000000000271
 20
414.0232896252016
 30
0.0
 41
10.0
 42
10.0
 43
10.0
  0
MTEXT
  5
A7613
330
A61A8
100
AcDbEntity
  8
SIZE
440
 16777216
100
AcDbMText
 10
0.0000000000000893
 20
446.5232896252016
 30
0.0
 40
45.0
 41
0.0
 46
0.0
 71
     5
 72
     1
  1
\A1;840
 73
     1
 44
1.0
  0
POINT
  5
A7614
330
A61A8
100
AcDbEntity
  8
DEFPOINTS
 62
     0
440
 16777216
100
AcDbPoint
 10
-420.0000000000271
 20
149.0999999999999
 30
0.0
  0
POINT
  5
A7615
330
A61A8
100
AcDbEntity
  8
DEFPOINTS
 62
     0
440
 16777216
100
AcDbPoint
 10
420.0000000000271
 20
152.9000000000001
 30
0.0
  0
POINT
  5
A7616
330
A61A8
100
AcDbEntity
  8
DEFPOINTS
 62
     0
440
 16777216
100
AcDbPoint
 10
420.0000000000271
 20
414.0232896252016
 30
0.0
  0
ENDBLK
  5
A61AA
330
A61A8
100
AcDbEntity
  8
0
100
AcDbBlockEnd
  0
BLOCK
  5
A623E
330
A623D
100
AcDbEntity
  8
0
100
AcDbBlockBegin
  2
*D6
 70
     1
 10
0.0
 20
0.0
 30
0.0
  3
*D6
  1

  0
LINE
  5
A71B3
330
A623D
100
AcDbEntity
  8
SIZE
440
 16777216
100
AcDbLine
 10
420.0000000000271
 20
162.9
 30
0.0
 11
420.0000000000271
 21
543.4144410325707
 31
0.0
  0
LINE
  5
A71B4
330
A623D
100
AcDbEntity
  8
SIZE
440
 16777216
100
AcDbLine
 10
770.0000000000671
 20
275.0
 30
0.0
 11
770.0000000000671
 21
543.4144410325707
 31
0.0
  0
LINE
  5
A71B5
330
A623D
100
AcDbEntity
  8
SIZE
440
 16777216
100
AcDbLine
 10
430.0000000000271
 20
533.4144410325706
 30
0.0
 11
760.0000000000671
 21
533.4144410325706
 31
0.0
  0
INSERT
  5
A71B6
330
A623D
100
AcDbEntity
  8
SIZE
440
 16777216
100
AcDbBlockReference
  2
_ORIGIN
 10
420.0000000000271
 20
533.4144410325706
 30
0.0
 41
10.0
 42
10.0
 43
10.0
 50
180.0
  0
INSERT
  5
A71B7
330
A623D
100
AcDbEntity
  8
SIZE
440
 16777216
100
AcDbBlockReference
  2
_ORIGIN
 10
770.0000000000671
 20
533.4144410325706
 30
0.0
 41
10.0
 42
10.0
 43
10.0
  0
MTEXT
  5
A71B8
330
A623D
100
AcDbEntity
  8
SIZE
440
 16777216
100
AcDbMText
 10
595.0000000000471
 20
565.9144410325707
 30
0.0
 40
45.0
 41
0.0
 46
0.0
 71
     5
 72
     1
  1
\A1;{\W0.8;<350 or more>}
 73
     1
 44
1.0
  0
POINT
  5
A71B9
330
A623D
100
AcDbEntity
  8
DEFPOINTS
 62
     0
440
 16777216
100
AcDbPoint
 10
420.0000000000271
 20
152.9
 30
0.0
  0
POINT
  5
A71BA
330
A623D
100
AcDbEntity
  8
DEFPOINTS
 62
     0
440
 16777216
100
AcDbPoint
 10
770.0000000000671
 20
264.9999999999999
 30
0.0
  0
POINT
  5
A71BB
330
A623D
100
AcDbEntity
  8
DEFPOINTS
 62
     0
440
 16777216
100
AcDbPoint
 10
770.0000000000671
 20
533.4144410325706
 30
0.0
  0
ENDBLK
  5
A623F
330
A623D
100
AcDbEntity
  8
0
100
AcDbBlockEnd
  0
BLOCK
  5
A624B
330
A624A
100
AcDbEntity
  8
0
100
AcDbBlockBegin
  2
*D7
 70
     1
 10
0.0
 20
0.0
 30
0.0
  3
*D7
  1

  0
LINE
  5
A71BC
330
A624A
100
AcDbEntity
  8
SIZE
440
 16777216
100
AcDbLine
 10
-420.0000000000271
 20
159.0999999999999
 30
0.0
 11
-420.0000000000271
 21
543.4144410325707
 31
0.0
  0
LINE
  5
A71BD
330
A624A
100
AcDbEntity
  8
SIZE
440
 16777216
100
AcDbLine
 10
-520.0000000000271
 20
275.0
 30
0.0
 11
-520.0000000000271
 21
543.4144410325707
 31
0.0
  0
LINE
  5
A71BE
330
A624A
100
AcDbEntity
  8
SIZE
440
 16777216
100
AcDbLine
 10
-430.0000000000271
 20
533.4144410325706
 30
0.0
 11
-510.0000000000271
 21
533.4144410325706
 31
0.0
  0
LINE
  5
A71BF
330
A624A
100
AcDbEntity
  8
SIZE
440
 16777216
100
AcDbLine
 10
-520.0000000000271
 20
533.4144410325706
 30
0.0
 11
-992.0285714285983
 21
533.4144410325706
 31
0.0
  0
INSERT
  5
A71C0
330
A624A
100
AcDbEntity
  8
SIZE
440
 16777216
100
AcDbBlockReference
  2
_ORIGIN
 10
-420.0000000000271
 20
533.4144410325706
 30
0.0
 41
10.0
 42
10.0
 43
10.0
  0
INSERT
  5
A71C1
330
A624A
100
AcDbEntity
  8
SIZE
440
 16777216
100
AcDbBlockReference
  2
_ORIGIN
 10
-520.0000000000271
 20
533.4144410325706
 30
0.0
 41
10.0
 42
10.0
 43
10.0
 50
180.0
  0
MTEXT
  5
A71C2
330
A624A
100
AcDbEntity
  8
SIZE
440
 16777216
100
AcDbMText
 10
-761.0142857143127
 20
565.9144410325707
 30
0.0
 40
45.0
 41
0.0
 46
0.0
 71
     5
 72
     1
  1
\A1;<100 or more>
 73
     1
 44
1.0
  0
POINT
  5
A71C3
330
A624A
100
AcDbEntity
  8
DEFPOINTS
 62
     0
440
 16777216
100
AcDbPoint
 10
-420.0000000000271
 20
149.0999999999999
 30
0.0
  0
POINT
  5
A71C4
330
A624A
100
AcDbEntity
  8
DEFPOINTS
 62
     0
440
 16777216
100
AcDbPoint
 10
-520.0000000000271
 20
265.0
 30
0.0
  0
POINT
  5
A71C5
330
A624A
100
AcDbEntity
  8
DEFPOINTS
 62
     0
440
 16777216
100
AcDbPoint
 10
-520.0000000000271
 20
533.4144410325706
 30
0.0
  0
ENDBLK
  5
A624C
330
A624A
100
AcDbEntity
  8
0
100
AcDbBlockEnd
  0
BLOCK
  5
A6F18
330
A6F17
100
AcDbEntity
  8
0
100
AcDbBlockBegin
  2
*D8
 70
     1
 10
0.0
 20
0.0
 30
0.0
  3
*D8
  1

  0
LINE
  5
A76F1
330
A6F17
100
AcDbEntity
  8
SIZE
440
 16777216
100
AcDbLine
 10
-412.0000000001273
 20
165.0000000000001
 30
0.0
 11
-766.87326951451
 21
165.0000000000001
 31
0.0
  0
LINE
  5
A76F2
330
A6F17
100
AcDbEntity
  8
SIZE
440
 16777216
100
AcDbLine
 10
-402.9600000000277
 20
-165.0000000000001
 30
0.0
 11
-766.87326951451
 21
-165.0000000000002
 31
0.0
  0
LINE
  5
A76F3
330
A6F17
100
AcDbEntity
  8
SIZE
440
 16777216
100
AcDbLine
 10
-756.8732695145099
 20
155.0000000000001
 30
0.0
 11
-756.8732695145099
 21
-155.0000000000002
 31
0.0
  0
INSERT
  5
A76F4
330
A6F17
100
AcDbEntity
  8
SIZE
440
 16777216
100
AcDbBlockReference
  2
_ORIGIN
 10
-756.8732695145099
 20
165.0000000000001
 30
0.0
 41
10.0
 42
10.0
 43
10.0
 50
90.0
  0
INSERT
  5
A76F5
330
A6F17
100
AcDbEntity
  8
SIZE
440
 16777216
100
AcDbBlockReference
  2
_ORIGIN
 10
-756.8732695145099
 20
-165.0000000000002
 30
0.0
 41
10.0
 42
10.0
 43
10.0
 50
270.0
  0
MTEXT
  5
A76F6
330
A6F17
100
AcDbEntity
  8
SIZE
440
 16777216
100
AcDbMText
 10
-789.3732695145098
 20
0.0000000000002029
 30
0.0
 40
45.0
 41
0.0
 46
0.0
 71
     5
 72
     1
  1
\A1;330
 11
0.0000000000000001
 21
1.0
 31
0.0
 73
     1
 44
1.0
  0
POINT
  5
A76F7
330
A6F17
100
AcDbEntity
  8
DEFPOINTS
 62
     0
440
 16777216
100
AcDbPoint
 10
-407.0000000001273
 20
165.0000000000001
 30
0.0
  0
POINT
  5
A76F8
330
A6F17
100
AcDbEntity
  8
DEFPOINTS
 62
     0
440
 16777216
100
AcDbPoint
 10
-397.9600000000277
 20
-165.0000000000001
 30
0.0
  0
POINT
  5
A76F9
330
A6F17
100
AcDbEntity
  8
DEFPOINTS
 62
     0
440
 16777216
100
AcDbPoint
 10
-756.8732695145099
 20
-165.0000000000002
 30
0.0
  0
ENDBLK
  5
A6F19
330
A6F17
100
AcDbEntity
  8
0
100
AcDbBlockEnd
  0
BLOCK
  5
A6F2E
330
A6F2D
100
AcDbEntity
  8
0
100
AcDbBlockBegin
  2
*D9
 70
     1
 10
0.0
 20
0.0
 30
0.0
  3
*D9
  1

  0
LINE
  5
A71F3
330
A6F2D
100
AcDbEntity
  8
SIZE
440
 16777216
100
AcDbLine
 10
-417.0000000001273
 20
165.0000000000001
 30
0.0
 11
-1047.555515005502
 21
165.0
 31
0.0
  0
LINE
  5
A71F4
330
A6F2D
100
AcDbEntity
  8
SIZE
440
 16777216
100
AcDbLine
 10
-530.0000000000274
 20
265.0000000000001
 30
0.0
 11
-1047.555515005502
 21
265.0000000000001
 31
0.0
  0
LINE
  5
A71F5
330
A6F2D
100
AcDbEntity
  8
SIZE
440
 16777216
100
AcDbLine
 10
-1037.555515005502
 20
175.0
 30
0.0
 11
-1037.555515005502
 21
255.0000000000001
 31
0.0
  0
LINE
  5
A71F6
330
A6F2D
100
AcDbEntity
  8
SIZE
440
 16777216
100
AcDbLine
 10
-1037.555515005502
 20
265.0000000000001
 30
0.0
 11
-1037.555515005502
 21
737.0285714285714
 31
0.0
  0
INSERT
  5
A71F7
330
A6F2D
100
AcDbEntity
  8
SIZE
440
 16777216
100
AcDbBlockReference
  2
_ORIGIN
 10
-1037.555515005502
 20
165.0
 30
0.0
 41
10.0
 42
10.0
 43
10.0
 50
270.0
  0
INSERT
  5
A71F8
330
A6F2D
100
AcDbEntity
  8
SIZE
440
 16777216
100
AcDbBlockReference
  2
_ORIGIN
 10
-1037.555515005502
 20
265.0000000000001
 30
0.0
 41
10.0
 42
10.0
 43
10.0
 50
90.0
  0
MTEXT
  5
A71F9
330
A6F2D
100
AcDbEntity
  8
SIZE
440
 16777216
100
AcDbMText
 10
-1070.055515005501
 20
506.0142857142857
 30
0.0
 40
45.0
 41
0.0
 46
0.0
 71
     5
 72
     1
  1
\A1;<100 or more>
 11
0.0000000000000001
 21
1.0
 31
0.0
 73
     1
 44
1.0
  0
POINT
  5
A71FA
330
A6F2D
100
AcDbEntity
  8
DEFPOINTS
 62
     0
440
 16777216
100
AcDbPoint
 10
-407.0000000001273
 20
165.0000000000001
 30
0.0
  0
POINT
  5
A71FB
330
A6F2D
100
AcDbEntity
  8
DEFPOINTS
 62
     0
440
 16777216
100
AcDbPoint
 10
-520.0000000000271
 20
265.0000000000001
 30
0.0
  0
POINT
  5
A71FC
330
A6F2D
100
AcDbEntity
  8
DEFPOINTS
 62
     0
440
 16777216
100
AcDbPoint
 10
-1037.555515005502
 20
265.0000000000001
 30
0.0
  0
ENDBLK
  5
A6F2F
330
A6F2D
100
AcDbEntity
  8
0
100
AcDbBlockEnd
  0
BLOCK
  5
A6F3C
330
A6F3B
100
AcDbEntity
  8
0
100
AcDbBlockBegin
  2
*D10
 70
     1
 10
0.0
 20
0.0
 30
0.0
  3
*D10
  1

  0
LINE
  5
A71FD
330
A6F3B
100
AcDbEntity
  8
SIZE
440
 16777216
100
AcDbLine
 10
-407.9600000003622
 20
-165.0000000000001
 30
0.0
 11
-1047.555515005503
 21
-165.0000000000002
 31
0.0
  0
LINE
  5
A71FE
330
A6F3B
100
AcDbEntity
  8
SIZE
440
 16777216
100
AcDbLine
 10
-530.0000000000277
 20
-665.0000000000002
 30
0.0
 11
-1047.555515005502
 21
-665.0000000000002
 31
0.0
  0
LINE
  5
A71FF
330
A6F3B
100
AcDbEntity
  8
SIZE
440
 16777216
100
AcDbLine
 10
-1037.555515005502
 20
-175.0000000000002
 30
0.0
 11
-1037.555515005502
 21
-655.0000000000002
 31
0.0
  0
INSERT
  5
A7200
330
A6F3B
100
AcDbEntity
  8
SIZE
440
 16777216
100
AcDbBlockReference
  2
_ORIGIN
 10
-1037.555515005502
 20
-165.0000000000002
 30
0.0
 41
10.0
 42
10.0
 43
10.0
 50
90.0
  0
INSERT
  5
A7201
330
A6F3B
100
AcDbEntity
  8
SIZE
440
 16777216
100
AcDbBlockReference
  2
_ORIGIN
 10
-1037.555515005502
 20
-665.0000000000002
 30
0.0
 41
10.0
 42
10.0
 43
10.0
 50
270.0
  0
MTEXT
  5
A7202
330
A6F3B
100
AcDbEntity
  8
SIZE
440
 16777216
100
AcDbMText
 10
-1070.055515005502
 20
-415.0
 30
0.0
 40
45.0
 41
0.0
 46
0.0
 71
     5
 72
     1
  1
\A1;<500 or more>
 11
0.0000000000000001
 21
1.0
 31
0.0
 73
     1
 44
1.0
  0
POINT
  5
A7203
330
A6F3B
100
AcDbEntity
  8
DEFPOINTS
 62
     0
440
 16777216
100
AcDbPoint
 10
-397.9600000003624
 20
-165.0000000000001
 30
0.0
  0
POINT
  5
A7204
330
A6F3B
100
AcDbEntity
  8
DEFPOINTS
 62
     0
440
 16777216
100
AcDbPoint
 10
-520.0000000000277
 20
-665.0000000000002
 30
0.0
  0
POINT
  5
A7205
330
A6F3B
100
AcDbEntity
  8
DEFPOINTS
 62
     0
440
 16777216
100
AcDbPoint
 10
-1037.555515005502
 20
-665.0000000000002
 30
0.0
  0
ENDBLK
  5
A6F3D
330
A6F3B
100
AcDbEntity
  8
0
100
AcDbBlockEnd
  0
BLOCK
  5
A7149
330
A7148
100
AcDbEntity
  8
0
100
AcDbBlockBegin
  2
*D11
 70
     1
 10
0.0
 20
0.0
 30
0.0
  3
*D11
  1

  0
LINE
  5
A7680
330
A7148
100
AcDbEntity
  8
SIZE
440
 16777216
100
AcDbLine
 10
264.9999999999726
 20
-198.1001953130004
 30
0.0
 11
1148.742422967746
 21
-198.1001953130002
 31
0.0
  0
LINE
  5
A7681
330
A7148
100
AcDbEntity
  8
SIZE
440
 16777216
100
AcDbLine
 10
277.4999999999726
 20
192.1998046869999
 30
0.0
 11
1148.742422967746
 21
192.199804687
 31
0.0
  0
LINE
  5
A7682
330
A7148
100
AcDbEntity
  8
SIZE
440
 16777216
100
AcDbLine
 10
1138.742422967746
 20
-188.1001953130001
 30
0.0
 11
1138.742422967746
 21
182.199804687
 31
0.0
  0
INSERT
  5
A7683
330
A7148
100
AcDbEntity
  8
SIZE
440
 16777216
100
AcDbBlockReference
  2
_ORIGIN
 10
1138.742422967746
 20
-198.1001953130002
 30
0.0
 41
10.0
 42
10.0
 43
10.0
 50
270.0
  0
INSERT
  5
A7684
330
A7148
100
AcDbEntity
  8
SIZE
440
 16777216
100
AcDbBlockReference
  2
_ORIGIN
 10
1138.742422967746
 20
192.199804687
 30
0.0
 41
10.0
 42
10.0
 43
10.0
 50
90.0
  0
MTEXT
  5
A7685
330
A7148
100
AcDbEntity
  8
SIZE
440
 16777216
100
AcDbMText
 10
1106.242422967745
 20
-2.950195313000423
 30
0.0
 40
45.0
 41
0.0
 46
0.0
 71
     5
 72
     1
  1
\A1;390
 11
0.0000000000000001
 21
1.0
 31
0.0
 73
     1
 44
1.0
  0
POINT
  5
A7686
330
A7148
100
AcDbEntity
  8
DEFPOINTS
 62
     0
440
 16777216
100
AcDbPoint
 10
254.9999999999726
 20
-198.1001953130004
 30
0.0
  0
POINT
  5
A7687
330
A7148
100
AcDbEntity
  8
DEFPOINTS
 62
     0
440
 16777216
100
AcDbPoint
 10
267.4999999999726
 20
192.1998046869999
 30
0.0
  0
POINT
  5
A7688
330
A7148
100
AcDbEntity
  8
DEFPOINTS
 62
     0
440
 16777216
100
AcDbPoint
 10
1138.742422967746
 20
192.199804687
 30
0.0
  0
ENDBLK
  5
A714A
330
A7148
100
AcDbEntity
  8
0
100
AcDbBlockEnd
  0
BLOCK
  5
A719F
330
A719E
100
AcDbEntity
  8
0
100
AcDbBlockBegin
  2
*D12
 70
     1
 10
0.0
 20
0.0
 30
0.0
  3
*D12
  1

  0
LINE
  5
A7617
330
A719E
100
AcDbEntity
  8
SIZE
440
 16777216
100
AcDbLine
 10
420.0000000000271
 20
162.9000000000001
 30
0.0
 11
420.0000000000271
 21
424.0232896252017
 31
0.0
  0
LINE
  5
A7618
330
A719E
100
AcDbEntity
  8
SIZE
440
 16777216
100
AcDbLine
 10
501.0000000000268
 20
25.41281533599028
 30
0.0
 11
501.0000000000268
 21
424.0232896252017
 31
0.0
  0
LINE
  5
A7619
330
A719E
100
AcDbEntity
  8
SIZE
440
 16777216
100
AcDbLine
 10
430.0000000000271
 20
414.0232896252016
 30
0.0
 11
491.0000000000267
 21
414.0232896252016
 31
0.0
  0
INSERT
  5
A761A
330
A719E
100
AcDbEntity
  8
SIZE
440
 16777216
100
AcDbBlockReference
  2
_ORIGIN
 10
420.0000000000271
 20
414.0232896252016
 30
0.0
 41
10.0
 42
10.0
 43
10.0
 50
180.0
  0
INSERT
  5
A761B
330
A719E
100
AcDbEntity
  8
SIZE
440
 16777216
100
AcDbBlockReference
  2
_ORIGIN
 10
501.0000000000268
 20
414.0232896252016
 30
0.0
 41
10.0
 42
10.0
 43
10.0
  0
MTEXT
  5
A761C
330
A719E
100
AcDbEntity
  8
SIZE
440
 16777216
100
AcDbMText
 10
460.5000000000268
 20
446.5232896252016
 30
0.0
 40
45.0
 41
0.0
 46
0.0
 71
     5
 72
     1
  1
\A1;81
 73
     1
 44
1.0
  0
POINT
  5
A761D
330
A719E
100
AcDbEntity
  8
DEFPOINTS
 62
     0
440
 16777216
100
AcDbPoint
 10
420.0000000000271
 20
152.9000000000001
 30
0.0
  0
POINT
  5
A761E
330
A719E
100
AcDbEntity
  8
DEFPOINTS
 62
     0
440
 16777216
100
AcDbPoint
 10
501.0000000000268
 20
15.41281533599028
 30
0.0
  0
POINT
  5
A761F
330
A719E
100
AcDbEntity
  8
DEFPOINTS
 62
     0
440
 16777216
100
AcDbPoint
 10
501.0000000000268
 20
414.0232896252016
 30
0.0
  0
ENDBLK
  5
A71A0
330
A719E
100
AcDbEntity
  8
0
100
AcDbBlockEnd
  0
BLOCK
  5
A7296
330
A7295
100
AcDbEntity
  8
0
100
AcDbBlockBegin
  2
*D13
 70
     1
 10
0.0
 20
0.0
 30
0.0
  3
*D13
  1

  0
LINE
  5
A7675
330
A7295
100
AcDbEntity
  8
SIZE
440
 16777216
100
AcDbLine
 10
269.9999999999726
 20
-180.6001953130001
 30
0.0
 11
1031.520375114365
 21
-180.600195313
 31
0.0
  0
LINE
  5
A7676
330
A7295
100
AcDbEntity
  8
SIZE
440
 16777216
100
AcDbLine
 10
264.9999999999726
 20
-198.1001953130002
 30
0.0
 11
1031.520375114365
 21
-198.1001953130001
 31
0.0
  0
LINE
  5
A7677
330
A7295
100
AcDbEntity
  8
SIZE
440
 16777216
100
AcDbLine
 10
1021.520375114365
 20
-170.600195313
 30
0.0
 11
1021.520375114365
 21
-160.600195313
 31
0.0
  0
LINE
  5
A7678
330
A7295
100
AcDbEntity
  8
SIZE
440
 16777216
100
AcDbLine
 10
1021.520375114365
 20
-208.1001953130001
 30
0.0
 11
1021.520375114365
 21
-353.8144810272858
 31
0.0
  0
LINE
  5
A7679
330
A7295
100
AcDbEntity
  8
SIZE
440
 16777216
100
AcDbLine
 10
1021.520375114365
 20
-180.600195313
 30
0.0
 11
1021.520375114365
 21
-198.1001953130001
 31
0.0
  0
INSERT
  5
A767A
330
A7295
100
AcDbEntity
  8
SIZE
440
 16777216
100
AcDbBlockReference
  2
_ORIGIN
 10
1021.520375114365
 20
-180.600195313
 30
0.0
 41
10.0
 42
10.0
 43
10.0
 50
270.0
  0
INSERT
  5
A767B
330
A7295
100
AcDbEntity
  8
SIZE
440
 16777216
100
AcDbBlockReference
  2
_ORIGIN
 10
1021.520375114365
 20
-198.1001953130001
 30
0.0
 41
10.0
 42
10.0
 43
10.0
 50
90.0
  0
MTEXT
  5
A767C
330
A7295
100
AcDbEntity
  8
SIZE
440
 16777216
100
AcDbMText
 10
989.0203751143653
 20
-285.9573381701432
 30
0.0
 40
45.0
 41
0.0
 46
0.0
 71
     5
 72
     1
  1
\A1;17.5
 11
0.0000000000000001
 21
1.0
 31
0.0
 73
     1
 44
1.0
  0
POINT
  5
A767D
330
A7295
100
AcDbEntity
  8
DEFPOINTS
 62
     0
440
 16777216
100
AcDbPoint
 10
259.9999999999726
 20
-180.6001953130001
 30
0.0
  0
POINT
  5
A767E
330
A7295
100
AcDbEntity
  8
DEFPOINTS
 62
     0
440
 16777216
100
AcDbPoint
 10
254.9999999999726
 20
-198.1001953130002
 30
0.0
  0
POINT
  5
A767F
330
A7295
100
AcDbEntity
  8
DEFPOINTS
 62
     0
440
 16777216
100
AcDbPoint
 10
1021.520375114365
 20
-198.1001953130001
 30
0.0
  0
ENDBLK
  5
A7297
330
A7295
100
AcDbEntity
  8
0
100
AcDbBlockEnd
  0
BLOCK
  5
A7402
330
A7400
100
AcDbEntity
  8
0
100
AcDbBlockBegin
  2
GENAXEH
 70
     0
 10
0.0
 20
0.0
 30
0.0
  3
GENAXEH
  1

  0
LINE
  5
A7401
330
A7400
100
AcDbEntity
  8
0
100
AcDbLine
 10
-1.0
 20
0.0
 30
0.0
 11
1.0
 21
0.0
 31
0.0
  0
ENDBLK
  5
A7403
330
A7400
100
AcDbEntity
  8
0
100
AcDbBlockEnd
  0
BLOCK
  5
A7411
330
A7410
100
AcDbEntity
  8
0
100
AcDbBlockBegin
  2
_ACMFILLEDHALF
 70
     0
 10
0.0
 20
0.0
 30
0.0
  3
_ACMFILLEDHALF
  1

  0
TRACE
  5
A7413
330
A7410
100
AcDbEntity
  8
SIZE
 62
     0
100
AcDbTrace
 10
-0.8
 20
0.0
 30
0.0
 11
-1.0
 21
0.166666666
 31
0.0
 12
0.0
 22
0.0
 32
0.0
 13
0.0
 23
0.0
 33
0.0
  0
LINE
  5
A7414
330
A7410
100
AcDbEntity
  8
SIZE
 62
     0
100
AcDbLine
 10
-1.0
 20
0.0
 30
0.0
 11
-0.8
 21
0.0
 31
0.0
  0
ENDBLK
  5
A7412
330
A7410
100
AcDbEntity
  8
0
100
AcDbBlockEnd
  0
ENDSEC
  0
SECTION
  2
ENTITIES
  0
MTEXT
  5
38341
330
1E
100
AcDbEntity
  8
0
  6
Continuous
100
AcDbMText
 10
383.9605305094082
 20
4023.282340837186
 30
0.0
 40
64.0
 41
187.9848
 46
0.0
 71
     1
 72
     5
  1

 73
     1
 44
1.0
  0
TEXT
  5
97F1B
330
1E
100
AcDbEntity
  8
ETC
100
AcDbText
 10
635.148856113549
 20
566.2304283754602
 30
0.0
 40
45.0
  1
MUZ-RW50VGHZ-E*_1
 41
0.8
 11
635.148856113549
 21
560.2304283754603
 31
0.0
100
AcDbText
 73
     1
  0
LINE
  5
A07A4
330
1E
100
AcDbEntity
  8
BASIS
  6
CENTER
100
AcDbLine
 10
254.9999999999725
 20
-159.600195313001
 30
0.0
 11
254.9999999999725
 21
-201.6001953129992
 31
0.0
  0
LINE
  5
A07A5
330
1E
100
AcDbEntity
  8
BASIS
  6
CENTER
100
AcDbLine
 10
263.9999999999762
 20
-180.6001953130001
 30
0.0
 11
245.9999999999725
 21
-180.6001953130001
 31
0.0
  0
LINE
  5
A07C0
330
1E
100
AcDbEntity
  8
BASIS
  6
CENTER
100
AcDbLine
 10
-245.0000000000275
 20
-159.600000000001
 30
0.0
 11
-245.0000000000275
 21
-201.5999999999992
 31
0.0
  0
LINE
  5
A07DD
330
1E
100
AcDbEntity
  8
BASIS
  6
CENTER
100
AcDbLine
 10
263.9999999999743
 20
179.3998046869999
 30
0.0
 11
245.9999999999707
 21
179.3998046869999
 31
0.0
  0
LINE
  5
A07DF
330
1E
100
AcDbEntity
  8
BASIS
  6
CENTER
100
AcDbLine
 10
-245.0000000000275
 20
200.6998046869993
 30
0.0
 11
-245.0000000000275
 21
158.6998046870009
 31
0.0
  0
LINE
  5
A07E0
330
1E
100
AcDbEntity
  8
BASIS
  6
CENTER
100
AcDbLine
 10
-236.000000000024
 20
179.3998046870001
 30
0.0
 11
-254.0000000000275
 21
179.3998046870001
 31
0.0
  0
LINE
  5
A090F
330
1E
100
AcDbEntity
  8
BASIS
  6
CENTERX2
100
AcDbLine
 10
0.0000000000000284
 20
200.768171128649
 30
0.0
 11
0.0000000000000284
 21
-200.768171128649
 31
0.0
  0
LINE
  5
A0910
330
1E
100
AcDbEntity
  8
BASIS
  6
CENTERX2
100
AcDbLine
 10
523.3207918094704
 20
0.0
 30
0.0
 11
-447.0457389333363
 21
0.0
 31
0.0
  0
CIRCLE
  5
A0911
330
1E
100
AcDbEntity
  8
ARRANGE
100
AcDbCircle
 10
0.0000000000000284
 20
0.0
 30
0.0
 40
40.0
  0
POINT
  5
A0912
330
1E
100
AcDbEntity
  8
ARRANGE
100
AcDbPoint
 10
0.0000000000000284
 20
0.0
 30
0.0
  0
TEXT
  5
A0913
330
1E
100
AcDbEntity
  8
NOTE
100
AcDbText
 10
-201.7703588478123
 20
-362.7687206274857
 30
0.0
 40
45.0
  1
AIR OUT
 41
0.8
100
AcDbText
  0
LINE
  5
A0914
330
1E
100
AcDbEntity
  8
NOTE
100
AcDbLine
 10
-98.70660479278006
 20
-236.0416411044578
 30
0.0
 11
-122.9478429184759
 21
-236.0416411044578
 31
0.0
  0
LINE
  5
A0915
330
1E
100
AcDbEntity
  8
NOTE
100
AcDbLine
 10
-110.8272238556293
 20
-300.7506329452856
 30
0.0
 11
-78.66611896282112
 21
-268.6564033592068
 31
0.0
  0
LINE
  5
A0916
330
1E
100
AcDbEntity
  8
NOTE
100
AcDbLine
 10
-122.9478429184759
 20
-268.6564033592068
 30
0.0
 11
-122.9478429184759
 21
-236.0416411044578
 31
0.0
  0
LINE
  5
A0917
330
1E
100
AcDbEntity
  8
NOTE
100
AcDbLine
 10
-142.9883287484353
 20
-268.6564033592068
 30
0.0
 11
-122.9478429184759
 21
-268.6564033592068
 31
0.0
  0
LINE
  5
A0918
330
1E
100
AcDbEntity
  8
NOTE
100
AcDbLine
 10
-142.9883287484353
 20
-268.6564033592068
 30
0.0
 11
-110.8272238556293
 21
-300.7506329452856
 31
0.0
  0
LINE
  5
A0919
330
1E
100
AcDbEntity
  8
NOTE
100
AcDbLine
 10
-98.70660479278006
 20
-268.6564033592068
 30
0.0
 11
-98.70660479278006
 21
-236.0416411044578
 31
0.0
  0
LINE
  5
A091A
330
1E
100
AcDbEntity
  8
NOTE
100
AcDbLine
 10
-98.70660479278006
 20
-268.6564033592068
 30
0.0
 11
-78.66611896282112
 21
-268.6564033592068
 31
0.0
  0
LINE
  5
A091B
330
1E
100
AcDbEntity
  8
NOTE
100
AcDbLine
 10
-104.7204324178226
 20
264.0646924495062
 30
0.0
 11
-84.67994658786341
 21
264.0646924495062
 31
0.0
  0
LINE
  5
A091C
330
1E
100
AcDbEntity
  8
NOTE
100
AcDbLine
 10
-116.8410514806721
 20
231.970462863427
 30
0.0
 11
-84.67994658786341
 21
264.0646924495062
 31
0.0
  0
LINE
  5
A091D
330
1E
100
AcDbEntity
  8
NOTE
100
AcDbLine
 10
-104.7204324178226
 20
264.0646924495062
 30
0.0
 11
-104.7204324178226
 21
296.6794547042547
 31
0.0
  0
LINE
  5
A091E
330
1E
100
AcDbEntity
  8
NOTE
100
AcDbLine
 10
-128.9616705435186
 20
264.0646924495062
 30
0.0
 11
-128.9616705435186
 21
296.6794547042547
 31
0.0
  0
LINE
  5
A091F
330
1E
100
AcDbEntity
  8
NOTE
100
AcDbLine
 10
-149.0021563734775
 20
264.0646924495062
 30
0.0
 11
-116.8410514806721
 21
231.970462863427
 31
0.0
  0
LINE
  5
A0920
330
1E
100
AcDbEntity
  8
NOTE
100
AcDbLine
 10
-149.0021563734775
 20
264.0646924495062
 30
0.0
 11
-128.9616705435186
 21
264.0646924495062
 31
0.0
  0
LINE
  5
A0921
330
1E
100
AcDbEntity
  8
NOTE
100
AcDbLine
 10
-104.7204324178226
 20
296.6794547042547
 30
0.0
 11
-128.9616705435186
 21
296.6794547042547
 31
0.0
  0
TEXT
  5
A0922
330
1E
100
AcDbEntity
  8
NOTE
100
AcDbText
 10
-199.086298638995
 20
317.9113879597766
 30
0.0
 40
45.0
  1
AIR IN
 41
0.8
100
AcDbText
  0
LINE
  5
A22C1
330
1E
100
AcDbEntity
  8
NOTE
  6
CENTER
100
AcDbLine
 10
-109.9488330597775
 20
-140.2411372863725
 30
0.0
 11
-109.9488330597775
 21
-206.933841252262
 31
0.0
  0
LINE
  5
A35B2
330
1E
100
AcDbEntity
  8
NOTE
100
AcDbLine
 10
-510.7019401536703
 20
-10.35733310643565
 30
0.0
 11
-510.7019401536703
 21
-30.39781893639494
 31
0.0
  0
LINE
  5
A35B3
330
1E
100
AcDbEntity
  8
NOTE
100
AcDbLine
 10
-478.6077105675907
 20
1.763285956413781
 30
0.0
 11
-510.7019401536703
 21
-30.39781893639494
 31
0.0
  0
LINE
  5
A35B4
330
1E
100
AcDbEntity
  8
NOTE
100
AcDbLine
 10
-510.7019401536703
 20
-10.35733310643565
 30
0.0
 11
-543.3167024084187
 21
-10.35733310643565
 31
0.0
  0
LINE
  5
A35B5
330
1E
100
AcDbEntity
  8
NOTE
100
AcDbLine
 10
-510.7019401536703
 20
13.8839050192603
 30
0.0
 11
-543.3167024084187
 21
13.8839050192603
 31
0.0
  0
LINE
  5
A35B6
330
1E
100
AcDbEntity
  8
NOTE
100
AcDbLine
 10
-510.7019401536703
 20
33.92439084921921
 30
0.0
 11
-478.6077105675907
 21
1.763285956413781
 31
0.0
  0
LINE
  5
A35B7
330
1E
100
AcDbEntity
  8
NOTE
100
AcDbLine
 10
-510.7019401536703
 20
33.92439084921921
 30
0.0
 11
-510.7019401536703
 21
13.8839050192603
 31
0.0
  0
LINE
  5
A35B8
330
1E
100
AcDbEntity
  8
NOTE
100
AcDbLine
 10
-543.3167024084187
 20
-10.35733310643565
 30
0.0
 11
-543.3167024084187
 21
13.8839050192603
 31
0.0
  0
TEXT
  5
A35B9
330
1E
100
AcDbEntity
  8
NOTE
100
AcDbText
 10
-709.0575460261761
 20
-22.70920634847077
 30
0.0
 40
45.0
  1
AIR IN
 41
0.8
100
AcDbText
  0
LINE
  5
A3D66
330
1E
100
AcDbEntity
  8
DETAIL
100
AcDbLine
 10
-432.8954441263948
 20
126.5149337007775
 30
0.0
 11
-432.89544402566
 21
45.38597637453209
 31
0.0
  0
LINE
  5
A3D67
330
1E
100
AcDbEntity
  8
DETAIL
100
AcDbLine
 10
-424.0000000000271
 20
39.85206852460004
 30
0.0
 11
-424.0000000000271
 21
132.2004747525999
 31
0.0
  0
LINE
  5
A3D68
330
1E
100
AcDbEntity
  8
DETAIL
100
AcDbLine
 10
-423.0000000000272
 20
33.09751325900001
 30
0.0
 11
-423.0000000000272
 21
138.8034007092999
 31
0.0
  0
LINE
  5
A3D6C
330
1E
100
AcDbEntity
  8
DETAIL
100
AcDbLine
 10
-420.0000000000271
 20
149.0999999999998
 30
0.0
 11
-420.0000000000271
 21
-119.1905989232998
 31
0.0
  0
LINE
  5
A3D6E
330
1E
100
AcDbEntity
  8
DETAIL
100
AcDbLine
 10
-420.0000000000271
 20
-143.0
 30
0.0
 11
-420.0000000000271
 21
-134.2863070659998
 31
0.0
  0
LINE
  5
A3D6F
330
1E
100
AcDbEntity
  8
DETAIL
100
AcDbLine
 10
-418.3000000000275
 20
-144.8000000000002
 30
0.0
 11
-418.3000000000275
 21
152.7999999999997
 31
0.0
  0
LINE
  5
A3D70
330
1E
100
AcDbEntity
  8
DETAIL
100
AcDbLine
 10
-407.0000000001271
 20
165.0000000000001
 30
0.0
 11
-407.0000000001273
 21
163.2999999999999
 31
0.0
  0
LINE
  5
A3D71
330
1E
100
AcDbEntity
  8
DETAIL
100
AcDbLine
 10
-403.2432647714274
 20
163.2999999998999
 30
0.0
 11
-403.2433702965271
 21
163.2913207274999
 31
0.0
  0
LINE
  5
A3D72
330
1E
100
AcDbEntity
  8
DETAIL
100
AcDbLine
 10
-384.8892624825276
 20
171.7814167994998
 30
0.0
 11
-386.0850092316478
 21
165.0000000000001
 31
0.0
  0
LINE
  5
A3D73
330
1E
100
AcDbEntity
  8
DETAIL
100
AcDbLine
 10
-381.8981090305276
 20
171.2604722664999
 30
0.0
 11
-383.0019992030468
 21
165.0000000000001
 31
0.0
  0
LINE
  5
A3D74
330
1E
100
AcDbEntity
  8
DETAIL
100
AcDbLine
 10
-383.3000000000275
 20
119.1499999999999
 30
0.0
 11
-383.3000000000275
 21
-119.1499999999999
 31
0.0
  0
LINE
  5
A3D75
330
1E
100
AcDbEntity
  8
DETAIL
100
AcDbLine
 10
-380.4576275939276
 20
175.4987173533998
 30
0.0
 11
-380.4576275939276
 21
175.4999999999999
 31
0.0
  0
LINE
  5
A3D76
330
1E
100
AcDbEntity
  8
DETAIL
100
AcDbLine
 10
-373.3000000000274
 20
-119.1499999999999
 30
0.0
 11
-373.3000000000274
 21
119.1499999999999
 31
0.0
  0
LINE
  5
A3D77
330
1E
100
AcDbEntity
  8
DETAIL
100
AcDbLine
 10
-422.6485281374275
 20
139.6519288466999
 30
0.0
 11
-420.1757359313273
 21
142.1247210527999
 31
0.0
  0
LINE
  5
A3D78
330
1E
100
AcDbEntity
  8
DETAIL
100
AcDbLine
 10
-386.4600000000276
 20
-166.5000000000001
 30
0.0
 11
-387.9600000000276
 21
-165.0000000000001
 31
0.0
  0
LINE
  5
A3D79
330
1E
100
AcDbEntity
  8
DETAIL
100
AcDbLine
 10
-364.5741266222277
 20
-178.5000000000001
 30
0.0
 11
-364.5741266222277
 21
-165.0000000000001
 31
0.0
  0
LINE
  5
A3D7B
330
1E
100
AcDbEntity
  8
DETAIL
100
AcDbLine
 10
-360.3741266222275
 20
-178.6000000000001
 30
0.0
 11
-360.3741266222275
 21
-165.0000000000001
 31
0.0
  0
LINE
  5
A3D7E
330
1E
100
AcDbEntity
  8
DETAIL
100
AcDbLine
 10
-358.3000000000275
 20
-42.65000000000006
 30
0.0
 11
-358.3000000000275
 21
42.6500000000001
 31
0.0
  0
LINE
  5
A3D7F
330
1E
100
AcDbEntity
  8
DETAIL
100
AcDbLine
 10
-358.3000000000275
 20
60.65000000000011
 30
0.0
 11
-358.3000000000275
 21
121.6500000000001
 31
0.0
  0
LINE
  5
A3D80
330
1E
100
AcDbEntity
  8
DETAIL
100
AcDbLine
 10
-318.4079124808274
 20
176.9999999999999
 30
0.0
 11
-318.4079124808274
 21
165.0000000000001
 31
0.0
  0
LINE
  5
A3D81
330
1E
100
AcDbEntity
  8
DETAIL
100
AcDbLine
 10
-315.4079124808275
 20
176.9999999999999
 30
0.0
 11
-315.4079124808275
 21
165.0000000000001
 31
0.0
  0
LINE
  5
A3D83
330
1E
100
AcDbEntity
  8
DETAIL
100
AcDbLine
 10
-290.6115223479276
 20
-176.4
 30
0.0
 11
-290.6115223479276
 21
-172.0999999999999
 31
0.0
  0
LINE
  5
A3D84
330
1E
100
AcDbEntity
  8
DETAIL
100
AcDbLine
 10
-419.4000000000275
 20
-120.2298294078
 30
0.0
 11
-418.3000000000275
 21
-120.8649147039
 31
0.0
  0
LINE
  5
A3D86
330
1E
100
AcDbEntity
  8
DETAIL
100
AcDbLine
 10
-265.0000000000275
 20
184.699804687
 30
0.0
 11
-265.0000000000275
 21
175.4999999999999
 31
0.0
  0
LINE
  5
A3D87
330
1E
100
AcDbEntity
  8
DETAIL
100
AcDbLine
 10
-265.0000000000275
 20
172.4999999999999
 30
0.0
 11
-265.0000000000275
 21
165.0000000000001
 31
0.0
  0
LINE
  5
A3D88
330
1E
100
AcDbEntity
  8
DETAIL
100
AcDbLine
 10
-265.0000000000275
 20
-166.5000000000001
 30
0.0
 11
-265.0000000000275
 21
-167.9
 31
0.0
  0
LINE
  5
A3D89
330
1E
100
AcDbEntity
  8
DETAIL
100
AcDbLine
 10
-265.0000000000275
 20
-172.1
 30
0.0
 11
-265.0000000000275
 21
-176.4
 31
0.0
  0
LINE
  5
A3D8A
330
1E
100
AcDbEntity
  8
DETAIL
100
AcDbLine
 10
-265.0000000000275
 20
-183.6000000000001
 30
0.0
 11
-265.0000000000275
 21
-186.3844665605001
 31
0.0
  0
LINE
  5
A3D8B
330
1E
100
AcDbEntity
  8
DETAIL
100
AcDbLine
 10
-250.0000000000275
 20
184.699804687
 30
0.0
 11
-250.0000000000275
 21
175.4999999999999
 31
0.0
  0
LINE
  5
A3D8C
330
1E
100
AcDbEntity
  8
DETAIL
100
AcDbLine
 10
-250.0000000000275
 20
-175.1001953130002
 30
0.0
 11
-250.0000000000275
 21
-176.4
 31
0.0
  0
LINE
  5
A3D8D
330
1E
100
AcDbEntity
  8
DETAIL
100
AcDbLine
 10
-250.0000000000275
 20
-183.6000000000001
 30
0.0
 11
-250.0000000000275
 21
-186.1001953130001
 31
0.0
  0
LINE
  5
A3D92
330
1E
100
AcDbEntity
  8
DETAIL
100
AcDbLine
 10
-240.0000000000275
 20
-186.1001953130001
 30
0.0
 11
-240.0000000000275
 21
-183.6000000000001
 31
0.0
  0
LINE
  5
A3D93
330
1E
100
AcDbEntity
  8
DETAIL
100
AcDbLine
 10
-240.0000000000275
 20
-176.4
 30
0.0
 11
-240.0000000000275
 21
-175.1001953130002
 31
0.0
  0
LINE
  5
A3D94
330
1E
100
AcDbEntity
  8
DETAIL
100
AcDbLine
 10
-240.0000000000275
 20
175.4999999999999
 30
0.0
 11
-240.0000000000275
 21
184.699804687
 31
0.0
  0
LINE
  5
A3D96
330
1E
100
AcDbEntity
  8
DETAIL
100
AcDbLine
 10
-420.1757359313273
 20
29.77619291540005
 30
0.0
 11
-422.6485281374275
 21
32.24898512149998
 31
0.0
  0
LINE
  5
A3D97
330
1E
100
AcDbEntity
  8
DETAIL
100
AcDbLine
 10
-187.9500000003274
 20
-187.0000000000001
 30
0.0
 11
-189.9500000003274
 21
-184.9999999999999
 31
0.0
  0
LINE
  5
A3D9A
330
1E
100
AcDbEntity
  8
DETAIL
100
AcDbLine
 10
-225.0000000000275
 20
184.699804687
 30
0.0
 11
-225.0000000000275
 21
175.4999999999999
 31
0.0
  0
LINE
  5
A3D9B
330
1E
100
AcDbEntity
  8
DETAIL
100
AcDbLine
 10
-225.0000000000275
 20
-166.5000000000001
 30
0.0
 11
-225.0000000000275
 21
-167.9
 31
0.0
  0
LINE
  5
A3D9C
330
1E
100
AcDbEntity
  8
DETAIL
100
AcDbLine
 10
-225.0000000000275
 20
-186.3844665605001
 30
0.0
 11
-225.0000000000275
 21
-183.6000000000001
 31
0.0
  0
LINE
  5
A3D9D
330
1E
100
AcDbEntity
  8
DETAIL
100
AcDbLine
 10
-225.0000000000275
 20
-176.4
 30
0.0
 11
-225.0000000000275
 21
-172.1
 31
0.0
  0
LINE
  5
A3D9E
330
1E
100
AcDbEntity
  8
DETAIL
100
AcDbLine
 10
-225.0000000000276
 20
165.0000000000001
 30
0.0
 11
-225.0000000000275
 21
172.4999999999999
 31
0.0
  0
LINE
  5
A3D9F
330
1E
100
AcDbEntity
  8
DETAIL
100
AcDbLine
 10
-133.9144660941275
 20
164.3355339059
 30
0.0
 11
-134.3642135624275
 21
163.8857864375999
 31
0.0
  0
LINE
  5
A3DA0
330
1E
100
AcDbEntity
  8
DETAIL
100
AcDbLine
 10
-189.9500000003274
 20
-183.6000000000001
 30
0.0
 11
-189.9500000003274
 21
-184.9999999999999
 31
0.0
  0
LINE
  5
A3DA1
330
1E
100
AcDbEntity
  8
DETAIL
100
AcDbLine
 10
-135.4079124808274
 20
176.9999999999999
 30
0.0
 11
-135.4079124808274
 21
165.0000000000001
 31
0.0
  0
LINE
  5
A3DA2
330
1E
100
AcDbEntity
  8
DETAIL
100
AcDbLine
 10
-132.4079124808274
 20
176.9999999999999
 30
0.0
 11
-132.4079124808274
 21
165.3690469211998
 31
0.0
  0
LINE
  5
A3DA4
330
1E
100
AcDbEntity
  8
DETAIL
100
AcDbLine
 10
-187.9475207451274
 20
-187.0000000000001
 30
0.0
 11
-31.95014537442761
 21
-187.0000000000001
 31
0.0
  0
LINE
  5
A3DA5
330
1E
100
AcDbEntity
  8
DETAIL
100
AcDbLine
 10
-189.9500000003274
 20
-184.9999999999999
 30
0.0
 11
-29.95000000032746
 21
-184.9999999999999
 31
0.0
  0
LINE
  5
A3DA6
330
1E
100
AcDbEntity
  8
DETAIL
100
AcDbLine
 10
139.5741266215723
 20
-183.6000000000001
 30
0.0
 11
-359.4741266222275
 21
-183.6000000000001
 31
0.0
  0
LINE
  5
A3DAC
330
1E
100
AcDbEntity
  8
DETAIL
100
AcDbLine
 10
-358.3741266222275
 20
-180.6000000000001
 30
0.0
 11
-112.0500000003275
 21
-180.6000000000001
 31
0.0
  0
LINE
  5
A3DAD
330
1E
100
AcDbEntity
  8
DETAIL
100
AcDbLine
 10
-107.8500000003275
 20
-180.6000000000001
 30
0.0
 11
138.4741266215721
 21
-180.6000000000001
 31
0.0
  0
LINE
  5
A3DB1
330
1E
100
AcDbEntity
  8
DETAIL
100
AcDbLine
 10
-360.3741266222274
 20
-176.4
 30
0.0
 11
-112.0500000003275
 21
-176.4
 31
0.0
  0
LINE
  5
A3DB3
330
1E
100
AcDbEntity
  8
DETAIL
100
AcDbLine
 10
-107.8500000003275
 20
-176.4
 30
0.0
 11
140.4741266215721
 21
-176.4
 31
0.0
  0
LINE
  5
A3DB6
330
1E
100
AcDbEntity
  8
DETAIL
100
AcDbLine
 10
140.4741266215721
 20
-172.1
 30
0.0
 11
-107.8500000003275
 21
-172.1
 31
0.0
  0
LINE
  5
A3DB8
330
1E
100
AcDbEntity
  8
DETAIL
100
AcDbLine
 10
-112.0500000003275
 20
-172.1
 30
0.0
 11
-360.3741266222274
 21
-172.1
 31
0.0
  0
LINE
  5
A3DBA
330
1E
100
AcDbEntity
  8
DETAIL
100
AcDbLine
 10
140.4741266215721
 20
-167.9
 30
0.0
 11
-107.8500000003275
 21
-167.9
 31
0.0
  0
LINE
  5
A3DBC
330
1E
100
AcDbEntity
  8
DETAIL
100
AcDbLine
 10
-112.0500000003275
 20
-167.9
 30
0.0
 11
-360.3741266222274
 21
-167.9
 31
0.0
  0
LINE
  5
A3DBD
330
1E
100
AcDbEntity
  8
DETAIL
100
AcDbLine
 10
-112.0500000003275
 20
-181.5000000000001
 30
0.0
 11
-112.0500000003275
 21
-165.0000000000001
 31
0.0
  0
LINE
  5
A3DBE
330
1E
100
AcDbEntity
  8
DETAIL
100
AcDbLine
 10
-107.8500000003275
 20
-181.5000000000001
 30
0.0
 11
-107.8500000003275
 21
-165.0000000000001
 31
0.0
  0
LINE
  5
A3DC3
330
1E
100
AcDbEntity
  8
DETAIL
100
AcDbLine
 10
384.8999765594724
 20
-166.5000000000001
 30
0.0
 11
144.6741266215723
 21
-166.5000000000001
 31
0.0
  0
LINE
  5
A3DC4
330
1E
100
AcDbEntity
  8
DETAIL
100
AcDbLine
 10
140.4741266215721
 20
-166.5000000000001
 30
0.0
 11
-107.8500000003275
 21
-166.5000000000001
 31
0.0
  0
LINE
  5
A3DC5
330
1E
100
AcDbEntity
  8
DETAIL
100
AcDbLine
 10
-112.0500000003275
 20
-166.5000000000001
 30
0.0
 11
-360.3741266222275
 21
-166.5000000000001
 31
0.0
  0
LINE
  5
A3DC6
330
1E
100
AcDbEntity
  8
DETAIL
100
AcDbLine
 10
-364.5741266222277
 20
-166.5000000000001
 30
0.0
 11
-386.4599765595277
 21
-166.5000000000001
 31
0.0
  0
LINE
  5
A3DC7
330
1E
100
AcDbEntity
  8
DETAIL
100
AcDbLine
 10
397.8000000000275
 20
-165.0000000000001
 30
0.0
 11
-397.9600000000275
 21
-165.0000000000001
 31
0.0
  0
LINE
  5
A3DC8
330
1E
100
AcDbEntity
  8
DETAIL
100
AcDbLine
 10
-399.8000000000275
 20
-163.3000000000001
 30
0.0
 11
399.8000000000276
 21
-163.3000000000001
 31
0.0
  0
LINE
  5
A3DCB
330
1E
100
AcDbEntity
  8
DETAIL
100
AcDbLine
 10
-419.4000000000273
 20
-133.2470765815
 30
0.0
 11
-418.3000000000275
 21
-132.6350852961002
 31
0.0
  0
LINE
  5
A3DCF
330
1E
100
AcDbEntity
  8
DETAIL
100
AcDbLine
 10
422.0000000000267
 20
-91.43015846000022
 30
0.0
 11
422.7174497488272
 21
-91.40510456270012
 31
0.0
  0
LINE
  5
A3DD3
330
1E
100
AcDbEntity
  8
DETAIL
100
AcDbLine
 10
-377.3000000000275
 20
-123.1499999999999
 30
0.0
 11
-379.3000000000275
 21
-123.1499999999999
 31
0.0
  0
LINE
  5
A3DD4
330
1E
100
AcDbEntity
  8
DETAIL
100
AcDbLine
 10
375.8999999999724
 20
-123.1499999999999
 30
0.0
 11
377.8999999999725
 21
-123.1499999999999
 31
0.0
  0
LINE
  5
A3DD6
330
1E
100
AcDbEntity
  8
DETAIL
100
AcDbLine
 10
-29.95000000032746
 20
-183.6000000000001
 30
0.0
 11
-29.95000000032746
 21
-184.9999999999999
 31
0.0
  0
LINE
  5
A3DD7
330
1E
100
AcDbEntity
  8
DETAIL
100
AcDbLine
 10
422.0000000005271
 20
-85.00000000030006
 30
0.0
 11
467.3672538874273
 21
-84.2081116381002
 31
0.0
  0
LINE
  5
A3DDC
330
1E
100
AcDbEntity
  8
DETAIL
100
AcDbLine
 10
-423.6294108525274
 20
39.36910711359992
 30
0.0
 11
-423.0000000000272
 21
39.20045698400004
 31
0.0
  0
LINE
  5
A3DDD
330
1E
100
AcDbEntity
  8
DETAIL
100
AcDbLine
 10
-430.6719057754678
 20
42.48820013584545
 30
0.0
 11
-424.0000000000271
 21
40.70045698400003
 31
0.0
  0
LINE
  5
A3DE4
330
1E
100
AcDbEntity
  8
DETAIL
100
AcDbLine
 10
352.8999999999725
 20
-46.65000000000008
 30
0.0
 11
-354.3000000000275
 21
-46.65000000000008
 31
0.0
  0
LINE
  5
A3DFD
330
1E
100
AcDbEntity
  8
DETAIL
100
AcDbLine
 10
47.59208751917252
 20
176.9999999999999
 30
0.0
 11
47.59208751917253
 21
165.0000000000001
 31
0.0
  0
LINE
  5
A3DFE
330
1E
100
AcDbEntity
  8
DETAIL
100
AcDbLine
 10
50.59208751917253
 20
176.9999999999999
 30
0.0
 11
50.59208751917253
 21
165.0000000000001
 31
0.0
  0
LINE
  5
A3DFF
330
1E
100
AcDbEntity
  8
DETAIL
100
AcDbLine
 10
70.7039891364727
 20
-176.4
 30
0.0
 11
70.7039891364727
 21
-172.1
 31
0.0
  0
LINE
  5
A3E01
330
1E
100
AcDbEntity
  8
DETAIL
100
AcDbLine
 10
235.2355339058724
 20
164.3355339059
 30
0.0
 11
234.7857864375725
 21
163.8857864375999
 31
0.0
  0
LINE
  5
A3E03
330
1E
100
AcDbEntity
  8
DETAIL
100
AcDbLine
 10
473.3819473050274
 20
27.06821464370007
 30
0.0
 11
490.4775215518276
 21
26.7698102852
 31
0.0
  0
LINE
  5
A3E04
330
1E
100
AcDbEntity
  8
DETAIL
100
AcDbLine
 10
-85.53578643762762
 20
163.8857864375999
 30
0.0
 11
-85.98553390592746
 21
164.3355339059
 31
0.0
  0
LINE
  5
A3E06
330
1E
100
AcDbEntity
  8
DETAIL
100
AcDbLine
 10
-354.3000000000275
 20
46.65000000000008
 30
0.0
 11
352.8999999999725
 21
46.65000000000008
 31
0.0
  0
LINE
  5
A3E07
330
1E
100
AcDbEntity
  8
DETAIL
100
AcDbLine
 10
352.8999999999725
 20
56.6500000000001
 30
0.0
 11
-354.3000000000275
 21
56.6500000000001
 31
0.0
  0
LINE
  5
A3E08
330
1E
100
AcDbEntity
  8
DETAIL
100
AcDbLine
 10
467.3945276393275
 20
29.20759836070006
 30
0.0
 11
422.0000000005271
 21
29.99999999969994
 31
0.0
  0
LINE
  5
A3E09
330
1E
100
AcDbEntity
  8
DETAIL
100
AcDbLine
 10
477.0142909280266
 20
21.07885862760004
 30
0.0
 11
496.1744974835327
 21
20.40976947108599
 31
0.0
  0
LINE
  5
A3E0E
330
1E
100
AcDbEntity
  8
DETAIL
100
AcDbLine
 10
422.0000000000267
 20
36.43015845939995
 30
0.0
 11
463.5174490261269
 21
34.98033719209998
 31
0.0
  0
LINE
  5
A3E12
330
1E
100
AcDbEntity
  8
DETAIL
100
AcDbLine
 10
418.7055156455278
 20
-146.4692098631999
 30
0.0
 11
418.2466264034301
 21
-146.204270035745
 31
0.0
  0
LINE
  5
A3E14
330
1E
100
AcDbEntity
  8
DETAIL
100
AcDbLine
 10
-31.95000000032746
 20
-187.0000000000001
 30
0.0
 11
-29.95000000032746
 21
-184.9999999999999
 31
0.0
  0
LINE
  5
A3E15
330
1E
100
AcDbEntity
  8
DETAIL
100
AcDbLine
 10
332.5656609248724
 20
168.5355339058998
 30
0.0
 11
330.4945931129727
 21
166.4644660940999
 31
0.0
  0
LINE
  5
A3E1C
330
1E
100
AcDbEntity
  8
DETAIL
100
AcDbLine
 10
140.4741266215721
 20
-178.6000000000001
 30
0.0
 11
140.4741266215721
 21
-165.0000000000001
 31
0.0
  0
LINE
  5
A3E1D
330
1E
100
AcDbEntity
  8
DETAIL
100
AcDbLine
 10
144.6741266215723
 20
-178.5000000000001
 30
0.0
 11
144.6741266215723
 21
-165.0000000000001
 31
0.0
  0
LINE
  5
A3E21
330
1E
100
AcDbEntity
  8
DETAIL
100
AcDbLine
 10
377.8999999999725
 20
123.1499999999999
 30
0.0
 11
375.8999999999724
 21
123.1499999999999
 31
0.0
  0
LINE
  5
A3E22
330
1E
100
AcDbEntity
  8
DETAIL
100
AcDbLine
 10
-379.3000000000275
 20
123.1499999999999
 30
0.0
 11
-377.3000000000275
 21
123.1499999999999
 31
0.0
  0
LINE
  5
A3E23
330
1E
100
AcDbEntity
  8
DETAIL
100
AcDbLine
 10
352.8999999999725
 20
125.6500000000001
 30
0.0
 11
-354.3000000000275
 21
125.6500000000001
 31
0.0
  0
LINE
  5
A3E24
330
1E
100
AcDbEntity
  8
DETAIL
100
AcDbLine
 10
-423.4999999525273
 20
132.7004569839999
 30
0.0
 11
-423.0000000000272
 21
132.7004569839999
 31
0.0
  0
LINE
  5
A3E2C
330
1E
100
AcDbEntity
  8
DETAIL
100
AcDbLine
 10
318.0486315612723
 20
163.2999999999999
 30
0.0
 11
318.3084391823726
 21
163.7499999999999
 31
0.0
  0
LINE
  5
A3E2F
330
1E
100
AcDbEntity
  8
DETAIL
100
AcDbLine
 10
-418.3000000000275
 20
150.2999999999999
 30
0.0
 11
-418.8000000000275
 21
150.2999999999999
 31
0.0
  0
LINE
  5
A3E30
330
1E
100
AcDbEntity
  8
DETAIL
100
AcDbLine
 10
233.3715728752725
 20
163.2999999999999
 30
0.0
 11
-84.12157287522747
 21
163.2999999999999
 31
0.0
  0
LINE
  5
A3E31
330
1E
100
AcDbEntity
  8
DETAIL
100
AcDbLine
 10
-135.7784271247276
 20
163.2999999999999
 30
0.0
 11
-407.8000000000272
 21
163.2999999999999
 31
0.0
  0
LINE
  5
A3E32
330
1E
100
AcDbEntity
  8
DETAIL
100
AcDbLine
 10
300.0284271246725
 20
163.2999999999999
 30
0.0
 11
407.8000000000272
 21
163.2999999999999
 31
0.0
  0
LINE
  5
A3E33
330
1E
100
AcDbEntity
  8
DETAIL
100
AcDbLine
 10
-407.0000000001273
 20
165.0000000000001
 30
0.0
 11
-133.0918641813769
 21
165.0000000000001
 31
0.0
  0
LINE
  5
A3E34
330
1E
100
AcDbEntity
  8
DETAIL
100
AcDbLine
 10
-86.80813581867813
 20
165.0000000000001
 30
0.0
 11
234.9999999999724
 21
165.0000000000001
 31
0.0
  0
LINE
  5
A3E35
330
1E
100
AcDbEntity
  8
DETAIL
100
AcDbLine
 10
297.341864181322
 20
165.0000000000001
 30
0.0
 11
313.9999999999725
 21
165.0000000000001
 31
0.0
  0
LINE
  5
A3E36
330
1E
100
AcDbEntity
  8
DETAIL
100
AcDbLine
 10
407.9000000000275
 20
164.9999999999999
 30
0.0
 11
320.4735026918722
 21
164.9999999999999
 31
0.0
  0
LINE
  5
A3E37
330
1E
100
AcDbEntity
  8
DETAIL
100
AcDbLine
 10
294.6289321880725
 20
165.7999999999997
 30
0.0
 11
238.7710678118726
 21
165.7999999999997
 31
0.0
  0
LINE
  5
A3E38
330
1E
100
AcDbEntity
  8
DETAIL
100
AcDbLine
 10
-89.52106781192764
 20
165.7999999999997
 30
0.0
 11
-130.3789321881274
 21
165.7999999999997
 31
0.0
  0
LINE
  5
A3E39
330
1E
100
AcDbEntity
  8
DETAIL
100
AcDbLine
 10
336.1011948307726
 20
169.9999999999999
 30
0.0
 11
386.9590592070725
 21
169.9999999999999
 31
0.0
  0
LINE
  5
A3E3A
330
1E
100
AcDbEntity
  8
DETAIL
100
AcDbLine
 10
418.3000000000275
 20
147.9433111695999
 30
0.0
 11
418.2913207176276
 21
147.9434150646
 31
0.0
  0
LINE
  5
A3E3C
330
1E
100
AcDbEntity
  8
DETAIL
100
AcDbLine
 10
230.5920875191726
 20
176.9999999999999
 30
0.0
 11
230.5920875191726
 21
165.0000000000001
 31
0.0
  0
LINE
  5
A3E3D
330
1E
100
AcDbEntity
  8
DETAIL
100
AcDbLine
 10
233.5920875191721
 20
176.9999999999999
 30
0.0
 11
233.5920875191721
 21
165.0000000000001
 31
0.0
  0
LINE
  5
A3E3E
330
1E
100
AcDbEntity
  8
DETAIL
100
AcDbLine
 10
234.9999999999725
 20
184.699804687
 30
0.0
 11
234.9999999999725
 21
175.4999999999999
 31
0.0
  0
LINE
  5
A3E3F
330
1E
100
AcDbEntity
  8
DETAIL
100
AcDbLine
 10
234.9999999999725
 20
172.4999999999999
 30
0.0
 11
234.9999999999724
 21
164.0999999999999
 31
0.0
  0
LINE
  5
A3E40
330
1E
100
AcDbEntity
  8
DETAIL
100
AcDbLine
 10
234.9999999999725
 20
-166.5000000000001
 30
0.0
 11
234.9999999999725
 21
-186.3844665605001
 31
0.0
  0
LINE
  5
A3E48
330
1E
100
AcDbEntity
  8
DETAIL
100
AcDbLine
 10
307.8554290938722
 20
172.4999999999999
 30
0.0
 11
233.5920875191721
 21
172.4999999999999
 31
0.0
  0
LINE
  5
A3E49
330
1E
100
AcDbEntity
  8
DETAIL
100
AcDbLine
 10
230.5920875191726
 20
172.4999999999999
 30
0.0
 11
50.59208751917253
 21
172.4999999999999
 31
0.0
  0
LINE
  5
A3E4A
330
1E
100
AcDbEntity
  8
DETAIL
100
AcDbLine
 10
47.59208751917252
 20
172.4999999999999
 30
0.0
 11
-132.4079124808274
 21
172.4999999999999
 31
0.0
  0
LINE
  5
A3E4B
330
1E
100
AcDbEntity
  8
DETAIL
100
AcDbLine
 10
-135.4079124808274
 20
172.4999999999999
 30
0.0
 11
-315.4079124808275
 21
172.4999999999999
 31
0.0
  0
LINE
  5
A3E4C
330
1E
100
AcDbEntity
  8
DETAIL
100
AcDbLine
 10
-318.4079124808274
 20
172.4999999999999
 30
0.0
 11
-380.4208974010275
 21
172.4999999999999
 31
0.0
  0
LINE
  5
A3E50
330
1E
100
AcDbEntity
  8
DETAIL
100
AcDbLine
 10
307.8554290938722
 20
175.4999999999999
 30
0.0
 11
233.5920875191721
 21
175.4999999999999
 31
0.0
  0
LINE
  5
A3E51
330
1E
100
AcDbEntity
  8
DETAIL
100
AcDbLine
 10
230.5920875191726
 20
175.4999999999999
 30
0.0
 11
50.59208751917253
 21
175.4999999999999
 31
0.0
  0
LINE
  5
A3E52
330
1E
100
AcDbEntity
  8
DETAIL
100
AcDbLine
 10
47.59208751917252
 20
175.4999999999999
 30
0.0
 11
-132.4079124808274
 21
175.4999999999999
 31
0.0
  0
LINE
  5
A3E53
330
1E
100
AcDbEntity
  8
DETAIL
100
AcDbLine
 10
-135.4079124808274
 20
175.4999999999999
 30
0.0
 11
-315.4079124808275
 21
175.4999999999999
 31
0.0
  0
LINE
  5
A3E54
330
1E
100
AcDbEntity
  8
DETAIL
100
AcDbLine
 10
-318.4079124808274
 20
175.4999999999999
 30
0.0
 11
-380.4576275939276
 21
175.4999999999999
 31
0.0
  0
LINE
  5
A3E59
330
1E
100
AcDbEntity
  8
DETAIL
100
AcDbLine
 10
249.9999999999725
 20
184.699804687
 30
0.0
 11
249.9999999999725
 21
175.4999999999999
 31
0.0
  0
LINE
  5
A3E5A
330
1E
100
AcDbEntity
  8
DETAIL
100
AcDbLine
 10
249.9999999999725
 20
-175.1001953130002
 30
0.0
 11
249.9999999999725
 21
-186.1001953130001
 31
0.0
  0
LINE
  5
A3E5F
330
1E
100
AcDbEntity
  8
DETAIL
100
AcDbLine
 10
259.9999999999725
 20
-186.1001953130001
 30
0.0
 11
259.9999999999725
 21
-175.1001953130002
 31
0.0
  0
LINE
  5
A3E60
330
1E
100
AcDbEntity
  8
DETAIL
100
AcDbLine
 10
259.9999999999725
 20
175.4999999999999
 30
0.0
 11
259.9999999999725
 21
184.699804687
 31
0.0
  0
LINE
  5
A3E65
330
1E
100
AcDbEntity
  8
DETAIL
100
AcDbLine
 10
274.9999999999725
 20
184.699804687
 30
0.0
 11
274.9999999999725
 21
165.7999999999997
 31
0.0
  0
LINE
  5
A3E66
330
1E
100
AcDbEntity
  8
DETAIL
100
AcDbLine
 10
274.9999999999725
 20
-186.3844665605001
 30
0.0
 11
274.9999999999725
 21
-166.5000000000001
 31
0.0
  0
LINE
  5
A3E67
330
1E
100
AcDbEntity
  8
DETAIL
100
AcDbLine
 10
-430.671907439682
 20
129.412709527978
 30
0.0
 11
-424.0000000000271
 21
131.200456984
 31
0.0
  0
LINE
  5
A3E69
330
1E
100
AcDbEntity
  8
DETAIL
100
AcDbLine
 10
313.9999999999725
 20
165.0000000000001
 30
0.0
 11
313.9999999999725
 21
163.2999999999999
 31
0.0
  0
LINE
  5
A3E6A
330
1E
100
AcDbEntity
  8
DETAIL
100
AcDbLine
 10
458.6890787891269
 20
-81.85069354479997
 30
0.0
 11
458.6859826584271
 21
-81.8528317106
 31
0.0
  0
LINE
  5
A3E6B
330
1E
100
AcDbEntity
  8
DETAIL
100
AcDbLine
 10
458.6843323395275
 20
-81.85396965210001
 30
0.0
 11
458.6847711739276
 21
-81.85366718250023
 31
0.0
  0
LINE
  5
A3E6C
330
1E
100
AcDbEntity
  8
DETAIL
100
AcDbLine
 10
418.3000000000275
 20
-134.7649147039002
 30
0.0
 11
419.4000000000275
 21
-134.1298294078001
 31
0.0
  0
LINE
  5
A3E6F
330
1E
100
AcDbEntity
  8
DETAIL
100
AcDbLine
 10
298.6142135623725
 20
163.8857864375999
 30
0.0
 11
298.1644660940726
 21
164.3355339059
 31
0.0
  0
LINE
  5
A3E79
330
1E
100
AcDbEntity
  8
DETAIL
100
AcDbLine
 10
313.4828107315929
 20
165.0000000000001
 30
0.0
 11
312.2870639824721
 21
171.7814167994998
 31
0.0
  0
LINE
  5
A3E7B
330
1E
100
AcDbEntity
  8
DETAIL
100
AcDbLine
 10
356.8999999999725
 20
-42.65000000000006
 30
0.0
 11
356.8999999999725
 21
42.6500000000001
 31
0.0
  0
LINE
  5
A3E7C
330
1E
100
AcDbEntity
  8
DETAIL
100
AcDbLine
 10
356.8999999999725
 20
60.65000000000011
 30
0.0
 11
356.8999999999725
 21
121.6500000000001
 31
0.0
  0
LINE
  5
A3E7D
330
1E
100
AcDbEntity
  8
DETAIL
100
AcDbLine
 10
371.8999999999724
 20
119.1499999999999
 30
0.0
 11
371.8999999999724
 21
-119.1499999999999
 31
0.0
  0
LINE
  5
A3E81
330
1E
100
AcDbEntity
  8
DETAIL
100
AcDbLine
 10
381.8999999999725
 20
-119.1499999999999
 30
0.0
 11
381.8999999999725
 21
119.1499999999999
 31
0.0
  0
LINE
  5
A3E82
330
1E
100
AcDbEntity
  8
DETAIL
100
AcDbLine
 10
384.8999999999722
 20
-166.5000000000001
 30
0.0
 11
386.3999999999725
 21
-165.0000000000001
 31
0.0
  0
LINE
  5
A3E83
330
1E
100
AcDbEntity
  8
DETAIL
100
AcDbLine
 10
392.5656609248726
 20
166.4644660940999
 30
0.0
 11
390.4945931129725
 21
168.5355339058998
 31
0.0
  0
LINE
  5
A3E85
330
1E
100
AcDbEntity
  8
DETAIL
100
AcDbLine
 10
418.3000000000275
 20
-144.8000000000002
 30
0.0
 11
418.3000000000275
 21
152.7999999999997
 31
0.0
  0
LINE
  5
A3E89
330
1E
100
AcDbEntity
  8
DETAIL
100
AcDbLine
 10
420.0000000000267
 20
-133.0905989233
 30
0.0
 11
420.0000000000271
 21
152.9
 31
0.0
  0
LINE
  5
A3E8A
330
1E
100
AcDbEntity
  8
DETAIL
100
AcDbLine
 10
422.0000000000267
 20
-94.50000000000015
 30
0.0
 11
422.0000000000267
 21
39.49999999999997
 31
0.0
  0
LINE
  5
A3E8B
330
1E
100
AcDbEntity
  8
DETAIL
100
AcDbLine
 10
423.2000000005272
 20
-84.97905392239992
 30
0.0
 11
423.2000000005272
 21
-90.9054091492
 31
0.0
  0
LINE
  5
A3EA1
330
1E
100
AcDbEntity
  8
DETAIL
100
AcDbLine
 10
464.000000000427
 20
29.26688727270001
 30
0.0
 11
464.000000000427
 21
34.48064178889997
 31
0.0
  0
LINE
  5
A3EAE
330
1E
100
AcDbEntity
  8
DETAIL
100
AcDbLine
 10
501.0000000000268
 20
15.41281533599028
 30
0.0
 11
501.0000000000268
 21
-25.46566439910014
 31
0.0
  0
LINE
  5
A3EAF
330
1E
100
AcDbEntity
  8
DETAIL
100
AcDbLine
 10
490.9687144634276
 20
26.26089317880003
 30
0.0
 11
490.8703273716271
 21
20.79173136129994
 31
0.0
  0
ARC
  5
A3EB0
330
1E
100
AcDbEntity
  8
DETAIL
100
AcDbCircle
 10
-359.4741266222275
 20
-178.5000000000001
 30
0.0
 40
5.099999999999996
100
AcDbArc
 50
180.0
 51
270.0
  0
ARC
  5
A3EB4
330
1E
100
AcDbEntity
  8
DETAIL
100
AcDbCircle
 10
-397.9658533247872
 20
-142.9658276035321
 30
0.0
 40
22.03417317392876
100
AcDbArc
 50
180.0888590129019
 51
270.0152204852955
  0
ARC
  5
A3EB5
330
1E
100
AcDbEntity
  8
DETAIL
100
AcDbCircle
 10
-399.8000000000275
 20
-144.8000000000002
 30
0.0
 40
18.5
100
AcDbArc
 50
180.0
 51
270.0
  0
ARC
  5
A3EB7
330
1E
100
AcDbEntity
  8
DETAIL
100
AcDbCircle
 10
-379.3000000000275
 20
-119.1499999999999
 30
0.0
 40
4.0
100
AcDbArc
 50
180.0
 51
270.0
  0
ARC
  5
A3EB8
330
1E
100
AcDbEntity
  8
DETAIL
100
AcDbCircle
 10
-377.3000000000275
 20
-119.1499999999999
 30
0.0
 40
4.0
100
AcDbArc
 50
270.0
 51
0.0
  0
ARC
  5
A3EB9
330
1E
100
AcDbEntity
  8
DETAIL
100
AcDbCircle
 10
-418.8000000000273
 20
-134.2863070659998
 30
0.0
 40
1.199999999999999
100
AcDbArc
 50
120.0000000000005
 51
180.0
  0
ARC
  5
A3EBA
330
1E
100
AcDbEntity
  8
DETAIL
100
AcDbCircle
 10
-418.8000000000275
 20
-119.1905989233
 30
0.0
 40
1.199999999999999
100
AcDbArc
 50
180.0
 51
239.9999999999995
  0
ARC
  5
A3EBB
330
1E
100
AcDbEntity
  8
DETAIL
100
AcDbCircle
 10
-245.0000000000275
 20
-158.1001953130001
 30
0.0
 40
40.0
100
AcDbArc
 50
250.5287793654998
 51
289.4712206345002
  0
ARC
  5
A3EBC
330
1E
100
AcDbEntity
  8
DETAIL
100
AcDbCircle
 10
-235.0000000000275
 20
-186.3844665605001
 30
0.0
 40
10.0
100
AcDbArc
 50
289.4712206345002
 51
0.0
  0
ARC
  5
A3EBD
330
1E
100
AcDbEntity
  8
DETAIL
100
AcDbCircle
 10
-255.0000000000276
 20
-186.3844665605001
 30
0.0
 40
10.0
100
AcDbArc
 50
180.0
 51
250.5287793654998
  0
ARC
  5
A3EBE
330
1E
100
AcDbEntity
  8
DETAIL
100
AcDbCircle
 10
-245.0000000000275
 20
-186.1001953130001
 30
0.0
 40
5.0
100
AcDbArc
 50
180.0
 51
0.0
  0
ARC
  5
A3EBF
330
1E
100
AcDbEntity
  8
DETAIL
100
AcDbCircle
 10
-245.0000000000275
 20
-175.1001953130002
 30
0.0
 40
5.0
100
AcDbArc
 50
143.1057469020992
 51
180.0
  0
ARC
  5
A3EC0
330
1E
100
AcDbEntity
  8
DETAIL
100
AcDbCircle
 10
-245.0000000000275
 20
-175.1001953130002
 30
0.0
 40
5.0
100
AcDbArc
 50
0.0
 51
36.8942530979008
  0
ARC
  5
A3EC5
330
1E
100
AcDbEntity
  8
DETAIL
100
AcDbCircle
 10
-354.3000000000275
 20
-42.65000000000006
 30
0.0
 40
4.0
100
AcDbArc
 50
180.0
 51
270.0
  0
ARC
  5
A3EC7
330
1E
100
AcDbEntity
  8
DETAIL
100
AcDbCircle
 10
-109.9500000003274
 20
-181.5000000000001
 30
0.0
 40
2.1
100
AcDbArc
 50
180.0
 51
0.0
  0
ARC
  5
A3EC8
330
1E
100
AcDbEntity
  8
DETAIL
100
AcDbCircle
 10
-354.3000000000275
 20
42.6500000000001
 30
0.0
 40
4.0
100
AcDbArc
 50
90.0
 51
180.0
  0
ARC
  5
A3EC9
330
1E
100
AcDbEntity
  8
DETAIL
100
AcDbCircle
 10
-354.3000000000275
 20
60.65000000000011
 30
0.0
 40
4.0
100
AcDbArc
 50
180.0
 51
270.0
  0
ARC
  5
A3ECA
330
1E
100
AcDbEntity
  8
DETAIL
100
AcDbCircle
 10
-421.8000000000274
 20
33.09751325900001
 30
0.0
 40
1.199999999999999
100
AcDbArc
 50
180.0
 51
225.0000000000046
  0
ARC
  5
A3ECB
330
1E
100
AcDbEntity
  8
DETAIL
100
AcDbCircle
 10
-420.6000000000271
 20
29.35192884669979
 30
0.0
 40
0.6
100
AcDbArc
 50
0.0
 51
45.0000000000046
  0
ARC
  5
A3ECC
330
1E
100
AcDbEntity
  8
DETAIL
100
AcDbCircle
 10
-423.5000024874275
 20
39.85206776180003
 30
0.0
 40
0.4999975126
100
AcDbArc
 50
180.0001007332006
 51
255.0001007785994
  0
ARC
  5
A3ECD
330
1E
100
AcDbEntity
  8
DETAIL
100
AcDbCircle
 10
-377.3000000000275
 20
119.1499999999999
 30
0.0
 40
4.0
100
AcDbArc
 50
0.0
 51
90.0
  0
ARC
  5
A3ECE
330
1E
100
AcDbEntity
  8
DETAIL
100
AcDbCircle
 10
-379.3000000000275
 20
119.1499999999999
 30
0.0
 40
4.0
100
AcDbArc
 50
90.0
 51
180.0
  0
ARC
  5
A3ECF
330
1E
100
AcDbEntity
  8
DETAIL
100
AcDbCircle
 10
-354.3000000000275
 20
121.6500000000001
 30
0.0
 40
4.0
100
AcDbArc
 50
90.0
 51
180.0
  0
ARC
  5
A3ED0
330
1E
100
AcDbEntity
  8
DETAIL
100
AcDbCircle
 10
-423.5000118033273
 20
132.2004687873
 30
0.0
 40
0.4999881968000003
100
AcDbArc
 50
89.99865945609498
 51
179.9986588651001
  0
ARC
  5
A3ED1
330
1E
100
AcDbEntity
  8
DETAIL
100
AcDbCircle
 10
-407.8000000000272
 20
152.7999999999997
 30
0.0
 40
10.5
100
AcDbArc
 50
90.0
 51
180.0
  0
ARC
  5
A3ED2
330
1E
100
AcDbEntity
  8
DETAIL
100
AcDbCircle
 10
-380.4576275939276
 20
170.9999999999999
 30
0.0
 40
4.5
100
AcDbArc
 50
90.0
 51
170.0000000000014
  0
ARC
  5
A3ED3
330
1E
100
AcDbEntity
  8
DETAIL
100
AcDbCircle
 10
-380.4208974010275
 20
170.9999999999999
 30
0.0
 40
1.5
100
AcDbArc
 50
90.0
 51
170.0000000000014
  0
ARC
  5
A3ED4
330
1E
100
AcDbEntity
  8
DETAIL
100
AcDbCircle
 10
-418.8000000000275
 20
149.0999999999998
 30
0.0
 40
1.199999999999999
100
AcDbArc
 50
90.0
 51
180.0
  0
ARC
  5
A3ED5
330
1E
100
AcDbEntity
  8
DETAIL
100
AcDbCircle
 10
-421.8000000000274
 20
138.8034007092999
 30
0.0
 40
1.199999999999999
100
AcDbArc
 50
134.9999999999954
 51
180.0
  0
ARC
  5
A3ED7
330
1E
100
AcDbEntity
  8
DETAIL
100
AcDbCircle
 10
-420.6000000000271
 20
142.5489851215
 30
0.0
 40
0.6
100
AcDbArc
 50
314.9999999999908
 51
0.0
  0
ARC
  5
A3ED8
330
1E
100
AcDbEntity
  8
DETAIL
100
AcDbCircle
 10
-257.5000000000275
 20
184.699804687
 30
0.0
 40
7.5
100
AcDbArc
 50
0.0
 51
180.0
  0
ARC
  5
A3ED9
330
1E
100
AcDbEntity
  8
DETAIL
100
AcDbCircle
 10
-232.5000000000275
 20
184.699804687
 30
0.0
 40
7.5
100
AcDbArc
 50
0.0
 51
180.0
  0
ARC
  5
A3EDA
330
1E
100
AcDbEntity
  8
DETAIL
100
AcDbCircle
 10
-245.0000000000275
 20
174.199804687
 30
0.0
 40
5.0
100
AcDbArc
 50
199.8893355028008
 51
340.1082116875977
  0
CIRCLE
  5
A3EDB
330
1E
100
AcDbEntity
  8
DETAIL
100
AcDbCircle
 10
-257.5000000000275
 20
184.699804687
 30
0.0
 40
2.25
  0
CIRCLE
  5
A3EDC
330
1E
100
AcDbEntity
  8
DETAIL
100
AcDbCircle
 10
-232.5000000000275
 20
184.699804687
 30
0.0
 40
2.25
  0
ARC
  5
A3EDD
330
1E
100
AcDbEntity
  8
DETAIL
100
AcDbCircle
 10
-316.9079124808275
 20
176.9999999999999
 30
0.0
 40
1.5
100
AcDbArc
 50
0.0
 51
180.0
  0
ARC
  5
A3EDF
330
1E
100
AcDbEntity
  8
DETAIL
100
AcDbCircle
 10
-89.52106781192764
 20
160.7999999999997
 30
0.0
 40
5.0
100
AcDbArc
 50
45.0000000000046
 51
90.0
  0
ARC
  5
A3EE0
330
1E
100
AcDbEntity
  8
DETAIL
100
AcDbCircle
 10
-130.3789321881274
 20
160.7999999999997
 30
0.0
 40
5.0
100
AcDbArc
 50
90.0
 51
134.9999999999954
  0
ARC
  5
A3EE3
330
1E
100
AcDbEntity
  8
DETAIL
100
AcDbCircle
 10
-135.7784271247276
 20
165.2999999999997
 30
0.0
 40
2.0
100
AcDbArc
 50
270.0
 51
314.9999999999908
  0
ARC
  5
A3EE4
330
1E
100
AcDbEntity
  8
DETAIL
100
AcDbCircle
 10
-84.12157287522747
 20
165.2999999999997
 30
0.0
 40
2.0
100
AcDbArc
 50
225.0000000000046
 51
270.0
  0
ARC
  5
A3EE5
330
1E
100
AcDbEntity
  8
DETAIL
100
AcDbCircle
 10
-133.9079124808274
 20
176.9999999999999
 30
0.0
 40
1.5
100
AcDbArc
 50
0.0
 51
180.0
  0
ARC
  5
A3EE8
330
1E
100
AcDbEntity
  8
DETAIL
100
AcDbCircle
 10
254.9999999999725
 20
-158.1001953130001
 30
0.0
 40
40.0
100
AcDbArc
 50
250.5287793654998
 51
289.4712206345002
  0
ARC
  5
A3EE9
330
1E
100
AcDbEntity
  8
DETAIL
100
AcDbCircle
 10
244.9999999999725
 20
-186.3844665605001
 30
0.0
 40
10.0
100
AcDbArc
 50
180.0
 51
250.5287793654998
  0
ARC
  5
A3EEA
330
1E
100
AcDbEntity
  8
DETAIL
100
AcDbCircle
 10
139.5741266215724
 20
-178.5000000000001
 30
0.0
 40
5.099999999999996
100
AcDbArc
 50
270.0
 51
0.0
  0
ARC
  5
A3EEB
330
1E
100
AcDbEntity
  8
DETAIL
100
AcDbCircle
 10
254.9999999999725
 20
-186.1001953130001
 30
0.0
 40
5.0
100
AcDbArc
 50
180.0
 51
0.0
  0
ARC
  5
A3EEC
330
1E
100
AcDbEntity
  8
DETAIL
100
AcDbCircle
 10
254.9999999999725
 20
-175.1001953130002
 30
0.0
 40
5.0
100
AcDbArc
 50
0.0
 51
180.0
  0
CIRCLE
  5
A3EED
330
1E
100
AcDbEntity
  8
DETAIL
100
AcDbCircle
 10
242.4999999999724
 20
-184.6001953130001
 30
0.0
 40
2.25
  0
ARC
  5
A3EF2
330
1E
100
AcDbEntity
  8
DETAIL
100
AcDbCircle
 10
264.9999999999725
 20
-186.3844665605001
 30
0.0
 40
10.0
100
AcDbArc
 50
289.4712206345002
 51
0.0
  0
CIRCLE
  5
A3EF3
330
1E
100
AcDbEntity
  8
DETAIL
100
AcDbCircle
 10
267.4999999999725
 20
-184.6001953130001
 30
0.0
 40
2.25
  0
ARC
  5
A3EF4
330
1E
100
AcDbEntity
  8
DETAIL
100
AcDbCircle
 10
397.8000000000275
 20
-143.0
 30
0.0
 40
22.0
100
AcDbArc
 50
270.0
 51
347.4816699154022
  0
ARC
  5
A3EF5
330
1E
100
AcDbEntity
  8
DETAIL
100
AcDbCircle
 10
399.8000000000276
 20
-144.8000000000002
 30
0.0
 40
18.5
100
AcDbArc
 50
270.0
 51
0.0
  0
ARC
  5
A3EF6
330
1E
100
AcDbEntity
  8
DETAIL
100
AcDbCircle
 10
375.8999999999724
 20
-119.1499999999999
 30
0.0
 40
4.0
100
AcDbArc
 50
180.0
 51
270.0
  0
ARC
  5
A3EF7
330
1E
100
AcDbEntity
  8
DETAIL
100
AcDbCircle
 10
377.8999999999725
 20
-119.1499999999999
 30
0.0
 40
4.0
100
AcDbArc
 50
270.0
 51
0.0
  0
ARC
  5
A3EFB
330
1E
100
AcDbEntity
  8
DETAIL
100
AcDbCircle
 10
352.8999999999725
 20
-42.65000000000006
 30
0.0
 40
4.0
100
AcDbArc
 50
270.0
 51
0.0
  0
ARC
  5
A3EFF
330
1E
100
AcDbEntity
  8
DETAIL
100
AcDbCircle
 10
418.1055156455271
 20
-147.5084403477
 30
0.0
 40
1.199999999999999
100
AcDbArc
 50
347.4816699154022
 51
59.99999999999944
  0
ARC
  5
A3F00
330
1E
100
AcDbEntity
  8
DETAIL
100
AcDbCircle
 10
418.8000000000267
 20
-133.0905989233
 30
0.0
 40
1.199999999999999
100
AcDbArc
 50
300.0000000000005
 51
0.0
  0
ARC
  5
A3F04
330
1E
100
AcDbEntity
  8
DETAIL
100
AcDbCircle
 10
420.0000000000271
 20
-94.50000000000015
 30
0.0
 40
2.0
100
AcDbArc
 50
269.9999999974466
 51
0.0
  0
ARC
  5
A3F05
330
1E
100
AcDbEntity
  8
DETAIL
100
AcDbCircle
 10
422.7000000005272
 20
-90.9054091492
 30
0.0
 40
0.5
100
AcDbArc
 50
272.0000000000037
 51
0.0
  0
ARC
  5
A3F09
330
1E
100
AcDbEntity
  8
DETAIL
100
AcDbCircle
 10
467.1927298231271
 20
-74.2096346865
 30
0.0
 40
10.0
100
AcDbArc
 50
271.0000000000018
 51
353.1212696345976
  0
ARC
  5
A3F0C
330
1E
100
AcDbEntity
  8
DETAIL
100
AcDbCircle
 10
450.1679562838273
 20
-69.50604157380002
 30
0.0
 40
15.0
100
AcDbArc
 50
271.0000000000018
 51
346.8759753761977
  0
ARC
  5
A3F15
330
1E
100
AcDbEntity
  8
DETAIL
100
AcDbCircle
 10
80.00000000042764
 20
-27.50000000030008
 30
0.0
 40
400.0
100
AcDbArc
 50
353.1212696345976
 51
6.878730365402391
  0
ARC
  5
A3F16
330
1E
100
AcDbEntity
  8
DETAIL
100
AcDbCircle
 10
270.0000000005276
 20
-27.50000000030008
 30
0.0
 40
200.0
100
AcDbArc
 50
346.8759753761977
 51
13.12402462380243
  0
ARC
  5
A3F17
330
1E
100
AcDbEntity
  8
DETAIL
100
AcDbCircle
 10
49.09208751917251
 20
176.9999999999999
 30
0.0
 40
1.5
100
AcDbArc
 50
0.0
 51
180.0
  0
ARC
  5
A3F19
330
1E
100
AcDbEntity
  8
DETAIL
100
AcDbCircle
 10
238.7710678118726
 20
160.7999999999997
 30
0.0
 40
5.0
100
AcDbArc
 50
90.0
 51
134.9999999999954
  0
ARC
  5
A3F1A
330
1E
100
AcDbEntity
  8
DETAIL
100
AcDbCircle
 10
233.3715728752725
 20
165.2999999999997
 30
0.0
 40
2.0
100
AcDbArc
 50
270.0
 51
314.9999999999908
  0
ARC
  5
A3F1B
330
1E
100
AcDbEntity
  8
DETAIL
100
AcDbCircle
 10
242.4999999999724
 20
184.699804687
 30
0.0
 40
7.5
100
AcDbArc
 50
0.0
 51
180.0
  0
ARC
  5
A3F1C
330
1E
100
AcDbEntity
  8
DETAIL
100
AcDbCircle
 10
267.4999999999725
 20
184.699804687
 30
0.0
 40
7.5
100
AcDbArc
 50
0.0
 51
180.0
  0
ARC
  5
A3F1D
330
1E
100
AcDbEntity
  8
DETAIL
100
AcDbCircle
 10
254.9999999999725
 20
174.199804687
 30
0.0
 40
5.0
100
AcDbArc
 50
199.8744941840968
 51
340.125505815903
  0
CIRCLE
  5
A3F20
330
1E
100
AcDbEntity
  8
DETAIL
100
AcDbCircle
 10
242.4999999999724
 20
184.699804687
 30
0.0
 40
2.25
  0
CIRCLE
  5
A3F21
330
1E
100
AcDbEntity
  8
DETAIL
100
AcDbCircle
 10
267.4999999999725
 20
184.699804687
 30
0.0
 40
2.25
  0
ARC
  5
A3F22
330
1E
100
AcDbEntity
  8
DETAIL
100
AcDbCircle
 10
232.0920875191725
 20
176.9999999999999
 30
0.0
 40
1.5
100
AcDbArc
 50
0.0
 51
180.0
  0
ARC
  5
A3F23
330
1E
100
AcDbEntity
  8
DETAIL
100
AcDbCircle
 10
352.8999999999725
 20
42.6500000000001
 30
0.0
 40
4.0
100
AcDbArc
 50
0.0
 51
90.0
  0
ARC
  5
A3F24
330
1E
100
AcDbEntity
  8
DETAIL
100
AcDbCircle
 10
352.8999999999725
 20
60.65000000000011
 30
0.0
 40
4.0
100
AcDbArc
 50
270.0
 51
0.0
  0
ARC
  5
A3F27
330
1E
100
AcDbEntity
  8
DETAIL
100
AcDbCircle
 10
451.0000000000268
 20
-25.46566439910014
 30
0.0
 40
50.0
100
AcDbArc
 50
302.6697766346067
 51
0.0
  0
ARC
  5
A3F2A
330
1E
100
AcDbEntity
  8
DETAIL
100
AcDbCircle
 10
450.1679562838273
 20
14.50604157319988
 30
0.0
 40
15.0
100
AcDbArc
 50
13.12402462380243
 51
88.99999999999822
  0
ARC
  5
A3F2B
330
1E
100
AcDbEntity
  8
DETAIL
100
AcDbCircle
 10
467.1927298231271
 20
19.20963468600003
 30
0.0
 40
10.0
100
AcDbArc
 50
6.878730365402391
 51
88.84377960499563
  0
ARC
  5
A3F39
330
1E
100
AcDbEntity
  8
DETAIL
100
AcDbCircle
 10
491.0704816778276
 20
20.78911648449976
 30
0.0
 40
0.2009883966
100
AcDbArc
 50
257.0158558419036
 51
267.9579786423992
  0
ARC
  5
A3F3A
330
1E
100
AcDbEntity
  8
DETAIL
100
AcDbCircle
 10
491.0702951430272
 20
20.78813417680005
 30
0.0
 40
0.2000001233
100
AcDbArc
 50
178.9695853929015
 51
268.0046112413943
  0
ARC
  5
A3F3B
330
1E
100
AcDbEntity
  8
DETAIL
100
AcDbCircle
 10
420.0000000000271
 20
39.49999999999997
 30
0.0
 40
2.0
100
AcDbArc
 50
0.0
 51
90.0
  0
ARC
  5
A3F3C
330
1E
100
AcDbEntity
  8
DETAIL
100
AcDbCircle
 10
490.4688331566273
 20
26.26995178169996
 30
0.0
 40
0.4999303076
100
AcDbArc
 50
358.9694490746972
 51
89.0035423623039
  0
ARC
  5
A3F3D
330
1E
100
AcDbEntity
  8
DETAIL
100
AcDbCircle
 10
463.4997933972273
 20
34.48098199600006
 30
0.0
 40
0.4996672229
100
AcDbArc
 50
0.0002751119994871
 51
87.97491668240281
  0
ARC
  5
A3F3E
330
1E
100
AcDbEntity
  8
DETAIL
100
AcDbCircle
 10
326.9590592070725
 20
169.9999999999999
 30
0.0
 40
5.0
100
AcDbArc
 50
270.0
 51
314.9999999999908
  0
ARC
  5
A3F3F
330
1E
100
AcDbEntity
  8
DETAIL
100
AcDbCircle
 10
336.1011948307726
 20
164.9999999999999
 30
0.0
 40
5.0
100
AcDbArc
 50
90.0
 51
134.9999999999954
  0
ARC
  5
A3F40
330
1E
100
AcDbEntity
  8
DETAIL
100
AcDbCircle
 10
294.6289321880725
 20
160.7999999999997
 30
0.0
 40
5.0
100
AcDbArc
 50
45.0000000000046
 51
90.0
  0
ARC
  5
A3F41
330
1E
100
AcDbEntity
  8
DETAIL
100
AcDbCircle
 10
307.8554290938722
 20
170.9999999999999
 30
0.0
 40
4.5
100
AcDbArc
 50
9.999999999998614
 51
90.0
  0
ARC
  5
A3F44
330
1E
100
AcDbEntity
  8
DETAIL
100
AcDbCircle
 10
320.4735026918722
 20
162.4999999999999
 30
0.0
 40
2.5
100
AcDbArc
 50
90.0
 51
149.9999999999994
  0
ARC
  5
A3F45
330
1E
100
AcDbEntity
  8
DETAIL
100
AcDbCircle
 10
300.0284271246725
 20
165.2999999999997
 30
0.0
 40
2.0
100
AcDbArc
 50
225.0000000000046
 51
270.0
  0
ARC
  5
A3F46
330
1E
100
AcDbEntity
  8
DETAIL
100
AcDbCircle
 10
377.8999999999725
 20
119.1499999999999
 30
0.0
 40
4.0
100
AcDbArc
 50
0.0
 51
90.0
  0
ARC
  5
A3F47
330
1E
100
AcDbEntity
  8
DETAIL
100
AcDbCircle
 10
375.8999999999724
 20
119.1499999999999
 30
0.0
 40
4.0
100
AcDbArc
 50
90.0
 51
180.0
  0
ARC
  5
A3F48
330
1E
100
AcDbEntity
  8
DETAIL
100
AcDbCircle
 10
352.8999999999725
 20
121.6500000000001
 30
0.0
 40
4.0
100
AcDbArc
 50
0.0
 51
90.0
  0
ARC
  5
A3F49
330
1E
100
AcDbEntity
  8
DETAIL
100
AcDbCircle
 10
407.9000000000275
 20
152.9
 30
0.0
 40
12.1
100
AcDbArc
 50
0.0
 51
90.0
  0
ARC
  5
A3F4A
330
1E
100
AcDbEntity
  8
DETAIL
100
AcDbCircle
 10
407.8000000000272
 20
152.7999999999997
 30
0.0
 40
10.5
100
AcDbArc
 50
0.0
 51
90.0
  0
ARC
  5
A3F4B
330
1E
100
AcDbEntity
  8
DETAIL
100
AcDbCircle
 10
396.1011948307721
 20
169.9999999999999
 30
0.0
 40
5.0
100
AcDbArc
 50
225.0000000000046
 51
270.0
  0
ARC
  5
A3F4C
330
1E
100
AcDbEntity
  8
DETAIL
100
AcDbCircle
 10
386.9590592070725
 20
164.9999999999999
 30
0.0
 40
5.0
100
AcDbArc
 50
45.0000000000046
 51
90.0
  0
SPLINE
  5
A3FD7
330
1E
100
AcDbEntity
  8
DETAIL
100
AcDbSpline
210
0.0
220
0.0
230
1.0
 70
     8
 71
     3
 72
     8
 73
     4
 74
     0
 42
0.0000001
 43
0.0000000001
 40
0.0
 40
0.0
 40
0.0
 40
0.0
 40
1.0
 40
1.0
 40
1.0
 40
1.0
 10
467.3672541706276
 20
29.2081116326001
 30
0.0
 10
467.4361049359273
 20
29.20690983760005
 30
0.0
 10
467.505211606227
 20
29.19760587510007
 30
0.0
 10
467.5720632211273
 20
29.18109122169994
 30
0.0
  0
DIMENSION
  5
A5C82
330
1E
100
AcDbEntity
  8
SIZE
100
AcDbDimension
280
     0
  2
*D1
 10
-245.0000000000275
 20
-466.1114333088247
 30
0.0
 11
-332.5000000000273
 21
-466.1114333088247
 31
0.0
 70
   160
  1
<>
 71
     5
 42
174.9999999999996
 73
     0
 74
     0
 75
     0
  3
STANDARD
100
AcDbAlignedDimension
 13
-420.0000000000271
 23
-143.0
 33
0.0
 14
-245.0000000000275
 24
-201.5999999999992
 34
0.0
100
AcDbRotatedDimension
1001
ACAD
1000
DSTYLE
1002
{
1070
    41
1040
10.0
1070
    42
1040
10.0
1070
    43
1040
200.0
1070
    44
1040
10.0
1070
    73
1070
     0
1070
    74
1070
     0
1070
    77
1070
     1
1070
    78
1070
     8
1070
   140
1040
45.0
1070
   141
1040
0.082
1070
   147
1040
10.0
1070
   172
1070
     1
1070
   176
1070
   256
1070
   177
1070
   256
1070
   178
1070
   256
1070
   271
1070
     8
1070
   272
1070
     3
1070
   341
1005
46
1070
   342
1005
46
1070
   345
1005
14
1070
   346
1005
14
1070
   347
1005
14
1070
   371
1070
    -1
1070
   372
1070
    -1
1002
}
  0
DIMENSION
  5
A5CB3
330
1E
100
AcDbEntity
  8
SIZE
100
AcDbDimension
280
     0
  2
*D2
 10
254.9999999999724
 20
-466.1114333088247
 30
0.0
 11
4.999999999972461
 21
-433.6114333088247
 31
0.0
 70
    32
  1
<>
 71
     5
 42
500.0
 73
     0
 74
     0
 75
     0
  3
STANDARD
100
AcDbAlignedDimension
 13
-245.0000000000275
 23
-201.5999999999992
 33
0.0
 14
254.9999999999725
 24
-201.6001953129992
 34
0.0
100
AcDbRotatedDimension
1001
ACAD
1000
DSTYLE
1002
{
1070
    41
1040
10.0
1070
    42
1040
10.0
1070
    43
1040
200.0
1070
    44
1040
10.0
1070
    73
1070
     0
1070
    74
1070
     0
1070
    77
1070
     1
1070
    78
1070
     8
1070
   140
1040
45.0
1070
   141
1040
0.082
1070
   147
1040
10.0
1070
   172
1070
     1
1070
   176
1070
   256
1070
   177
1070
   256
1070
   178
1070
   256
1070
   271
1070
     8
1070
   272
1070
     3
1070
   341
1005
46
1070
   342
1005
46
1070
   345
1005
14
1070
   346
1005
14
1070
   347
1005
14
1070
   371
1070
    -1
1070
   372
1070
    -1
1002
}
  0
LINE
  5
A5CDA
330
1E
100
AcDbEntity
  8
BASIS
  6
CENTER
100
AcDbLine
 10
254.9999999999724
 20
200.6998046869993
 30
0.0
 11
254.9999999999724
 21
158.6998046870009
 31
0.0
  0
DIMENSION
  5
A5CDC
330
1E
100
AcDbEntity
  8
SIZE
100
AcDbDimension
280
     0
  2
*D3
 10
1021.520375114366
 20
179.399804687
 30
0.0
 11
989.0203751143658
 21
-0.6001953130002863
 31
0.0
 70
    32
  1
349～371
 71
     5
 42
360.0
 73
     0
 74
     0
 75
     0
  3
STANDARD
100
AcDbAlignedDimension
 13
263.9999999999762
 23
-180.6001953130001
 33
0.0
 14
263.9999999999743
 24
179.3998046869999
 34
0.0
 50
90.0
100
AcDbRotatedDimension
1001
ACAD
1000
DSTYLE
1002
{
1070
    77
1070
     1
1070
    41
1040
10.0
1070
    42
1040
10.0
1070
    43
1040
200.0
1070
    44
1040
10.0
1070
    73
1070
     0
1070
    74
1070
     0
1070
    78
1070
     8
1070
   140
1040
45.0
1070
   141
1040
0.082
1070
   147
1040
10.0
1070
   172
1070
     1
1070
   176
1070
   256
1070
   177
1070
   256
1070
   178
1070
   256
1070
   271
1070
     8
1070
   272
1070
     3
1070
   341
1005
46
1070
   342
1005
46
1070
   345
1005
14
1070
   346
1005
14
1070
   347
1005
14
1070
   371
1070
    -1
1070
   372
1070
    -1
1002
}
  0
DIMENSION
  5
A5CE9
330
1E
100
AcDbEntity
  8
SIZE
100
AcDbDimension
280
     0
  2
*D4
 10
274.9999999999725
 20
-329.0934908334647
 30
0.0
 11
149.9551892585077
 21
-329.0934908334647
 31
0.0
 70
   160
  1
<>
 71
     5
 42
40.0
 73
     0
 74
     0
 75
     0
  3
STANDARD
100
AcDbAlignedDimension
 13
234.9999999999725
 23
-186.3844665605001
 33
0.0
 14
274.9999999999725
 24
-186.3844665605001
 34
0.0
100
AcDbRotatedDimension
1001
ACAD
1000
DSTYLE
1002
{
1070
    41
1040
10.0
1070
    42
1040
10.0
1070
    43
1040
200.0
1070
    44
1040
10.0
1070
    73
1070
     0
1070
    74
1070
     0
1070
    77
1070
     1
1070
    78
1070
     8
1070
   140
1040
45.0
1070
   141
1040
0.082
1070
   147
1040
10.0
1070
   172
1070
     1
1070
   176
1070
   256
1070
   177
1070
   256
1070
   178
1070
   256
1070
   271
1070
     8
1070
   272
1070
     3
1070
   341
1005
46
1070
   342
1005
46
1070
   345
1005
14
1070
   346
1005
14
1070
   347
1005
14
1070
   371
1070
    -1
1070
   372
1070
    -1
1002
}
  0
LINE
  5
A5F6F
330
1E
100
AcDbEntity
  8
OUTLINE
100
AcDbLine
 10
-420.0000000000271
 20
149.0999999999999
 30
0.0
 11
-420.0000000000271
 21
-119.1905989233
 31
0.0
  0
LINE
  5
A5F70
330
1E
100
AcDbEntity
  8
OUTLINE
100
AcDbLine
 10
-420.0000000000271
 20
-143.0
 30
0.0
 11
-420.0000000000271
 21
-134.2863070659996
 31
0.0
  0
LINE
  5
A5F71
330
1E
100
AcDbEntity
  8
OUTLINE
100
AcDbLine
 10
-418.3000000000275
 20
-132.6350852961004
 30
0.0
 11
-418.3000000000275
 21
-120.8649147039
 31
0.0
  0
LINE
  5
A5F72
330
1E
100
AcDbEntity
  8
OUTLINE
100
AcDbLine
 10
-407.0000000001271
 20
165.0
 30
0.0
 11
-407.0000000001273
 21
163.2999999999999
 31
0.0
  0
LINE
  5
A5F85
330
1E
100
AcDbEntity
  8
OUTLINE
100
AcDbLine
 10
-419.4000000000275
 20
-120.2298294078
 30
0.0
 11
-418.3000000000275
 21
-120.8649147039
 31
0.0
  0
LINE
  5
A5F86
330
1E
100
AcDbEntity
  8
OUTLINE
100
AcDbLine
 10
-265.0000000000275
 20
184.6998046869998
 30
0.0
 11
-265.0000000000275
 21
175.4999999999999
 31
0.0
  0
LINE
  5
A5F8B
330
1E
100
AcDbEntity
  8
OUTLINE
100
AcDbLine
 10
-250.0000000000275
 20
184.6998046869998
 30
0.0
 11
-250.0000000000276
 21
174.1998046870001
 31
0.0
  0
LINE
  5
A5F90
330
1E
100
AcDbEntity
  8
OUTLINE
100
AcDbLine
 10
-240.0000000000275
 20
174.1998046870001
 30
0.0
 11
-240.0000000000275
 21
184.6998046869998
 31
0.0
  0
LINE
  5
A5F96
330
1E
100
AcDbEntity
  8
OUTLINE
100
AcDbLine
 10
-225.0000000000275
 20
184.6998046869998
 30
0.0
 11
-225.0000000000275
 21
175.4999999999999
 31
0.0
  0
LINE
  5
A5FBD
330
1E
100
AcDbEntity
  8
OUTLINE
100
AcDbLine
 10
397.8000000000275
 20
-165.0
 30
0.0
 11
-397.9600000000275
 21
-165.0
 31
0.0
  0
LINE
  5
A5FC1
330
1E
100
AcDbEntity
  8
OUTLINE
100
AcDbLine
 10
-419.4000000000273
 20
-133.2470765815001
 30
0.0
 11
-418.3000000000275
 21
-132.6350852961004
 31
0.0
  0
LINE
  5
A5FC2
330
1E
100
AcDbEntity
  8
OUTLINE
100
AcDbLine
 10
422.0000000000267
 20
-91.43015846000023
 30
0.0
 11
422.7174497488272
 21
-91.40510456270019
 31
0.0
  0
LINE
  5
A5FC9
330
1E
100
AcDbEntity
  8
OUTLINE
100
AcDbLine
 10
423.2000000005272
 20
-84.97905392238633
 30
0.0
 11
467.3672538874273
 21
-84.20811163810004
 31
0.0
  0
LINE
  5
A5FD6
330
1E
100
AcDbEntity
  8
OUTLINE
100
AcDbLine
 10
473.3766829930116
 20
27.06830653260818
 30
0.0
 11
490.4775215518276
 21
26.76981028520004
 31
0.0
  0
LINE
  5
A5FDB
330
1E
100
AcDbEntity
  8
OUTLINE
100
AcDbLine
 10
467.3945276393275
 20
29.2075983607001
 30
0.0
 11
464.000000000427
 21
29.26685284366545
 31
0.0
  0
LINE
  5
A5FDC
330
1E
100
AcDbEntity
  8
OUTLINE
100
AcDbLine
 10
491.0633152393796
 20
20.5882558880578
 30
0.0
 11
496.1744974835327
 21
20.40976947108603
 31
0.0
  0
LINE
  5
A5FE1
330
1E
100
AcDbEntity
  8
OUTLINE
100
AcDbLine
 10
422.0000000000267
 20
36.43015845939999
 30
0.0
 11
463.5174490261269
 21
34.98033719210003
 31
0.0
  0
LINE
  5
A5FFE
330
1E
100
AcDbEntity
  8
OUTLINE
100
AcDbLine
 10
407.9000000000275
 20
165.0
 30
0.0
 11
396.1011948307721
 21
164.9999999999999
 31
0.0
  0
LINE
  5
A6008
330
1E
100
AcDbEntity
  8
OUTLINE
100
AcDbLine
 10
234.9999999999725
 20
-166.5000000000001
 30
0.0
 11
234.9999999999725
 21
-186.3844665605002
 31
0.0
  0
LINE
  5
A6022
330
1E
100
AcDbEntity
  8
OUTLINE
100
AcDbLine
 10
274.9999999999725
 20
-186.3844665605002
 30
0.0
 11
274.9999999999725
 21
-166.5
 31
0.0
  0
LINE
  5
A6040
330
1E
100
AcDbEntity
  8
OUTLINE
100
AcDbLine
 10
420.0000000000267
 20
-133.0905989233
 30
0.0
 11
420.0000000000271
 21
152.9000000000001
 31
0.0
  0
LINE
  5
A6042
330
1E
100
AcDbEntity
  8
OUTLINE
100
AcDbLine
 10
423.2000000005272
 20
-84.97905392238633
 30
0.0
 11
423.2000000005272
 21
-90.90540914919985
 31
0.0
  0
LINE
  5
A6044
330
1E
100
AcDbEntity
  8
OUTLINE
100
AcDbLine
 10
464.000000000427
 20
29.26685284366545
 30
0.0
 11
464.000000000427
 21
34.48064178889989
 31
0.0
  0
LINE
  5
A604F
330
1E
100
AcDbEntity
  8
OUTLINE
100
AcDbLine
 10
501.0000000000268
 20
15.41281533599033
 30
0.0
 11
501.0000000000268
 21
-25.46566439910022
 31
0.0
  0
LINE
  5
A6050
330
1E
100
AcDbEntity
  8
OUTLINE
100
AcDbLine
 10
490.9687144634276
 20
26.26089317879996
 30
0.0
 11
490.8703273716271
 21
20.79173136129998
 31
0.0
  0
ARC
  5
A6055
330
1E
100
AcDbEntity
  8
OUTLINE
100
AcDbCircle
 10
-397.9658533247872
 20
-142.965827603532
 30
0.0
 40
22.03417317392876
100
AcDbArc
 50
180.0888590128994
 51
270.0152204852955
  0
ARC
  5
A605A
330
1E
100
AcDbEntity
  8
OUTLINE
100
AcDbCircle
 10
-418.8000000000273
 20
-134.2863070659996
 30
0.0
 40
1.199999999999999
100
AcDbArc
 50
119.9999999999955
 51
180.0
  0
ARC
  5
A605B
330
1E
100
AcDbEntity
  8
OUTLINE
100
AcDbCircle
 10
-418.8000000000275
 20
-119.1905989233
 30
0.0
 40
1.199999999999999
100
AcDbArc
 50
180.0
 51
240.0000000000045
  0
ARC
  5
A606E
330
1E
100
AcDbEntity
  8
OUTLINE
100
AcDbCircle
 10
-407.8000000000272
 20
152.7999999999997
 30
0.0
 40
10.5
100
AcDbArc
 50
90.0
 51
180.0
  0
ARC
  5
A6075
330
1E
100
AcDbEntity
  8
OUTLINE
100
AcDbCircle
 10
-257.5000000000275
 20
184.6998046869998
 30
0.0
 40
7.5
100
AcDbArc
 50
0.0
 51
180.0
  0
ARC
  5
A6076
330
1E
100
AcDbEntity
  8
OUTLINE
100
AcDbCircle
 10
-232.5000000000275
 20
184.6998046869998
 30
0.0
 40
7.5
100
AcDbArc
 50
0.0
 51
180.0
  0
ARC
  5
A6077
330
1E
100
AcDbEntity
  8
OUTLINE
100
AcDbCircle
 10
-245.0000000000275
 20
174.1998046869998
 30
0.0
 40
5.0
100
AcDbArc
 50
180.0
 51
0.0
  0
ARC
  5
A6084
330
1E
100
AcDbEntity
  8
OUTLINE
100
AcDbCircle
 10
254.9999999999725
 20
-158.1001953130003
 30
0.0
 40
40.0
100
AcDbArc
 50
250.5287793654993
 51
289.4712206345007
  0
ARC
  5
A6085
330
1E
100
AcDbEntity
  8
OUTLINE
100
AcDbCircle
 10
244.9999999999725
 20
-186.3844665605002
 30
0.0
 40
10.0
100
AcDbArc
 50
180.0
 51
250.5287793654993
  0
ARC
  5
A608E
330
1E
100
AcDbEntity
  8
OUTLINE
100
AcDbCircle
 10
264.9999999999725
 20
-186.3844665605002
 30
0.0
 40
10.0
100
AcDbArc
 50
289.4712206345007
 51
0.0
  0
ARC
  5
A6090
330
1E
100
AcDbEntity
  8
OUTLINE
100
AcDbCircle
 10
397.8000000000275
 20
-143.0
 30
0.0
 40
22.0
100
AcDbArc
 50
270.0
 51
347.4816699154013
  0
ARC
  5
A609B
330
1E
100
AcDbEntity
  8
OUTLINE
100
AcDbCircle
 10
420.0000000000271
 20
-94.50000000000001
 30
0.0
 40
2.0
100
AcDbArc
 50
269.9999999974466
 51
0.0
  0
ARC
  5
A609C
330
1E
100
AcDbEntity
  8
OUTLINE
100
AcDbCircle
 10
422.7000000005272
 20
-90.90540914919985
 30
0.0
 40
0.5
100
AcDbArc
 50
272.0000000000033
 51
0.0
  0
ARC
  5
A609D
330
1E
100
AcDbEntity
  8
OUTLINE
100
AcDbCircle
 10
467.1927298231271
 20
-74.20963468650007
 30
0.0
 40
10.0
100
AcDbArc
 50
271.0000000000018
 51
353.121269634598
  0
ARC
  5
A60AE
330
1E
100
AcDbEntity
  8
OUTLINE
100
AcDbCircle
 10
451.0000000000268
 20
-25.46566439910022
 30
0.0
 40
50.0
100
AcDbArc
 50
302.6697766346052
 51
0.0
  0
ARC
  5
A60B0
330
1E
100
AcDbEntity
  8
OUTLINE
100
AcDbCircle
 10
467.1927298231271
 20
19.20963468600007
 30
0.0
 40
10.0
100
AcDbArc
 50
51.80095352023234
 51
88.8437796049958
  0
ARC
  5
A60BF
330
1E
100
AcDbEntity
  8
OUTLINE
100
AcDbCircle
 10
491.0702951430272
 20
20.78813417679999
 30
0.0
 40
0.2000001233
100
AcDbArc
 50
178.9695853929015
 51
268.0000000000727
  0
ARC
  5
A60C0
330
1E
100
AcDbEntity
  8
OUTLINE
100
AcDbCircle
 10
420.0000000000271
 20
39.5
 30
0.0
 40
2.0
100
AcDbArc
 50
0.0
 51
90.0
  0
ARC
  5
A60C1
330
1E
100
AcDbEntity
  8
OUTLINE
100
AcDbCircle
 10
490.4688331566273
 20
26.2699517817
 30
0.0
 40
0.4999303076
100
AcDbArc
 50
358.9694490746907
 51
89.00354236230395
  0
ARC
  5
A60C2
330
1E
100
AcDbEntity
  8
OUTLINE
100
AcDbCircle
 10
463.4997933972273
 20
34.48098199600008
 30
0.0
 40
0.4996672229
100
AcDbArc
 50
0.0002751119994871
 51
87.97491668240331
  0
ARC
  5
A60CD
330
1E
100
AcDbEntity
  8
OUTLINE
100
AcDbCircle
 10
407.9000000000275
 20
152.9000000000001
 30
0.0
 40
12.1
100
AcDbArc
 50
0.0
 51
90.0
  0
LINE
  5
A6192
330
1E
100
AcDbEntity
  8
OUTLINE
100
AcDbLine
 10
422.0000000000271
 20
-94.50000000000001
 30
0.0
 11
422.0000000000271
 21
-91.43015846000023
 31
0.0
  0
LINE
  5
A6193
330
1E
100
AcDbEntity
  8
OUTLINE
100
AcDbLine
 10
422.0000000000271
 20
39.5
 30
0.0
 11
422.0000000000267
 21
36.43015845939999
 31
0.0
  0
LINE
  5
A6196
330
1E
100
AcDbEntity
  8
OUTLINE
100
AcDbLine
 10
-418.3000000000275
 20
150.2999999999999
 30
0.0
 11
-418.3000000000275
 21
152.7999999999997
 31
0.0
  0
LINE
  5
A619A
330
1E
100
AcDbEntity
  8
OUTLINE
100
AcDbLine
 10
234.9999999999725
 20
184.6998046869998
 30
0.0
 11
234.9999999999725
 21
175.4999999999999
 31
0.0
  0
LINE
  5
A619B
330
1E
100
AcDbEntity
  8
OUTLINE
100
AcDbLine
 10
249.9999999999725
 20
184.6998046869998
 30
0.0
 11
249.9999999999724
 21
174.1998046870001
 31
0.0
  0
LINE
  5
A619C
330
1E
100
AcDbEntity
  8
OUTLINE
100
AcDbLine
 10
259.9999999999725
 20
174.1998046870001
 30
0.0
 11
259.9999999999725
 21
184.6998046869998
 31
0.0
  0
LINE
  5
A619D
330
1E
100
AcDbEntity
  8
OUTLINE
100
AcDbLine
 10
274.9999999999725
 20
184.6998046869998
 30
0.0
 11
274.9999999999725
 21
175.4999999999999
 31
0.0
  0
ARC
  5
A619E
330
1E
100
AcDbEntity
  8
OUTLINE
100
AcDbCircle
 10
242.4999999999725
 20
184.6998046869998
 30
0.0
 40
7.5
100
AcDbArc
 50
0.0
 51
180.0
  0
ARC
  5
A619F
330
1E
100
AcDbEntity
  8
OUTLINE
100
AcDbCircle
 10
267.4999999999725
 20
184.6998046869998
 30
0.0
 40
7.5
100
AcDbArc
 50
0.0
 51
180.0
  0
ARC
  5
A61A0
330
1E
100
AcDbEntity
  8
OUTLINE
100
AcDbCircle
 10
254.9999999999724
 20
174.1998046869998
 30
0.0
 40
5.0
100
AcDbArc
 50
180.0
 51
0.0
  0
LINE
  5
A61A2
330
1E
100
AcDbEntity
  8
OUTLINE
100
AcDbLine
 10
-225.0000000000276
 20
-186.3844665605002
 30
0.0
 11
-225.0000000000276
 21
-183.4922332802501
 31
0.0
  0
ARC
  5
A61A3
330
1E
100
AcDbEntity
  8
OUTLINE
100
AcDbCircle
 10
-245.0000000000276
 20
-158.1001953130003
 30
0.0
 40
40.0
100
AcDbArc
 50
250.5287793654998
 51
289.4712206345002
  0
ARC
  5
A61A4
330
1E
100
AcDbEntity
  8
OUTLINE
100
AcDbCircle
 10
-255.0000000000276
 20
-186.3844665605002
 30
0.0
 40
10.0
100
AcDbArc
 50
180.0
 51
250.5287793654998
  0
ARC
  5
A61A5
330
1E
100
AcDbEntity
  8
OUTLINE
100
AcDbCircle
 10
-235.0000000000276
 20
-186.3844665605002
 30
0.0
 40
10.0
100
AcDbArc
 50
289.4712206345002
 51
0.0
  0
LINE
  5
A61A6
330
1E
100
AcDbEntity
  8
OUTLINE
100
AcDbLine
 10
477.1207485365267
 20
-75.40731762717633
 30
0.0
 11
477.9898175362212
 21
-67.55544640569815
 31
0.0
  0
DIMENSION
  5
A61A7
330
1E
100
AcDbEntity
  8
SIZE
100
AcDbDimension
280
     0
  2
*D5
 10
420.0000000000271
 20
414.0232896252016
 30
0.0
 11
0.0000000000000873
 21
414.0232896252016
 31
0.0
 70
   160
  1
<>
 71
     5
 42
840.0000000000543
 73
     0
 74
     0
 75
     0
  3
STANDARD
100
AcDbAlignedDimension
 13
-420.0000000000271
 23
149.0999999999999
 33
0.0
 14
420.0000000000271
 24
152.9000000000001
 34
0.0
100
AcDbRotatedDimension
1001
ACAD
1000
DSTYLE
1002
{
1070
    41
1040
10.0
1070
    42
1040
10.0
1070
    43
1040
200.0
1070
    44
1040
10.0
1070
    73
1070
     0
1070
    74
1070
     0
1070
    77
1070
     1
1070
    78
1070
     8
1070
   140
1040
45.0
1070
   141
1040
0.082
1070
   147
1040
10.0
1070
   172
1070
     1
1070
   176
1070
   256
1070
   177
1070
   256
1070
   178
1070
   256
1070
   271
1070
     8
1070
   272
1070
     3
1070
   341
1005
46
1070
   342
1005
46
1070
   345
1005
14
1070
   346
1005
14
1070
   347
1005
14
1070
   371
1070
    -1
1070
   372
1070
    -1
1002
}
  0
LINE
  5
A6324
330
1E
100
AcDbEntity
  8
DETAIL
100
AcDbLine
 10
-358.3000000000275
 20
-60.65000000000011
 30
0.0
 11
-358.3000000000275
 21
-121.6500000000001
 31
0.0
  0
LINE
  5
A6325
330
1E
100
AcDbEntity
  8
DETAIL
100
AcDbLine
 10
352.8999999999725
 20
-56.6500000000001
 30
0.0
 11
-354.3000000000275
 21
-56.6500000000001
 31
0.0
  0
LINE
  5
A6326
330
1E
100
AcDbEntity
  8
DETAIL
100
AcDbLine
 10
352.8999999999725
 20
-125.6500000000001
 30
0.0
 11
-354.3000000000275
 21
-125.6500000000001
 31
0.0
  0
LINE
  5
A6327
330
1E
100
AcDbEntity
  8
DETAIL
100
AcDbLine
 10
356.8999999999725
 20
-60.65000000000011
 30
0.0
 11
356.8999999999725
 21
-121.6500000000001
 31
0.0
  0
ARC
  5
A6328
330
1E
100
AcDbEntity
  8
DETAIL
100
AcDbCircle
 10
-354.3000000000275
 20
-60.65000000000011
 30
0.0
 40
4.0
100
AcDbArc
 50
90.00000000000005
 51
180.0
  0
ARC
  5
A6329
330
1E
100
AcDbEntity
  8
DETAIL
100
AcDbCircle
 10
-354.3000000000275
 20
-121.6500000000001
 30
0.0
 40
4.0
100
AcDbArc
 50
180.0
 51
270.0
  0
ARC
  5
A632A
330
1E
100
AcDbEntity
  8
DETAIL
100
AcDbCircle
 10
352.8999999999725
 20
-60.65000000000011
 30
0.0
 40
4.0
100
AcDbArc
 50
0.0
 51
90.00000000000005
  0
ARC
  5
A632B
330
1E
100
AcDbEntity
  8
DETAIL
100
AcDbCircle
 10
352.8999999999725
 20
-121.6500000000001
 30
0.0
 40
4.0
100
AcDbArc
 50
270.0
 51
0.0
  0
LINE
  5
A6346
330
1E
100
AcDbEntity
  8
DETAIL
100
AcDbLine
 10
66.50398913647245
 20
-176.4
 30
0.0
 11
66.50398913647245
 21
-172.1
 31
0.0
  0
LINE
  5
A6347
330
1E
100
AcDbEntity
  8
DETAIL
100
AcDbLine
 10
66.50398913647245
 20
-167.9
 30
0.0
 11
66.50398913647245
 21
-166.4614188940177
 31
0.0
  0
LINE
  5
A6348
330
1E
100
AcDbEntity
  8
DETAIL
100
AcDbLine
 10
-286.4115223479275
 20
-176.4
 30
0.0
 11
-286.4115223479275
 21
-172.1
 31
0.0
  0
LINE
  5
A6349
330
1E
100
AcDbEntity
  8
DETAIL
100
AcDbLine
 10
-286.4115223479275
 20
-167.9
 30
0.0
 11
-286.4115223479275
 21
-166.4959059303655
 31
0.0
  0
ARC
  5
A671B
330
1E
100
AcDbEntity
  8
DETAIL
100
AcDbCircle
 10
496.0000000000268
 20
15.41281533599028
 30
0.0
 40
5.0
100
AcDbArc
 50
0.0
 51
88.00000000007484
  0
LINE
  5
A671C
330
1E
100
AcDbEntity
  8
DETAIL
100
AcDbLine
 10
310.4365308959403
 20
165.0000000000001
 30
0.0
 11
309.3326407234309
 21
171.2604722665247
 31
0.0
  0
ARC
  5
A671D
330
1E
100
AcDbEntity
  8
DETAIL
100
AcDbCircle
 10
307.8554290938722
 20
170.9999999999999
 30
0.0
 40
1.5
100
AcDbArc
 50
9.999999999998614
 51
90.0
  0
ARC
  5
A671E
330
1E
100
AcDbEntity
  8
DETAIL
100
AcDbCircle
 10
-358.3741266222275
 20
-178.6000000000001
 30
0.0
 40
2.0
100
AcDbArc
 50
180.0
 51
270.0
  0
LINE
  5
A671F
330
1E
100
AcDbEntity
  8
DETAIL
100
AcDbLine
 10
-290.6115223479276
 20
-167.9
 30
0.0
 11
-290.6115223479276
 21
-166.5000000000001
 31
0.0
  0
LINE
  5
A6720
330
1E
100
AcDbEntity
  8
DETAIL
100
AcDbLine
 10
70.7039891364727
 20
-167.9
 30
0.0
 11
70.7039891364727
 21
-166.5000000000001
 31
0.0
  0
ARC
  5
A6721
330
1E
100
AcDbEntity
  8
DETAIL
100
AcDbCircle
 10
138.4741266215721
 20
-178.6000000000001
 30
0.0
 40
2.0
100
AcDbArc
 50
270.0
 51
0.0
  0
LINE
  5
A6722
330
1E
100
AcDbEntity
  8
BASIS
  6
CENTER
100
AcDbLine
 10
-236.0000000000257
 20
-180.6000000000001
 30
0.0
 11
-254.0000000000294
 21
-180.6000000000001
 31
0.0
  0
ARC
  5
A6724
330
1E
100
AcDbEntity
  8
OUTLINE
100
AcDbCircle
 10
496.0000000000268
 20
15.41281533599033
 30
0.0
 40
5.0
100
AcDbArc
 50
0.0
 51
88.00000000007409
  0
LINE
  5
A672D
330
1E
100
AcDbEntity
  8
OUTLINE
100
AcDbLine
 10
-418.3000000000275
 20
150.2999999999999
 30
0.0
 11
-418.8000000000275
 21
150.2999999999999
 31
0.0
  0
ARC
  5
A672E
330
1E
100
AcDbEntity
  8
OUTLINE
100
AcDbCircle
 10
-418.8000000000275
 20
149.0999999999998
 30
0.0
 40
1.199999999999999
100
AcDbArc
 50
90.0
 51
180.0
  0
LINE
  5
A674B
330
1E
100
AcDbEntity
  8
OUTLINE
100
AcDbLine
 10
-432.895444126395
 20
126.5149337007775
 30
0.0
 11
-432.8954440256602
 21
45.38597637453209
 31
0.0
  0
LINE
  5
A674C
330
1E
100
AcDbEntity
  8
OUTLINE
100
AcDbLine
 10
-424.0000000000271
 20
131.200456984
 30
0.0
 11
-424.0000000000271
 21
132.2004747525999
 31
0.0
  0
LINE
  5
A674D
330
1E
100
AcDbEntity
  8
OUTLINE
100
AcDbLine
 10
-423.0000000000273
 20
33.09751325900001
 30
0.0
 11
-423.0000000000273
 21
39.20045698400003
 31
0.0
  0
LINE
  5
A674E
330
1E
100
AcDbEntity
  8
OUTLINE
100
AcDbLine
 10
-422.6485281374277
 20
139.6519288466999
 30
0.0
 11
-420.1757359313273
 21
142.1247210527999
 31
0.0
  0
LINE
  5
A6750
330
1E
100
AcDbEntity
  8
OUTLINE
100
AcDbLine
 10
-420.1757359313273
 20
29.77619291540005
 30
0.0
 11
-422.6485281374277
 21
32.24898512149998
 31
0.0
  0
LINE
  5
A6751
330
1E
100
AcDbEntity
  8
OUTLINE
100
AcDbLine
 10
-423.6294108525274
 20
39.36910711359992
 30
0.0
 11
-423.0000000000273
 21
39.20045698400004
 31
0.0
  0
LINE
  5
A6752
330
1E
100
AcDbEntity
  8
OUTLINE
100
AcDbLine
 10
-430.6719057754679
 20
42.48820013584544
 30
0.0
 11
-424.0000000000271
 21
40.70045698400003
 31
0.0
  0
LINE
  5
A6753
330
1E
100
AcDbEntity
  8
OUTLINE
100
AcDbLine
 10
-423.4999999525274
 20
132.7004569839999
 30
0.0
 11
-423.0000000000273
 21
132.7004569839999
 31
0.0
  0
LINE
  5
A6754
330
1E
100
AcDbEntity
  8
OUTLINE
100
AcDbLine
 10
-430.6719074396822
 20
129.412709527978
 30
0.0
 11
-424.0000000000271
 21
131.200456984
 31
0.0
  0
ARC
  5
A6755
330
1E
100
AcDbEntity
  8
OUTLINE
100
AcDbCircle
 10
-421.8000000000276
 20
33.09751325900001
 30
0.0
 40
1.199999999999999
100
AcDbArc
 50
180.0
 51
225.0000000000042
  0
ARC
  5
A6756
330
1E
100
AcDbEntity
  8
OUTLINE
100
AcDbCircle
 10
-420.6000000000273
 20
29.35192884669979
 30
0.0
 40
0.6
100
AcDbArc
 50
0.0
 51
45.00000000000418
  0
ARC
  5
A6757
330
1E
100
AcDbEntity
  8
OUTLINE
100
AcDbCircle
 10
-423.5000024874276
 20
39.85206776180003
 30
0.0
 40
0.4999975126
100
AcDbArc
 50
180.0001007332007
 51
255.0001007785992
  0
ARC
  5
A6758
330
1E
100
AcDbEntity
  8
OUTLINE
100
AcDbCircle
 10
-423.5000118033275
 20
132.2004687873
 30
0.0
 40
0.4999881968000003
100
AcDbArc
 50
89.99865945609498
 51
179.9986588651001
  0
ARC
  5
A6759
330
1E
100
AcDbEntity
  8
OUTLINE
100
AcDbCircle
 10
-421.8000000000276
 20
138.8034007092999
 30
0.0
 40
1.199999999999999
100
AcDbArc
 50
134.9999999999958
 51
180.0
  0
ARC
  5
A675A
330
1E
100
AcDbEntity
  8
OUTLINE
100
AcDbCircle
 10
-420.6000000000273
 20
142.5489851215
 30
0.0
 40
0.6
100
AcDbArc
 50
314.9999999999912
 51
0.0
  0
LINE
  5
A675B
330
1E
100
AcDbEntity
  8
OUTLINE
100
AcDbLine
 10
-423.0000000000273
 20
138.8034007092999
 30
0.0
 11
-423.0000000000273
 21
132.7004569839999
 31
0.0
  0
LINE
  5
A675C
330
1E
100
AcDbEntity
  8
OUTLINE
100
AcDbLine
 10
-424.0000000000271
 20
40.70045698400003
 30
0.0
 11
-424.0000000000267
 21
39.8520668827414
 31
0.0
  0
ARC
  5
A675D
330
1E
100
AcDbEntity
  8
DETAIL
100
AcDbCircle
 10
-429.8954441263948
 20
126.5149337045025
 30
0.0
 40
3.0
100
AcDbArc
 50
105.0001221530176
 51
180.000000071142
  0
ARC
  5
A675E
330
1E
100
AcDbEntity
  8
DETAIL
100
AcDbCircle
 10
-429.89544402566
 20
45.38597637825708
 30
0.0
 40
3.0
100
AcDbArc
 50
180.000000071142
 51
254.9999087606107
  0
ARC
  5
A675F
330
1E
100
AcDbEntity
  8
OUTLINE
100
AcDbCircle
 10
-429.8954441263949
 20
126.5149337045025
 30
0.0
 40
3.0
100
AcDbArc
 50
105.0001221530178
 51
180.000000071142
  0
ARC
  5
A6760
330
1E
100
AcDbEntity
  8
OUTLINE
100
AcDbCircle
 10
-429.8954440256602
 20
45.38597637825708
 30
0.0
 40
3.0
100
AcDbArc
 50
180.000000071142
 51
254.9999087606107
  0
LINE
  5
A67C0
330
1E
100
AcDbEntity
  8
OUTLINE
100
AcDbLine
 10
-386.4600000000278
 20
-166.5
 30
0.0
 11
-387.9600000000278
 21
-165.0
 31
0.0
  0
LINE
  5
A67C1
330
1E
100
AcDbEntity
  8
OUTLINE
100
AcDbLine
 10
-364.5741266222281
 20
-178.5
 30
0.0
 11
-364.5741266222281
 21
-166.5000000000002
 31
0.0
  0
LINE
  5
A67CC
330
1E
100
AcDbEntity
  8
OUTLINE
100
AcDbLine
 10
-187.9500000003277
 20
-187.0
 30
0.0
 11
-189.9500000003277
 21
-184.9999999999998
 31
0.0
  0
LINE
  5
A67D0
330
1E
100
AcDbEntity
  8
OUTLINE
100
AcDbLine
 10
-189.9500000003277
 20
-183.6000000000001
 30
0.0
 11
-189.9500000003277
 21
-184.9999999999998
 31
0.0
  0
LINE
  5
A67D1
330
1E
100
AcDbEntity
  8
OUTLINE
100
AcDbLine
 10
-187.9475207451278
 20
-187.0
 30
0.0
 11
-31.95014537442785
 21
-187.0
 31
0.0
  0
LINE
  5
A67D3
330
1E
100
AcDbEntity
  8
OUTLINE
100
AcDbLine
 10
139.574126621572
 20
-183.6000000000001
 30
0.0
 11
-29.95000000032769
 21
-183.6000000000003
 31
0.0
  0
LINE
  5
A67E0
330
1E
100
AcDbEntity
  8
OUTLINE
100
AcDbLine
 10
384.8999765594722
 20
-166.5
 30
0.0
 11
144.674126621572
 21
-166.5
 31
0.0
  0
LINE
  5
A67E3
330
1E
100
AcDbEntity
  8
OUTLINE
100
AcDbLine
 10
-364.5741266222281
 20
-166.5
 30
0.0
 11
-386.4599765595281
 21
-166.5
 31
0.0
  0
LINE
  5
A67E7
330
1E
100
AcDbEntity
  8
OUTLINE
100
AcDbLine
 10
-29.95000000032769
 20
-183.6000000000001
 30
0.0
 11
-29.95000000032769
 21
-184.9999999999998
 31
0.0
  0
LINE
  5
A67EB
330
1E
100
AcDbEntity
  8
OUTLINE
100
AcDbLine
 10
-31.95000000032769
 20
-187.0
 30
0.0
 11
-29.95000000032769
 21
-184.9999999999998
 31
0.0
  0
LINE
  5
A67ED
330
1E
100
AcDbEntity
  8
OUTLINE
100
AcDbLine
 10
144.674126621572
 20
-178.5
 30
0.0
 11
144.674126621572
 21
-166.5
 31
0.0
  0
LINE
  5
A67F2
330
1E
100
AcDbEntity
  8
OUTLINE
100
AcDbLine
 10
384.8999999999719
 20
-166.5
 30
0.0
 11
386.3999999999724
 21
-165.0
 31
0.0
  0
ARC
  5
A67F3
330
1E
100
AcDbEntity
  8
OUTLINE
100
AcDbCircle
 10
-359.4741266222277
 20
-178.5
 30
0.0
 40
5.099999999999996
100
AcDbArc
 50
180.0
 51
270.0
  0
ARC
  5
A6800
330
1E
100
AcDbEntity
  8
OUTLINE
100
AcDbCircle
 10
139.574126621572
 20
-178.5
 30
0.0
 40
5.099999999999996
100
AcDbArc
 50
270.0
 51
0.0
  0
LINE
  5
A680F
330
1E
100
AcDbEntity
  8
OUTLINE
100
AcDbLine
 10
-189.9500000003277
 20
-183.5999999999999
 30
0.0
 11
-359.4741266222277
 21
-183.6000000000001
 31
0.0
  0
LINE
  5
A6814
330
1E
100
AcDbEntity
  8
OUTLINE
100
AcDbLine
 10
-265.0000000000276
 20
-183.4922332802501
 30
0.0
 11
-265.0000000000276
 21
-186.3844665605002
 31
0.0
  0
LINE
  5
A682A
330
1E
100
AcDbEntity
  8
OUTLINE
100
AcDbLine
 10
418.7055156455278
 20
-146.4692098631999
 30
0.0
 11
418.2466264034301
 21
-146.204270035745
 31
0.0
  0
LINE
  5
A682B
330
1E
100
AcDbEntity
  8
OUTLINE
100
AcDbLine
 10
418.3000000000275
 20
-134.7649147039002
 30
0.0
 11
419.4000000000275
 21
-134.1298294078001
 31
0.0
  0
ARC
  5
A682C
330
1E
100
AcDbEntity
  8
OUTLINE
100
AcDbCircle
 10
418.1055156455271
 20
-147.5084403477
 30
0.0
 40
1.199999999999999
100
AcDbArc
 50
347.4816699154029
 51
59.9999999999995
  0
ARC
  5
A682D
330
1E
100
AcDbEntity
  8
OUTLINE
100
AcDbCircle
 10
418.8000000000267
 20
-133.0905989233
 30
0.0
 40
1.199999999999999
100
AcDbArc
 50
299.9999999999998
 51
0.0
  0
LINE
  5
A6836
330
1E
100
AcDbEntity
  8
OUTLINE
100
AcDbLine
 10
418.3000000000274
 20
-144.8000000000001
 30
0.0
 11
418.3000000000274
 21
-134.7649147039003
 31
0.0
  0
ARC
  5
A6837
330
1E
100
AcDbEntity
  8
OUTLINE
100
AcDbCircle
 10
399.8000000000276
 20
-144.8000000000001
 30
0.0
 40
18.5
100
AcDbArc
 50
355.6466912522485
 51
0.0
  0
LINE
  5
A68C9
330
1E
100
AcDbEntity
  8
OUTLINE
100
AcDbLine
 10
-384.8892624825278
 20
171.7814167994997
 30
0.0
 11
-386.085009231648
 21
165.0
 31
0.0
  0
LINE
  5
A68CB
330
1E
100
AcDbEntity
  8
OUTLINE
100
AcDbLine
 10
-380.4576275939279
 20
175.4987173533995
 30
0.0
 11
-380.4576275939279
 21
175.4999999999997
 31
0.0
  0
LINE
  5
A68CC
330
1E
100
AcDbEntity
  8
OUTLINE
100
AcDbLine
 10
-318.4079124808274
 20
176.9999999999997
 30
0.0
 11
-318.4079124808274
 21
175.4999999999997
 31
0.0
  0
LINE
  5
A68CD
330
1E
100
AcDbEntity
  8
OUTLINE
100
AcDbLine
 10
-315.4079124808275
 20
176.9999999999997
 30
0.0
 11
-315.4079124808275
 21
175.4999999999997
 31
0.0
  0
LINE
  5
A68D1
330
1E
100
AcDbEntity
  8
OUTLINE
100
AcDbLine
 10
-135.4079124808274
 20
176.9999999999997
 30
0.0
 11
-135.4079124808274
 21
175.4999999999997
 31
0.0
  0
LINE
  5
A68D2
330
1E
100
AcDbEntity
  8
OUTLINE
100
AcDbLine
 10
-132.4079124808274
 20
176.9999999999997
 30
0.0
 11
-132.4079124808274
 21
175.4999999999997
 31
0.0
  0
LINE
  5
A68D3
330
1E
100
AcDbEntity
  8
OUTLINE
100
AcDbLine
 10
47.59208751917253
 20
176.9999999999997
 30
0.0
 11
47.59208751917253
 21
175.4999999999997
 31
0.0
  0
LINE
  5
A68D4
330
1E
100
AcDbEntity
  8
OUTLINE
100
AcDbLine
 10
50.59208751917253
 20
176.9999999999997
 30
0.0
 11
50.59208751917253
 21
175.4999999999997
 31
0.0
  0
LINE
  5
A68D7
330
1E
100
AcDbEntity
  8
OUTLINE
100
AcDbLine
 10
332.5656609248724
 20
168.5355339058999
 30
0.0
 11
330.4945931129727
 21
166.4644660941001
 31
0.0
  0
LINE
  5
A68DB
330
1E
100
AcDbEntity
  8
OUTLINE
100
AcDbLine
 10
313.4828107315927
 20
165.0
 30
0.0
 11
313.9999999999725
 21
165.0
 31
0.0
  0
LINE
  5
A68DE
330
1E
100
AcDbEntity
  8
OUTLINE
100
AcDbLine
 10
336.1011948307726
 20
170.0
 30
0.0
 11
386.9590592070723
 21
170.0
 31
0.0
  0
LINE
  5
A68DF
330
1E
100
AcDbEntity
  8
OUTLINE
100
AcDbLine
 10
230.5920875191725
 20
176.9999999999997
 30
0.0
 11
230.5920875191725
 21
175.4999999999997
 31
0.0
  0
LINE
  5
A68E0
330
1E
100
AcDbEntity
  8
OUTLINE
100
AcDbLine
 10
233.5920875191721
 20
176.9999999999997
 30
0.0
 11
233.5920875191721
 21
175.4999999999999
 31
0.0
  0
LINE
  5
A68E7
330
1E
100
AcDbEntity
  8
OUTLINE
100
AcDbLine
 10
307.8554290938721
 20
175.4999999999997
 30
0.0
 11
233.5920875191721
 21
175.4999999999997
 31
0.0
  0
LINE
  5
A68E8
330
1E
100
AcDbEntity
  8
OUTLINE
100
AcDbLine
 10
230.5920875191725
 20
175.4999999999997
 30
0.0
 11
50.59208751917253
 21
175.4999999999997
 31
0.0
  0
LINE
  5
A68E9
330
1E
100
AcDbEntity
  8
OUTLINE
100
AcDbLine
 10
47.59208751917253
 20
175.4999999999997
 30
0.0
 11
-132.4079124808274
 21
175.4999999999997
 31
0.0
  0
LINE
  5
A68EA
330
1E
100
AcDbEntity
  8
OUTLINE
100
AcDbLine
 10
-135.4079124808274
 20
175.4999999999997
 30
0.0
 11
-315.4079124808275
 21
175.4999999999997
 31
0.0
  0
LINE
  5
A68EB
330
1E
100
AcDbEntity
  8
OUTLINE
100
AcDbLine
 10
-318.4079124808274
 20
175.4999999999997
 30
0.0
 11
-380.4576275939279
 21
175.4999999999997
 31
0.0
  0
LINE
  5
A68EC
330
1E
100
AcDbEntity
  8
OUTLINE
100
AcDbLine
 10
313.9999999999725
 20
165.0
 30
0.0
 11
313.9999999999725
 21
163.2999999999998
 31
0.0
  0
LINE
  5
A68EE
330
1E
100
AcDbEntity
  8
OUTLINE
100
AcDbLine
 10
313.4828107315927
 20
165.0
 30
0.0
 11
312.2870639824721
 21
171.7814167994997
 31
0.0
  0
LINE
  5
A68F0
330
1E
100
AcDbEntity
  8
OUTLINE
100
AcDbLine
 10
392.5656609248724
 20
166.4644660941001
 30
0.0
 11
390.4945931129721
 21
168.5355339058999
 31
0.0
  0
ARC
  5
A68F1
330
1E
100
AcDbEntity
  8
OUTLINE
100
AcDbCircle
 10
-380.4576275939279
 20
170.9999999999998
 30
0.0
 40
4.5
100
AcDbArc
 50
90.0
 51
170.0000000000014
  0
ARC
  5
A68F4
330
1E
100
AcDbEntity
  8
OUTLINE
100
AcDbCircle
 10
-316.9079124808275
 20
176.9999999999997
 30
0.0
 40
1.5
100
AcDbArc
 50
0.0
 51
180.0
  0
ARC
  5
A68F9
330
1E
100
AcDbEntity
  8
OUTLINE
100
AcDbCircle
 10
-133.9079124808274
 20
176.9999999999997
 30
0.0
 40
1.5
100
AcDbArc
 50
0.0
 51
180.0
  0
ARC
  5
A68FA
330
1E
100
AcDbEntity
  8
OUTLINE
100
AcDbCircle
 10
49.09208751917208
 20
176.9999999999997
 30
0.0
 40
1.5
100
AcDbArc
 50
0.0
 51
180.0
  0
ARC
  5
A68FE
330
1E
100
AcDbEntity
  8
OUTLINE
100
AcDbCircle
 10
232.0920875191721
 20
176.9999999999997
 30
0.0
 40
1.5
100
AcDbArc
 50
0.0
 51
180.0
  0
ARC
  5
A68FF
330
1E
100
AcDbEntity
  8
OUTLINE
100
AcDbCircle
 10
326.9590592070723
 20
170.0
 30
0.0
 40
5.0
100
AcDbArc
 50
270.0
 51
314.999999999979
  0
ARC
  5
A6900
330
1E
100
AcDbEntity
  8
OUTLINE
100
AcDbCircle
 10
336.1011948307726
 20
165.0
 30
0.0
 40
5.0
100
AcDbArc
 50
90.0
 51
135.0000000000066
  0
ARC
  5
A6902
330
1E
100
AcDbEntity
  8
OUTLINE
100
AcDbCircle
 10
307.8554290938721
 20
170.9999999999998
 30
0.0
 40
4.5
100
AcDbArc
 50
9.999999999998538
 51
90.0
  0
ARC
  5
A6906
330
1E
100
AcDbEntity
  8
OUTLINE
100
AcDbCircle
 10
396.1011948307721
 20
170.0
 30
0.0
 40
5.0
100
AcDbArc
 50
224.9999999999934
 51
270.0
  0
ARC
  5
A6907
330
1E
100
AcDbEntity
  8
OUTLINE
100
AcDbCircle
 10
386.9590592070723
 20
165.0
 30
0.0
 40
5.0
100
AcDbArc
 50
44.99999999999338
 51
90.0
  0
LINE
  5
A691E
330
1E
100
AcDbEntity
  8
OUTLINE
100
AcDbLine
 10
-133.9144660941274
 20
164.3355339058999
 30
0.0
 11
-134.3642135624275
 21
163.8857864375997
 31
0.0
  0
LINE
  5
A691F
330
1E
100
AcDbEntity
  8
OUTLINE
100
AcDbLine
 10
235.2355339058724
 20
164.3355339058999
 30
0.0
 11
234.7857864375725
 21
163.8857864375997
 31
0.0
  0
LINE
  5
A6920
330
1E
100
AcDbEntity
  8
OUTLINE
100
AcDbLine
 10
-85.53578643762762
 20
163.8857864375997
 30
0.0
 11
-85.98553390592746
 21
164.3355339058999
 31
0.0
  0
LINE
  5
A6921
330
1E
100
AcDbEntity
  8
OUTLINE
100
AcDbLine
 10
233.3715728752725
 20
163.2999999999997
 30
0.0
 11
-84.12157287522745
 21
163.2999999999997
 31
0.0
  0
LINE
  5
A6922
330
1E
100
AcDbEntity
  8
OUTLINE
100
AcDbLine
 10
-135.7784271247275
 20
163.2999999999997
 30
0.0
 11
-407.8000000000272
 21
163.2999999999997
 31
0.0
  0
LINE
  5
A6923
330
1E
100
AcDbEntity
  8
OUTLINE
100
AcDbLine
 10
300.0284271246725
 20
163.2999999999997
 30
0.0
 11
318.0486315612723
 21
163.2999999999999
 31
0.0
  0
LINE
  5
A6924
330
1E
100
AcDbEntity
  8
OUTLINE
100
AcDbLine
 10
294.6289321880725
 20
165.7999999999995
 30
0.0
 11
238.7710678118726
 21
165.7999999999995
 31
0.0
  0
LINE
  5
A6925
330
1E
100
AcDbEntity
  8
OUTLINE
100
AcDbLine
 10
-89.52106781192766
 20
165.7999999999995
 30
0.0
 11
-130.3789321881274
 21
165.7999999999995
 31
0.0
  0
ARC
  5
A6926
330
1E
100
AcDbEntity
  8
OUTLINE
100
AcDbCircle
 10
-89.52106781192766
 20
160.7999999999995
 30
0.0
 40
5.0
100
AcDbArc
 50
45.00000000000114
 51
90.0
  0
ARC
  5
A6927
330
1E
100
AcDbEntity
  8
OUTLINE
100
AcDbCircle
 10
-130.3789321881274
 20
160.7999999999995
 30
0.0
 40
5.0
100
AcDbArc
 50
90.0
 51
134.9999999999988
  0
ARC
  5
A6928
330
1E
100
AcDbEntity
  8
OUTLINE
100
AcDbCircle
 10
-135.7784271247275
 20
165.2999999999995
 30
0.0
 40
2.0
100
AcDbArc
 50
270.0
 51
314.9999999999908
  0
ARC
  5
A6929
330
1E
100
AcDbEntity
  8
OUTLINE
100
AcDbCircle
 10
-84.12157287522745
 20
165.2999999999995
 30
0.0
 40
2.0
100
AcDbArc
 50
225.0000000000011
 51
270.0
  0
ARC
  5
A692A
330
1E
100
AcDbEntity
  8
OUTLINE
100
AcDbCircle
 10
238.7710678118726
 20
160.7999999999995
 30
0.0
 40
5.0
100
AcDbArc
 50
90.0
 51
134.9999999999988
  0
ARC
  5
A692B
330
1E
100
AcDbEntity
  8
OUTLINE
100
AcDbCircle
 10
233.3715728752725
 20
165.2999999999995
 30
0.0
 40
2.0
100
AcDbArc
 50
270.0
 51
314.9999999999908
  0
ARC
  5
A692C
330
1E
100
AcDbEntity
  8
OUTLINE
100
AcDbCircle
 10
294.6289321880725
 20
160.7999999999995
 30
0.0
 40
5.0
100
AcDbArc
 50
45.00000000000114
 51
90.0
  0
ARC
  5
A692D
330
1E
100
AcDbEntity
  8
OUTLINE
100
AcDbCircle
 10
300.0284271246725
 20
165.2999999999995
 30
0.0
 40
2.0
100
AcDbArc
 50
225.0000000000011
 51
270.0
  0
LINE
  5
A692E
330
1E
100
AcDbEntity
  8
OUTLINE
100
AcDbLine
 10
298.1644660940052
 20
164.3355339059324
 30
0.0
 11
298.6142135622995
 21
163.8857864376264
 31
0.0
  0
LINE
  5
A6974
330
1E
100
AcDbEntity
  8
OUTLINE
100
AcDbLine
 10
318.0486315612723
 20
163.2999999999999
 30
0.0
 11
318.3084391823726
 21
163.7499999999999
 31
0.0
  0
LINE
  5
A6975
330
1E
100
AcDbEntity
  8
OUTLINE
100
AcDbLine
 10
326.9590592070725
 20
164.9999999999999
 30
0.0
 11
320.4735026918722
 21
164.9999999999999
 31
0.0
  0
ARC
  5
A6976
330
1E
100
AcDbEntity
  8
OUTLINE
100
AcDbCircle
 10
320.4735026918722
 20
162.4999999999999
 30
0.0
 40
2.5
100
AcDbArc
 50
90.0
 51
149.9999999999995
  0
DIMENSION
  5
A6F16
330
1E
100
AcDbEntity
  8
SIZE
100
AcDbDimension
280
     0
  2
*D8
 10
-756.8732695145099
 20
-165.0000000000002
 30
0.0
 11
-756.8732695145098
 21
0.0000000000001989
 31
0.0
 70
   160
  1
<>
 71
     5
 42
330.0000000000002
 73
     0
 74
     0
 75
     0
  3
STANDARD
100
AcDbAlignedDimension
 13
-407.0000000001271
 23
165.0000000000001
 33
0.0
 14
-397.9600000000275
 24
-165.0000000000001
 34
0.0
 50
90.0
100
AcDbRotatedDimension
1001
ACAD
1000
DSTYLE
1002
{
1070
    41
1040
10.0
1070
    42
1040
5.0
1070
    43
1040
200.0
1070
    44
1040
10.0
1070
    73
1070
     0
1070
    74
1070
     0
1070
    77
1070
     1
1070
    78
1070
     8
1070
   140
1040
45.0
1070
   141
1040
0.082
1070
   147
1040
10.0
1070
   172
1070
     1
1070
   176
1070
   256
1070
   177
1070
   256
1070
   178
1070
   256
1070
   271
1070
     3
1070
   272
1070
     3
1070
   341
1005
46
1070
   342
1005
46
1070
   345
1005
14
1070
   346
1005
14
1070
   347
1005
14
1070
   371
1070
    -1
1070
   372
1070
    -1
1002
}
  0
MTEXT
  5
A6FA7
330
1E
100
AcDbEntity
  8
NOTE
100
AcDbMText
 10
475.4588679026215
 20
-410.3675822867388
 30
0.0
 40
45.0
 41
505.0166151442063
 46
0.0
 71
     1
 72
     5
  1
10×21
 73
     1
 44
0.8
1001
ACAD
1000
ACAD_MTEXT_COLUMN_INFO_BEGIN
1070
    75
1070
     2
1070
    79
1070
     0
1070
    76
1070
     1
1070
    78
1070
     0
1070
    48
1040
505.0166151442063
1070
    49
1040
225.0
1070
    50
1070
     1
1040
50.27484349833053
1000
ACAD_MTEXT_COLUMN_INFO_END
  0
LWPOLYLINE
  5
A6FA8
330
1E
100
AcDbEntity
  8
NOTE
  6
ByBlock
370
    -2
100
AcDbPolyline
 90
        3
 70
     0
 43
0.0
 10
259.5627759996045
 20
-188.1449630692947
 10
460.1430055262698
 20
-466.1114333088247
 10
890.1745030686011
 20
-466.1114333088247
  0
LINE
  5
A6FA9
330
1E
100
AcDbEntity
  8
NOTE
370
    -2
100
AcDbLine
 10
274.0383124360731
 20
-226.9435928225561
 30
0.0
 11
259.5627761163755
 21
-188.1449629790712
 31
0.0
  0
LINE
  5
A6FAA
330
1E
100
AcDbEntity
  8
NOTE
370
    -2
100
AcDbLine
 10
259.5627761163755
 20
-188.1449629790712
 30
0.0
 11
291.4982731047846
 21
-214.507794040586
 31
0.0
  0
MTEXT
  5
A6FAB
330
1E
100
AcDbEntity
  8
NOTE
100
AcDbMText
 10
468.3878000907557
 20
-332.917408303762
 30
0.0
 40
45.0
 41
734.8993637520306
 46
0.0
 71
     1
 72
     5
  1
2-OVAL HOLES
 73
     1
 44
0.8
1001
ACAD
1000
ACAD_MTEXT_COLUMN_INFO_BEGIN
1070
    75
1070
     2
1070
    79
1070
     0
1070
    76
1070
     1
1070
    78
1070
     0
1070
    48
1040
734.8993637520306
1070
    49
1040
225.0
1070
    50
1070
     1
1040
141.6301415045528
1000
ACAD_MTEXT_COLUMN_INFO_END
  0
DIMENSION
  5
A7147
330
1E
100
AcDbEntity
  8
SIZE
100
AcDbDimension
280
     0
  2
*D11
 10
1138.742422967746
 20
192.199804687
 30
0.0
 11
1138.742422967745
 21
-2.950195313000428
 31
0.0
 70
   160
  1
<>
 71
     5
 42
390.3000000000001
 73
     0
 74
     0
 75
     0
  3
STANDARD
100
AcDbAlignedDimension
 13
254.9999999999725
 23
-198.1001953130003
 33
0.0
 14
267.4999999999725
 24
192.1998046869998
 34
0.0
 50
90.0
100
AcDbRotatedDimension
1001
ACAD
1000
DSTYLE
1002
{
1070
    41
1040
10.0
1070
    42
1040
10.0
1070
    43
1040
200.0
1070
    44
1040
10.0
1070
    73
1070
     0
1070
    74
1070
     0
1070
    77
1070
     1
1070
    78
1070
     8
1070
   140
1040
45.0
1070
   141
1040
0.082
1070
   147
1040
10.0
1070
   172
1070
     1
1070
   176
1070
   256
1070
   177
1070
   256
1070
   178
1070
   256
1070
   271
1070
     0
1070
   272
1070
     3
1070
   341
1005
46
1070
   342
1005
46
1070
   345
1005
14
1070
   346
1005
14
1070
   347
1005
14
1070
   371
1070
    -1
1070
   372
1070
    -1
1002
}
  0
DIMENSION
  5
A719D
330
1E
100
AcDbEntity
  8
SIZE
100
AcDbDimension
280
     0
  2
*D12
 10
501.0000000000268
 20
414.0232896252016
 30
0.0
 11
460.5000000000268
 21
446.5232896252016
 31
0.0
 70
    32
  1
<>
 71
     5
 42
80.99999999999958
 73
     0
 74
     0
 75
     0
  3
STANDARD
100
AcDbAlignedDimension
 13
420.0000000000271
 23
152.9000000000001
 33
0.0
 14
501.0000000000268
 24
15.41281533599028
 34
0.0
100
AcDbRotatedDimension
1001
ACAD
1000
DSTYLE
1002
{
1070
    41
1040
10.0
1070
    42
1040
10.0
1070
    43
1040
200.0
1070
    44
1040
10.0
1070
    73
1070
     0
1070
    74
1070
     0
1070
    77
1070
     1
1070
    78
1070
     8
1070
   140
1040
45.0
1070
   141
1040
0.082
1070
   147
1040
10.0
1070
   172
1070
     1
1070
   176
1070
   256
1070
   177
1070
   256
1070
   178
1070
   256
1070
   271
1070
     3
1070
   272
1070
     3
1070
   341
1005
46
1070
   342
1005
46
1070
   345
1005
14
1070
   346
1005
14
1070
   347
1005
14
1070
   371
1070
    -1
1070
   372
1070
    -1
1002
}
  0
DIMENSION
  5
A7294
330
1E
100
AcDbEntity
  8
SIZE
100
AcDbDimension
280
     0
  2
*D13
 10
1021.520375114365
 20
-198.1001953130001
 30
0.0
 11
989.0203751143653
 21
-285.9573381701432
 31
0.0
 70
    32
  1
<>
 71
     5
 42
17.50000000000003
 73
     0
 74
     0
 75
     0
  3
STANDARD
100
AcDbAlignedDimension
 13
259.9999999999725
 23
-180.6001953130001
 33
0.0
 14
254.9999999999725
 24
-198.1001953130001
 34
0.0
 50
90.0
100
AcDbRotatedDimension
1001
ACAD
1000
DSTYLE
1002
{
1070
    41
1040
10.0
1070
    42
1040
10.0
1070
    43
1040
200.0
1070
    44
1040
10.0
1070
    73
1070
     0
1070
    74
1070
     0
1070
    77
1070
     1
1070
    78
1070
     8
1070
   140
1040
45.0
1070
   141
1040
0.082
1070
   147
1040
10.0
1070
   172
1070
     1
1070
   176
1070
   256
1070
   177
1070
   256
1070
   178
1070
   256
1070
   271
1070
     3
1070
   272
1070
     3
1070
   341
1005
46
1070
   342
1005
46
1070
   345
1005
14
1070
   346
1005
14
1070
   347
1005
14
1070
   371
1070
    -1
1070
   372
1070
    -1
1002
}
  0
MTEXT
  5
A7548
330
1E
100
AcDbEntity
  8
SIZE
100
AcDbMText
 10
814.6461289192737
 20
-159.240470997563
 30
0.0
 40
45.0
 41
0.0
 46
0.0
 71
     1
 72
     5
  1
{\W0.6;BOLT PITCH FOR \PINSTALLATION}
 11
0.0000000000000001
 21
1.0
 31
0.0
 73
     1
 44
0.9333333333333332
  0
LINE
  5
A76E5
330
1E
100
AcDbEntity
  8
OUTLINE
100
AcDbLine
 10
-407.0000000001271
 20
165.0
 30
0.0
 11
-133.0918641813767
 21
165.0
 31
0.0
  0
LINE
  5
A76E6
330
1E
100
AcDbEntity
  8
OUTLINE
100
AcDbLine
 10
297.3418641813218
 20
165.0
 30
0.0
 11
313.4828107315927
 21
165.0
 31
0.0
  0
LINE
  5
A76E7
330
1E
100
AcDbEntity
  8
OUTLINE
100
AcDbLine
 10
-86.80813581867836
 20
165.0
 30
0.0
 11
236.0581358186233
 21
165.0
 31
0.0
  0
ENDSEC
  0
SECTION
  2
OBJECTS
  0
DICTIONARY
  5
C
330
0
100
AcDbDictionary
281
     1
  3
ACAD_BACKGROUND
350
A6A65
  3
ACAD_CIP_PREVIOUS_PRODUCT_INFO
350
86ECE
  3
ACAD_COLOR
350
86EB2
  3
ACAD_DETAILVIEWSTYLE
350
86ECB
  3
ACAD_FIELDLIST
350
A7419
  3
ACAD_GROUP
350
D
  3
ACAD_LAYOUT
350
19
  3
ACAD_MATERIAL
350
86E80
  3
ACAD_MLEADERSTYLE
350
86EC7
  3
ACAD_MLINESTYLE
350
16
  3
ACAD_PLOTSETTINGS
350
18
  3
ACAD_PLOTSTYLENAME
350
E
  3
ACAD_SCALELIST
350
86EB5
  3
ACAD_SECTIONVIEWSTYLE
350
86EC9
  3
ACAD_TABLESTYLE
350
86EB3
  3
ACAD_VISUALSTYLE
350
86E99
  3
ACDB_RECOMPOSE_DATA
350
A775D
  3
AcDbVariableDictionary
350
86ED5
  3
AcDsDecomposeData
350
A7763
  3
AcmDictionary
350
A73D5
  3
AMG
350
A73AA
  3
AMGSNAPSETTINGS
350
A742A
  0
DICTIONARY
  5
87810
330
2
100
AcDbDictionary
280
     1
281
     1
  3
ACAD_LAYERSTATES
360
87811
  0
DICTIONARY
  5
86EEC
330
10
100
AcDbDictionary
280
     1
281
     1
  3
ADSK_XREC_LAYER_RECONCILED
360
86EED
  0
DICTIONARY
  5
86EEE
330
22
100
AcDbDictionary
280
     1
281
     1
  3
ADSK_XREC_LAYER_RECONCILED
360
86EEF
  0
DICTIONARY
  5
86EF0
330
31
100
AcDbDictionary
280
     1
281
     1
  3
ADSK_XREC_LAYER_RECONCILED
360
86EF1
  0
DICTIONARY
  5
86EF2
330
32
100
AcDbDictionary
280
     1
281
     1
  3
ADSK_XREC_LAYER_RECONCILED
360
86EF3
  0
DICTIONARY
  5
86EF4
330
33
100
AcDbDictionary
280
     1
281
     1
  3
ADSK_XREC_LAYER_RECONCILED
360
86EF5
  0
DICTIONARY
  5
86EF6
330
34
100
AcDbDictionary
280
     1
281
     1
  3
ADSK_XREC_LAYER_RECONCILED
360
86EF7
  0
DICTIONARY
  5
86EF8
330
35
100
AcDbDictionary
280
     1
281
     1
  3
ADSK_XREC_LAYER_RECONCILED
360
86EF9
  0
DICTIONARY
  5
86EFA
330
37
100
AcDbDictionary
280
     1
281
     1
  3
ADSK_XREC_LAYER_RECONCILED
360
86EFB
  0
DICTIONARY
  5
86EFE
330
6ACAC
100
AcDbDictionary
280
     1
281
     1
  3
ADSK_XREC_LAYER_RECONCILED
360
86EFF
  0
DICTIONARY
  5
66E76
330
1E
100
AcDbDictionary
280
     1
281
     1
  3
ACAD_LAYOUTSELFREF
360
851A0
  3
ACAD_SORTENTS
360
8A32F
  0
DICTIONARY
  5
66E74
330
1A
100
AcDbDictionary
280
     1
281
     1
  3
ACAD_LAYOUTSELFREF
360
8519F
  0
DICTIONARY
  5
A6A65
102
{ACAD_REACTORS
330
C
102
}
330
C
100
AcDbDictionary
281
     1
  0
XRECORD
  5
86ECE
102
{ACAD_REACTORS
330
C
102
}
330
C
100
AcDbXrecord
280
     1
300
ACDLT
300
2021
300

  0
DICTIONARY
  5
86EB2
102
{ACAD_REACTORS
330
C
102
}
330
C
100
AcDbDictionary
281
     1
  0
DICTIONARY
  5
86ECB
102
{ACAD_REACTORS
330
C
102
}
330
C
100
AcDbDictionary
281
     1
  3
Imperial24
350
86ECC
  3
Metric50
350
87813
  0
FIELDLIST
  5
A7419
102
{ACAD_REACTORS
330
C
102
}
330
C
100
AcDbIdSet
 90
        0
100
AcDbFieldList
  0
DICTIONARY
  5
D
102
{ACAD_REACTORS
330
C
102
}
330
C
100
AcDbDictionary
281
     1
  0
DICTIONARY
  5
19
102
{ACAD_REACTORS
330
C
102
}
330
C
100
AcDbDictionary
281
     1
  3
Model
350
851A5
  3
ﾚｲｱｳﾄ1
350
851A6
  0
DICTIONARY
  5
86E80
102
{ACAD_REACTORS
330
C
102
}
330
C
100
AcDbDictionary
281
     1
  3
ByBlock
350
86E89
  3
ByLayer
350
86E81
  3
Global
350
86E91
  0
DICTIONARY
  5
86EC7
102
{ACAD_REACTORS
330
C
102
}
330
C
100
AcDbDictionary
281
     1
  3
Standard
350
86EC8
  0
DICTIONARY
  5
16
102
{ACAD_REACTORS
330
C
102
}
330
C
100
AcDbDictionary
281
     1
  3
STANDARD
350
17
  0
DICTIONARY
  5
18
102
{ACAD_REACTORS
330
C
102
}
330
C
100
AcDbDictionary
281
     1
  0
ACDBDICTIONARYWDFLT
  5
E
102
{ACAD_REACTORS
330
C
102
}
330
C
100
AcDbDictionary
281
     1
  3
Normal
350
F
100
AcDbDictionaryWithDefault
340
F
  0
DICTIONARY
  5
86EB5
102
{ACAD_REACTORS
330
C
102
}
330
C
100
AcDbDictionary
281
     1
  3
A0
350
86EB6
  3
A1
350
86EB7
  3
A2
350
86EB8
  3
A3
350
86EB9
  3
A4
350
86EBA
  3
A5
350
86EBB
  3
A6
350
86EBC
  3
A7
350
86EBD
  3
A8
350
86EBE
  3
A9
350
86EBF
  3
B0
350
86EC0
  3
B1
350
86EC1
  3
B2
350
86EC2
  3
B3
350
86EC3
  3
B4
350
86EC4
  3
B5
350
86EC5
  3
B6
350
86EC6
  0
DICTIONARY
  5
86EC9
102
{ACAD_REACTORS
330
C
102
}
330
C
100
AcDbDictionary
281
     1
  3
Imperial24
350
86ECA
  3
Metric50
350
87812
  0
DICTIONARY
  5
86EB3
102
{ACAD_REACTORS
330
C
102
}
330
C
100
AcDbDictionary
281
     1
  3
Standard
350
86EB4
  0
DICTIONARY
  5
86E99
102
{ACAD_REACTORS
330
C
102
}
330
C
100
AcDbDictionary
281
     1
  3
2dWireframe
350
86E9F
  3
Basic
350
86E9E
  3
Brighten
350
86EA5
  3
ColorChange
350
86EA9
  3
Conceptual
350
86EA2
  3
Dim
350
86EA4
  3
EdgeColorOff
350
86EB1
  3
Facepattern
350
86EA8
  3
Flat
350
86E9A
  3
FlatWithEdges
350
86E9B
  3
Gouraud
350
86E9C
  3
GouraudWithEdges
350
86E9D
  3
Hidden
350
86EA1
  3
JitterOff
350
86EAF
  3
Linepattern
350
86EA7
  3
OverhangOff
350
86EB0
  3
Realistic
350
86EA3
  3
Shaded
350
86EAE
  3
Shaded with edges
350
86EAD
  3
Shades of Gray
350
86EAA
  3
Sketchy
350
86EAB
  3
Thicken
350
86EA6
  3
Wireframe
350
86EA0
  3
X-Ray
350
86EAC
  0
XRECORD
  5
A775D
102
{ACAD_REACTORS
330
C
102
}
330
C
100
AcDbXrecord
280
     1
 90
        1
330
86EB4
330
A6FA7
330
A6FAB
  0
DICTIONARY
  5
86ED5
102
{ACAD_REACTORS
330
C
102
}
330
C
100
AcDbDictionary
281
     1
  3
CANNOSCALE
350
86EDB
  3
CMLEADERSTYLE
350
86ED7
  3
CTABLESTYLE
350
86ED6
  3
CVIEWDETAILSTYLE
350
86ED8
  3
CVIEWSECTIONSTYLE
350
86ED9
  3
LAYEREVAL
350
86EDD
  3
LAYERNOTIFY
350
86EDE
  3
LIGHTINGUNITS
350
86EDC
  3
LOFTANG1
350
A76FB
  3
LOFTANG2
350
A76FC
  3
LONGITUDE
350
A76FD
  3
MSLTSCALE
350
86EDA
  3
XCLIPFRAME
350
A76FE
  0
DICTIONARY
  5
A7763
102
{ACAD_REACTORS
330
C
102
}
330
C
100
AcDbDictionary
281
     1
  3
AcDsRecords
350
A7765
  3
AcDsSchemas
350
A7764
1001
ACAD
1070
     2
  0
DICTIONARY
  5
A73D5
102
{ACAD_REACTORS
330
C
102
}
330
C
100
AcDbDictionary
281
     1
  3
AcmStdDictionary
350
A73DC
  0
DICTIONARY
  5
A73AA
102
{ACAD_REACTORS
330
C
102
}
330
C
100
AcDbDictionary
281
     1
  0
DICTIONARY
  5
A742A
102
{ACAD_REACTORS
330
C
102
}
330
C
100
AcDbDictionary
281
     1
  0
DICTIONARY
  5
87811
102
{ACAD_REACTORS
330
87810
102
}
330
87810
100
AcDbDictionary
281
     1
  0
XRECORD
  5
86EED
102
{ACAD_REACTORS
330
86EEC
102
}
330
86EEC
100
AcDbXrecord
280
     1
290
     1
  0
XRECORD
  5
86EEF
102
{ACAD_REACTORS
330
86EEE
102
}
330
86EEE
100
AcDbXrecord
280
     1
290
     1
  0
XRECORD
  5
86EF1
102
{ACAD_REACTORS
330
86EF0
102
}
330
86EF0
100
AcDbXrecord
280
     1
290
     1
  0
XRECORD
  5
86EF3
102
{ACAD_REACTORS
330
86EF2
102
}
330
86EF2
100
AcDbXrecord
280
     1
290
     1
  0
XRECORD
  5
86EF5
102
{ACAD_REACTORS
330
86EF4
102
}
330
86EF4
100
AcDbXrecord
280
     1
290
     1
  0
XRECORD
  5
86EF7
102
{ACAD_REACTORS
330
86EF6
102
}
330
86EF6
100
AcDbXrecord
280
     1
290
     1
  0
XRECORD
  5
86EF9
102
{ACAD_REACTORS
330
86EF8
102
}
330
86EF8
100
AcDbXrecord
280
     1
290
     1
  0
XRECORD
  5
86EFB
102
{ACAD_REACTORS
330
86EFA
102
}
330
86EFA
100
AcDbXrecord
280
     1
290
     1
  0
XRECORD
  5
86EFF
102
{ACAD_REACTORS
330
86EFE
102
}
330
86EFE
100
AcDbXrecord
280
     1
290
     1
  0
XRECORD
  5
851A0
102
{ACAD_REACTORS
330
66E76
102
}
330
66E76
100
AcDbXrecord
280
     1
340
1E
  0
SORTENTSTABLE
  5
8A32F
102
{ACAD_REACTORS
330
66E76
102
}
330
66E76
100
AcDbSortentsTable
330
1E
331
97F1B
  5
97F1C
331
A07A4
  5
A07A5
331
A07A5
  5
A07C0
331
A07C0
  5
A07C1
331
A07DD
  5
A07DF
331
A07DF
  5
A07E0
331
A07E0
  5
A0855
331
A090F
  5
A0910
331
A0910
  5
A0914
331
A0911
  5
A0915
331
A0912
  5
A0916
331
A0913
  5
A0917
331
A0914
  5
A0918
331
A0915
  5
A0919
331
A0916
  5
A091A
331
A0917
  5
A091B
331
A0918
  5
A091C
331
A0919
  5
A091D
331
A091A
  5
A091E
331
A091B
  5
A091F
331
A091C
  5
A0920
331
A091D
  5
A0921
331
A091E
  5
A0922
331
A091F
  5
A0923
331
A0920
  5
A0958
331
A0921
  5
A0983
331
A0922
  5
A09CD
331
A22C1
  5
A22E9
331
A35B2
  5
A35C3
331
A35B3
  5
A35E4
331
A35B4
  5
A35F2
331
A35B5
  5
A3664
331
A35B6
  5
A3665
331
A35B7
  5
A3666
331
A35B8
  5
A3667
331
A35B9
  5
A3AEB
331
A3D66
  5
A3D98
331
A3D67
  5
A3D9A
331
A3D68
  5
A3D9B
331
A3D6C
  5
A3D9C
331
A3D6E
  5
A3D9D
331
A3D6F
  5
A3D9E
331
A3D70
  5
A3D9F
331
A3D71
  5
A3DA0
331
A3D72
  5
A3DA1
331
A3D73
  5
A3DA2
331
A3D74
  5
A3DA3
331
A3D75
  5
A3DA4
331
A3D76
  5
A3DA5
331
A3D77
  5
A3DA6
331
A3D78
  5
A3DA7
331
A3D79
  5
A3DA9
331
A3D7B
  5
A3DAC
331
A3D7E
  5
A3DAD
331
A3D7F
  5
A3DAE
331
A3D80
  5
A3DAF
331
A3D81
  5
A3DB0
331
A3D83
  5
A3DB1
331
A3D84
  5
A3DB7
331
A3D86
  5
A3DB8
331
A3D87
  5
A3DB9
331
A3D88
  5
A3DBA
331
A3D89
  5
A3DBB
331
A3D8A
  5
A3DBC
331
A3D8B
  5
A3DBD
331
A3D8C
  5
A3DBE
331
A3D8D
  5
A3DBF
331
A3D92
  5
A3DC0
331
A3D93
  5
A3DC1
331
A3D94
  5
A3DC2
331
A3D96
  5
A3DC6
331
A3D97
  5
A3DC7
331
A3D9A
  5
A3DC8
331
A3D9B
  5
A3DC9
331
A3D9C
  5
A3DCA
331
A3D9D
  5
A3DCB
331
A3D9E
  5
A3DD0
331
A3D9F
  5
A3DD1
331
A3DA0
  5
A3DD2
331
A3DA1
  5
A3DD4
331
A3DA2
  5
A3DD5
331
A3DA4
  5
A3DD6
331
A3DA5
  5
A3DD7
331
A3DA6
  5
A3DD9
331
A3DAC
  5
A3DDD
331
A3DAD
  5
A3DE0
331
A3DB1
  5
A3DEC
331
A3DB3
  5
A3DED
331
A3DB6
  5
A3DF0
331
A3DB8
  5
A3DF1
331
A3DBA
  5
A3DF4
331
A3DBC
  5
A3DF8
331
A3DBD
  5
A3DF9
331
A3DBE
  5
A3DFA
331
A3DC3
  5
A3DFB
331
A3DC4
  5
A3DFC
331
A3DC5
  5
A3DFD
331
A3DC6
  5
A3DFE
331
A3DC7
  5
A3DFF
331
A3DC8
  5
A3E08
331
A3DCB
  5
A3E21
331
A3DCF
  5
A3E22
331
A3DD3
  5
A3E23
331
A3DD4
  5
A3E24
331
A3DD6
  5
A3E25
331
A3DD7
  5
A3E26
331
A3DDC
  5
A3E28
331
A3DDD
  5
A3E2B
331
A3DE4
  5
A3E2F
331
A3DFD
  5
A3E30
331
A3DFE
  5
A3E32
331
A3DFF
  5
A3E35
331
A3E01
  5
A3E37
331
A3E03
  5
A3E40
331
A3E04
  5
A3E42
331
A3E06
  5
A3E46
331
A3E07
  5
A3E47
331
A3E08
  5
A3E48
331
A3E09
  5
A3E4C
331
A3E0E
  5
A3E4D
331
A3E12
  5
A3E51
331
A3E14
  5
A3E52
331
A3E15
  5
A3E53
331
A3E1C
  5
A3E58
331
A3E1D
  5
A3E5B
331
A3E21
  5
A3E5C
331
A3E22
  5
A3E5D
331
A3E23
  5
A3E5E
331
A3E24
  5
A3E5F
331
A3E2C
  5
A3E60
331
A3E2F
  5
A3E61
331
A3E30
  5
A3E62
331
A3E31
  5
A3E63
331
A3E32
  5
A3E64
331
A3E33
  5
A3E65
331
A3E34
  5
A3E66
331
A3E35
  5
A3E6C
331
A3E36
  5
A3E6D
331
A3E37
  5
A3E6E
331
A3E38
  5
A3E6F
331
A3E39
  5
A3E70
331
A3E3A
  5
A3E74
331
A3E3C
  5
A3E75
331
A3E3D
  5
A3E76
331
A3E3E
  5
A3E77
331
A3E3F
  5
A3E78
331
A3E40
  5
A3E84
331
A3E48
  5
A3E85
331
A3E49
  5
A3E86
331
A3E4A
  5
A3E87
331
A3E4B
  5
A3E88
331
A3E4C
  5
A3E89
331
A3E50
  5
A3E8A
331
A3E51
  5
A3E8B
331
A3E52
  5
A3E8C
331
A3E53
  5
A3E93
331
A3E54
  5
A3E94
331
A3E59
  5
A3E95
331
A3E5A
  5
A3E96
331
A3E5F
  5
A3E97
331
A3E60
  5
A3E98
331
A3E65
  5
A3E99
331
A3E66
  5
A3E9A
331
A3E67
  5
A3E9B
331
A3E69
  5
A3EAA
331
A3E6A
  5
A3EAB
331
A3E6B
  5
A3EAC
331
A3E6C
  5
A3EAE
331
A3E6F
  5
A3EAF
331
A3E79
  5
A3EBA
331
A3E7B
  5
A3ECB
331
A3E7C
  5
A3ECC
331
A3E7D
  5
A3ED1
331
A3E81
  5
A3ED3
331
A3E82
  5
A3ED6
331
A3E83
  5
A3ED7
331
A3E85
  5
A3ED8
331
A3E89
  5
A3ED9
331
A3E8A
  5
A3EDA
331
A3E8B
  5
A3EDB
331
A3EA1
  5
A3EDC
331
A3EAE
  5
A3EEA
331
A3EAF
  5
A3EEC
331
A3EB0
  5
A3EED
331
A3EB4
  5
A3EEE
331
A3EB5
  5
A3EEF
331
A3EB7
  5
A3EF0
331
A3EB8
  5
A3EF1
331
A3EB9
  5
A3EF3
331
A3EBA
  5
A3EF4
331
A3EBB
  5
A3EF5
331
A3EBC
  5
A3EF6
331
A3EBD
  5
A3EF7
331
A3EBE
  5
A3EF8
331
A3EBF
  5
A3EF9
331
A3EC0
  5
A3EFA
331
A3EC5
  5
A3EFB
331
A3EC7
  5
A3EFC
331
A3EC8
  5
A3EFD
331
A3EC9
  5
A3EFE
331
A3ECA
  5
A3EFF
331
A3ECB
  5
A3F00
331
A3ECC
  5
A3F01
331
A3ECD
  5
A3F03
331
A3ECE
  5
A3F04
331
A3ECF
  5
A3F06
331
A3ED0
  5
A3F07
331
A3ED1
  5
A3F08
331
A3ED2
  5
A3F09
331
A3ED3
  5
A3F0A
331
A3ED4
  5
A3F0B
331
A3ED5
  5
A3F0C
331
A3ED7
  5
A3F0D
331
A3ED8
  5
A3F0E
331
A3ED9
  5
A3F0F
331
A3EDA
  5
A3F10
331
A3EDB
  5
A3F11
331
A3EDC
  5
A3F12
331
A3EDD
  5
A3F13
331
A3EDF
  5
A3F16
331
A3EE0
  5
A3F17
331
A3EE3
  5
A3F18
331
A3EE4
  5
A3F1B
331
A3EE5
  5
A3F1C
331
A3EE8
  5
A3F20
331
A3EE9
  5
A3F21
331
A3EEA
  5
A3F22
331
A3EEB
  5
A3F2D
331
A3EEC
  5
A3F3B
331
A3EED
  5
A3F3C
331
A3EF2
  5
A3F3D
331
A3EF3
  5
A3F3E
331
A3EF4
  5
A3F3F
331
A3EF5
  5
A3F40
331
A3EF6
  5
A3F41
331
A3EF7
  5
A3F42
331
A3EFB
  5
A3F44
331
A3EFF
  5
A3F45
331
A3F00
  5
A3F46
331
A3F04
  5
A3F48
331
A3F05
  5
A3F4B
331
A3F09
  5
A3F4E
331
A3F0C
  5
A3F4F
331
A3F15
  5
A3F50
331
A3F16
  5
A3F52
331
A3F17
  5
A3F53
331
A3F19
  5
A3F54
331
A3F1A
  5
A3F55
331
A3F1B
  5
A3F56
331
A3F1C
  5
A3F57
331
A3F1D
  5
A3F58
331
A3F20
  5
A3F59
331
A3F21
  5
A3F5A
331
A3F22
  5
A3F5B
331
A3F23
  5
A3F5C
331
A3F24
  5
A3F5D
331
A3F27
  5
A3F5E
331
A3F2A
  5
A3F67
331
A3F2B
  5
A3F68
331
A3F39
  5
A3F6F
331
A3F3A
  5
A3F70
331
A3F3B
  5
A3FF2
331
A3F3C
  5
A3FF3
331
A3F3D
  5
A3FF4
331
A3F3E
  5
A3FF5
331
A3F3F
  5
A3FF6
331
A3F40
  5
A3FFB
331
A3F41
  5
A3FFC
331
A3F44
  5
A3FFF
331
A3F45
  5
A4005
331
A3F46
  5
A4006
331
A3F47
  5
A416B
331
A3F48
  5
A416C
331
A3F49
  5
A5F6F
331
A3F4A
  5
A5F70
331
A3F4B
  5
A5F71
331
A3F4C
  5
A5F72
331
A3FD7
  5
A5F85
331
A5C82
  5
A5F86
331
A5CB3
  5
A5F8B
331
A5CDA
  5
A5F90
331
A5CDC
  5
A5F96
331
A5CE9
  5
A5FBD
331
A5F6F
  5
A5FC1
331
A5F70
  5
A5FC2
331
A5F71
  5
A5FC9
331
A5F72
  5
A5FD6
331
A5F85
  5
A5FDB
331
A5F86
  5
A5FDC
331
A5F8B
  5
A5FDD
331
A5F90
  5
A5FDE
331
A5F96
  5
A5FDF
331
A5FBD
  5
A5FE0
331
A5FC1
  5
A5FE1
331
A5FC2
  5
A5FF5
331
A5FC9
  5
A5FFE
331
A5FD6
  5
A6008
331
A5FDB
  5
A604F
331
A5FDC
  5
A6050
331
A5FE1
  5
A605B
331
A5FFE
  5
A606E
331
A6008
  5
A6075
331
A6022
  5
A6076
331
A6040
  5
A6077
331
A6042
  5
A6084
331
A6044
  5
A6085
331
A604F
  5
A608E
331
A6050
  5
A6090
331
A6055
  5
A609B
331
A605A
  5
A609C
331
A605B
  5
A609D
331
A606E
  5
A60AE
331
A6075
  5
A60B0
331
A6076
  5
A60B7
331
A6077
  5
A60B8
331
A6084
  5
A60B9
331
A6085
  5
A60BA
331
A608E
  5
A60BB
331
A6090
  5
A60BC
331
A609B
  5
A60BD
331
A609C
  5
A60BF
331
A609D
  5
A6196
331
A60AE
  5
A6199
331
A60B0
  5
A619A
331
A60BF
  5
A619B
331
A60C0
  5
A619C
331
A60C1
  5
A619D
331
A60C2
  5
A619E
331
A60CD
  5
A619F
331
A6192
  5
A61A0
331
A6193
  5
A61A1
331
A6196
  5
A61A3
331
A619A
  5
A61A5
331
A619B
  5
A61A6
331
A619C
  5
A61A7
331
A619D
  5
A61B4
331
A619E
  5
A61E9
331
A619F
  5
A61F7
331
A61A0
  5
A61F8
331
A61A2
  5
A623C
331
A61A3
  5
A6265
331
A61A4
  5
A62BF
331
A61A5
  5
A62C0
331
A61A6
  5
A62C1
331
A61A7
  5
A62C2
331
A6324
  5
A671A
331
A6325
  5
A671B
331
A6326
  5
A671C
331
A6327
  5
A671D
331
A6328
  5
A671E
331
A6329
  5
A671F
331
A632A
  5
A6720
331
A632B
  5
A6721
331
A6346
  5
A6722
331
A6347
  5
A6724
331
A6348
  5
A672D
331
A6349
  5
A672E
331
A671B
  5
A3EEB
331
A671C
  5
A3EC5
331
A671D
  5
A3FFE
331
A671E
  5
A3DDE
331
A671F
  5
A3DB6
331
A6720
  5
A3E36
331
A6721
  5
A3DE2
331
A6722
  5
A674E
331
A6724
  5
A605A
331
A672D
  5
A674F
331
A672E
  5
A6750
331
A674B
  5
A6751
331
A674C
  5
A6755
331
A674D
  5
A6756
331
A674E
  5
A6757
331
A6750
  5
A6758
331
A6751
  5
A6759
331
A6752
  5
A675A
331
A6753
  5
A675B
331
A6754
  5
A675C
331
A6755
  5
A675D
331
A6756
  5
A675E
331
A6757
  5
A675F
331
A6758
  5
A6760
331
A6759
  5
A67C0
331
A675A
  5
A67C1
331
A675B
  5
A67CC
331
A675C
  5
A67D0
331
A675D
  5
A3D99
331
A675E
  5
A3E2D
331
A675F
  5
A6754
331
A6760
  5
A6752
331
A67C0
  5
A67D1
331
A67C1
  5
A67D3
331
A67CC
  5
A67D6
331
A67D0
  5
A67E1
331
A67D1
  5
A67E4
331
A67D3
  5
A67E9
331
A67E0
  5
A67F3
331
A67E3
  5
A67F4
331
A67E7
  5
A67F6
331
A67EB
  5
A6808
331
A67ED
  5
A6813
331
A67F2
  5
A6814
331
A67F3
  5
A6815
331
A6800
  5
A6816
331
A680F
  5
A67ED
331
A6814
  5
A61FB
331
A68CD
  5
A68D1
331
A68D1
  5
A68D3
331
A68D2
  5
A68D7
331
A68D3
  5
A68DE
331
A68D4
  5
A68E0
331
A68D7
  5
A68E4
331
A68DB
  5
A68E5
331
A68DE
  5
A68E6
331
A68DF
  5
A68E7
331
A68E0
  5
A68E9
331
A68E7
  5
A68F0
331
A68E8
  5
A68F1
331
A68E9
  5
A68F2
331
A68EA
  5
A68F4
331
A68EB
  5
A68F9
331
A68EC
  5
A68FA
331
A68EE
  5
A68FE
331
A68F0
  5
A68FF
331
A68F1
  5
A6900
331
A68F4
  5
A6906
331
A68F9
  5
A6907
331
A68FA
  5
A691E
331
A68FE
  5
A691F
331
A68FF
  5
A6920
331
A6900
  5
A6921
331
A6902
  5
A6922
331
A6906
  5
A6923
331
A6907
  5
A6924
331
A691E
  5
A6925
331
A691F
  5
A6926
331
A6920
  5
A6927
331
A6921
  5
A6928
331
A6922
  5
A6929
331
A6923
  5
A692A
331
A6924
  5
A692B
331
A6925
  5
A692C
331
A6926
  5
A692D
331
A6927
  5
A692E
331
A6928
  5
A6974
331
A6929
  5
A6975
331
A692A
  5
A6976
331
A692B
  5
A6977
331
A692C
  5
A6978
331
A692D
  5
A6979
331
A692E
  5
A697A
331
A6974
  5
A697B
331
A6975
  5
A697C
331
A6976
  5
A697D
331
A76E6
  5
A76E7
331
A76E7
  5
A76E6
  0
XRECORD
  5
8519F
102
{ACAD_REACTORS
330
66E74
102
}
330
66E74
100
AcDbXrecord
280
     1
340
1A
  0
ACDBDETAILVIEWSTYLE
  5
86ECC
102
{ACAD_XDICTIONARY
360
A7768
102
}
102
{ACAD_REACTORS
330
86ECB
102
}
330
86ECB
100
AcDbModelDocViewStyle
 70
     0
  3
Imperial24
290
     0
100
AcDbDetailViewStyle
 70
     0
 71
     0
 90
        3
 71
     1
340
11
 62
   256
 40
0.24
340
0
 62
   256
 40
0.24
300

 40
0.36
280
     3
 71
     2
340
15
 90
       25
 62
   256
 71
     3
340
11
 62
   256
 40
0.24
 90
        1
 40
0.75
 90
        1
300
%<\AcVar ViewType \f "%tc1">% %<\AcVar ViewDetailId>%\PSCALE %<\AcVar ViewScale \f "%sn">%
 71
     4
340
15
 90
       25
 62
   256
340
15
 90
       25
 62
   256
280
     0
  0
ACDBDETAILVIEWSTYLE
  5
87813
102
{ACAD_XDICTIONARY
360
A776C
102
}
102
{ACAD_REACTORS
330
86ECB
102
}
330
86ECB
100
AcDbModelDocViewStyle
 70
     0
  3
Metric50
290
     0
100
AcDbDetailViewStyle
 70
     0
 71
     0
 90
        3
 71
     1
340
11
 62
   256
 40
5.0
340
0
 62
   256
 40
5.0
300

 40
0.0
280
     1
 71
     2
340
15
 90
       25
 62
   256
 71
     3
340
11
 62
   256
 40
5.0
 90
        0
 40
15.0
 90
        1
300
%<\AcVar ViewDetailId>% (%<\AcVar ViewScale \f "%sn">%)
 71
     4
340
15
 90
       25
 62
   256
340
15
 90
       25
 62
   256
280
     0
  0
LAYOUT
  5
851A5
102
{ACAD_REACTORS
330
19
102
}
330
19
100
AcDbPlotSettings
  1

  2
\\PC07\EPSON LP-8900
  4
A4
  6
ALL
 40
5.873749732971191
 41
5.873747825622557
 42
5.873748779296875
 43
5.873748779296875
 44
209.9733276367186
 45
297.0106506347656
 46
0.0
 47
0.0
 48
0.0
 49
0.0
140
0.0
141
0.0
142
1.0
143
230.4667882076691
 70
 11952
 72
     0
 73
     1
 74
     0
  7
monochrome.ctb
 75
     0
147
0.0043390199853825
 76
     0
 77
     2
 78
   300
148
32587.6637119656
149
15204.77188839906
100
AcDbLayout
  1
Model
 70
     1
 71
     0
 10
0.0
 20
0.0
 11
12.0
 21
9.0
 12
0.0
 22
0.0
 32
0.0
 14
0.0
 24
0.0
 34
0.0
 15
0.0
 25
0.0
 35
0.0
146
0.0
 13
0.0
 23
0.0
 33
0.0
 16
1.0
 26
0.0
 36
0.0
 17
0.0
 27
1.0
 37
0.0
 76
     0
330
1E
331
86E7B
  0
LAYOUT
  5
851A6
102
{ACAD_REACTORS
330
19
102
}
330
19
100
AcDbPlotSettings
  1

  2
\\PC07\EPSON LP-8900
  4

  6

 40
0.0
 41
0.0
 42
0.0
 43
0.0
 44
0.0
 45
0.0
 46
0.0
 47
0.0
 48
0.0
 49
0.0
140
0.0
141
0.0
142
1.0
143
1.0
 70
   688
 72
     0
 73
     0
 74
     5
  7
monochrome.ctb
 75
    16
147
1.0
 76
     0
 77
     2
 78
   300
148
0.0
149
0.0
100
AcDbLayout
  1
ﾚｲｱｳﾄ1
 70
     1
 71
     1
 10
0.0
 20
0.0
 11
12.0
 21
9.0
 12
0.0
 22
0.0
 32
0.0
 14
1.000000000000000E+20
 24
1.000000000000000E+20
 34
1.000000000000000E+20
 15
-1.000000000000000E+20
 25
-1.000000000000000E+20
 35
-1.000000000000000E+20
146
0.0
 13
0.0
 23
0.0
 33
0.0
 16
1.0
 26
0.0
 36
0.0
 17
0.0
 27
1.0
 37
0.0
 76
     0
330
1A
  0
MATERIAL
  5
86E89
102
{ACAD_XDICTIONARY
360
86E8A
102
}
102
{ACAD_REACTORS
330
86E80
102
}
330
86E80
100
AcDbMaterial
  1
ByBlock
 72
     0
 43
0.0208333333333333
 43
0.0
 43
0.0
 43
0.0
 43
0.0
 43
0.0208333333333333
 43
0.0
 43
0.0
 43
0.0
 43
0.0
 43
1.0
 43
0.0
 43
0.0
 43
0.0
 43
0.0
 43
1.0
 77
     0
 47
0.0208333333333333
 47
0.0
 47
0.0
 47
0.0
 47
0.0
 47
0.0208333333333333
 47
0.0
 47
0.0
 47
0.0
 47
0.0
 47
1.0
 47
0.0
 47
0.0
 47
0.0
 47
0.0
 47
1.0
171
     0
 49
0.0208333333333333
 49
0.0
 49
0.0
 49
0.0
 49
0.0
 49
0.0208333333333333
 49
0.0
 49
0.0
 49
0.0
 49
0.0
 49
1.0
 49
0.0
 49
0.0
 49
0.0
 49
0.0
 49
1.0
175
     0
142
0.0208333333333333
142
0.0
142
0.0
142
0.0
142
0.0
142
0.0208333333333333
142
0.0
142
0.0
142
0.0
142
0.0
142
1.0
142
0.0
142
0.0
142
0.0
142
0.0
142
1.0
179
     0
144
0.0208333333333333
144
0.0
144
0.0
144
0.0
144
0.0
144
0.0208333333333333
144
0.0
144
0.0
144
0.0
144
0.0
144
1.0
144
0.0
144
0.0
144
0.0
144
0.0
144
1.0
147
0.0208333333333333
147
0.0
147
0.0
147
0.0
147
0.0
147
0.0208333333333333
147
0.0
147
0.0
147
0.0
147
0.0
147
1.0
147
0.0
147
0.0
147
0.0
147
0.0
147
1.0
  0
MATERIAL
  5
86E81
102
{ACAD_XDICTIONARY
360
86E82
102
}
102
{ACAD_REACTORS
330
86E80
102
}
330
86E80
100
AcDbMaterial
  1
ByLayer
 72
     0
 43
0.0208333333333333
 43
0.0
 43
0.0
 43
0.0
 43
0.0
 43
0.0208333333333333
 43
0.0
 43
0.0
 43
0.0
 43
0.0
 43
1.0
 43
0.0
 43
0.0
 43
0.0
 43
0.0
 43
1.0
 77
     0
 47
0.0208333333333333
 47
0.0
 47
0.0
 47
0.0
 47
0.0
 47
0.0208333333333333
 47
0.0
 47
0.0
 47
0.0
 47
0.0
 47
1.0
 47
0.0
 47
0.0
 47
0.0
 47
0.0
 47
1.0
171
     0
 49
0.0208333333333333
 49
0.0
 49
0.0
 49
0.0
 49
0.0
 49
0.0208333333333333
 49
0.0
 49
0.0
 49
0.0
 49
0.0
 49
1.0
 49
0.0
 49
0.0
 49
0.0
 49
0.0
 49
1.0
175
     0
142
0.0208333333333333
142
0.0
142
0.0
142
0.0
142
0.0
142
0.0208333333333333
142
0.0
142
0.0
142
0.0
142
0.0
142
1.0
142
0.0
142
0.0
142
0.0
142
0.0
142
1.0
179
     0
144
0.0208333333333333
144
0.0
144
0.0
144
0.0
144
0.0
144
0.0208333333333333
144
0.0
144
0.0
144
0.0
144
0.0
144
1.0
144
0.0
144
0.0
144
0.0
144
0.0
144
1.0
147
0.0208333333333333
147
0.0
147
0.0
147
0.0
147
0.0
147
0.0208333333333333
147
0.0
147
0.0
147
0.0
147
0.0
147
1.0
147
0.0
147
0.0
147
0.0
147
0.0
147
1.0
  0
MATERIAL
  5
86E91
102
{ACAD_XDICTIONARY
360
86E92
102
}
102
{ACAD_REACTORS
330
86E80
102
}
330
86E80
100
AcDbMaterial
  1
Global
 72
     0
 43
0.0208333333333333
 43
0.0
 43
0.0
 43
0.0
 43
0.0
 43
0.0208333333333333
 43
0.0
 43
0.0
 43
0.0
 43
0.0
 43
1.0
 43
0.0
 43
0.0
 43
0.0
 43
0.0
 43
1.0
 77
     0
 47
0.0208333333333333
 47
0.0
 47
0.0
 47
0.0
 47
0.0
 47
0.0208333333333333
 47
0.0
 47
0.0
 47
0.0
 47
0.0
 47
1.0
 47
0.0
 47
0.0
 47
0.0
 47
0.0
 47
1.0
171
     0
 49
0.0208333333333333
 49
0.0
 49
0.0
 49
0.0
 49
0.0
 49
0.0208333333333333
 49
0.0
 49
0.0
 49
0.0
 49
0.0
 49
1.0
 49
0.0
 49
0.0
 49
0.0
 49
0.0
 49
1.0
175
     0
142
0.0208333333333333
142
0.0
142
0.0
142
0.0
142
0.0
142
0.0208333333333333
142
0.0
142
0.0
142
0.0
142
0.0
142
1.0
142
0.0
142
0.0
142
0.0
142
0.0
142
1.0
179
     0
144
0.0208333333333333
144
0.0
144
0.0
144
0.0
144
0.0
144
0.0208333333333333
144
0.0
144
0.0
144
0.0
144
0.0
144
1.0
144
0.0
144
0.0
144
0.0
144
0.0
144
1.0
147
0.0208333333333333
147
0.0
147
0.0
147
0.0
147
0.0
147
0.0208333333333333
147
0.0
147
0.0
147
0.0
147
0.0
147
1.0
147
0.0
147
0.0
147
0.0
147
0.0
147
1.0
  0
MLEADERSTYLE
  5
86EC8
102
{ACAD_REACTORS
330
86EC7
102
}
330
86EC7
100
AcDbMLeaderStyle
179
     2
170
     2
171
     1
172
     0
 90
        2
 40
0.0
 41
0.0
173
     1
 91
-1056964608
340
13
 92
       -2
290
     1
 42
0.09
291
     1
 43
0.36
  3
Standard
 44
0.18
300

342
11
174
     1
178
     6
175
     1
176
     0
 93
-1056964608
 45
0.18
292
     0
297
     0
 46
0.18
 94
-1056964608
 47
1.0
 49
1.0
140
1.0
293
     1
141
0.0
294
     1
177
     0
142
1.0
295
     0
296
     0
143
0.125
271
     0
272
     9
273
     9
298
     0
1001
ACAD_MLEADERVER
1070
     2
  0
MLINESTYLE
  5
17
102
{ACAD_REACTORS
330
16
102
}
330
16
100
AcDbMlineStyle
  2
STANDARD
 70
     0
  3

 62
   256
 51
90.0
 52
90.0
 71
     2
 49
0.5
 62
   256
  6
BYLAYER
 49
-0.5
 62
   256
  6
BYLAYER
  0
ACDBPLACEHOLDER
  5
F
102
{ACAD_REACTORS
330
E
102
}
330
E
  0
SCALE
  5
86EB6
102
{ACAD_REACTORS
330
86EB5
102
}
330
86EB5
100
AcDbScale
 70
     0
300
1:1
140
1.0
141
1.0
290
     1
  0
SCALE
  5
86EB7
102
{ACAD_REACTORS
330
86EB5
102
}
330
86EB5
100
AcDbScale
 70
     0
300
1/128" = 1'-0"
140
0.0078125
141
12.0
290
     0
  0
SCALE
  5
86EB8
102
{ACAD_REACTORS
330
86EB5
102
}
330
86EB5
100
AcDbScale
 70
     0
300
1/64" = 1'-0"
140
0.015625
141
12.0
290
     0
  0
SCALE
  5
86EB9
102
{ACAD_REACTORS
330
86EB5
102
}
330
86EB5
100
AcDbScale
 70
     0
300
1/32" = 1'-0"
140
0.03125
141
12.0
290
     0
  0
SCALE
  5
86EBA
102
{ACAD_REACTORS
330
86EB5
102
}
330
86EB5
100
AcDbScale
 70
     0
300
1/16" = 1'-0"
140
0.0625
141
12.0
290
     0
  0
SCALE
  5
86EBB
102
{ACAD_REACTORS
330
86EB5
102
}
330
86EB5
100
AcDbScale
 70
     0
300
3/32" = 1'-0"
140
0.09375
141
12.0
290
     0
  0
SCALE
  5
86EBC
102
{ACAD_REACTORS
330
86EB5
102
}
330
86EB5
100
AcDbScale
 70
     0
300
1/8" = 1'-0"
140
0.125
141
12.0
290
     0
  0
SCALE
  5
86EBD
102
{ACAD_REACTORS
330
86EB5
102
}
330
86EB5
100
AcDbScale
 70
     0
300
3/16" = 1'-0"
140
0.1875
141
12.0
290
     0
  0
SCALE
  5
86EBE
102
{ACAD_REACTORS
330
86EB5
102
}
330
86EB5
100
AcDbScale
 70
     0
300
1/4" = 1'-0"
140
0.25
141
12.0
290
     0
  0
SCALE
  5
86EBF
102
{ACAD_REACTORS
330
86EB5
102
}
330
86EB5
100
AcDbScale
 70
     0
300
3/8" = 1'-0"
140
0.375
141
12.0
290
     0
  0
SCALE
  5
86EC0
102
{ACAD_REACTORS
330
86EB5
102
}
330
86EB5
100
AcDbScale
 70
     0
300
1/2" = 1'-0"
140
0.5
141
12.0
290
     0
  0
SCALE
  5
86EC1
102
{ACAD_REACTORS
330
86EB5
102
}
330
86EB5
100
AcDbScale
 70
     0
300
3/4" = 1'-0"
140
0.75
141
12.0
290
     0
  0
SCALE
  5
86EC2
102
{ACAD_REACTORS
330
86EB5
102
}
330
86EB5
100
AcDbScale
 70
     0
300
1" = 1'-0"
140
1.0
141
12.0
290
     0
  0
SCALE
  5
86EC3
102
{ACAD_REACTORS
330
86EB5
102
}
330
86EB5
100
AcDbScale
 70
     0
300
1-1/2" = 1'-0"
140
1.5
141
12.0
290
     0
  0
SCALE
  5
86EC4
102
{ACAD_REACTORS
330
86EB5
102
}
330
86EB5
100
AcDbScale
 70
     0
300
3" = 1'-0"
140
3.0
141
12.0
290
     0
  0
SCALE
  5
86EC5
102
{ACAD_REACTORS
330
86EB5
102
}
330
86EB5
100
AcDbScale
 70
     0
300
6" = 1'-0"
140
6.0
141
12.0
290
     0
  0
SCALE
  5
86EC6
102
{ACAD_REACTORS
330
86EB5
102
}
330
86EB5
100
AcDbScale
 70
     0
300
1'-0" = 1'-0"
140
12.0
141
12.0
290
     0
  0
ACDBSECTIONVIEWSTYLE
  5
86ECA
102
{ACAD_XDICTIONARY
360
A7766
102
}
102
{ACAD_REACTORS
330
86EC9
102
}
330
86EC9
100
AcDbModelDocViewStyle
 70
     0
  3
Imperial24
290
     0
100
AcDbSectionViewStyle
 70
     0
 71
     0
 90
       78
 71
     1
340
11
 62
   256
 40
0.24
340
0
340
0
 62
   256
 40
0.24
300
I, O, Q, S, X, Z
 40
0.48
 90
        3
 40
0.18
 90
        1
 71
     2
340
15
 90
       25
 62
   256
340
15
 90
       50
 62
   256
 40
0.24
 40
0.0
 40
0.24
 71
     3
340
11
 62
   256
 40
0.24
 90
        1
 40
0.75
 90
        1
300
%<\AcVar ViewType \f "%tc1">% %<\AcVar ViewSectionStartId>%-%<\AcVar ViewSectionEndId>%\PSCALE %<\AcVar ViewScale \f "%sn">%
 71
     4
 62
   256
 62
   257
300
ANSI31
 40
1.0
 90
        0
290
     0
290
     0
 90
        6
 40
0.0
 40
1.570796326794896
 40
0.2617993877991494
 40
1.308996938995747
 40
-0.2617993877991494
 40
1.832595714594044
  0
ACDBSECTIONVIEWSTYLE
  5
87812
102
{ACAD_XDICTIONARY
360
A776A
102
}
102
{ACAD_REACTORS
330
86EC9
102
}
330
86EC9
100
AcDbModelDocViewStyle
 70
     0
  3
Metric50
290
     0
100
AcDbSectionViewStyle
 70
     0
 71
     0
 90
      102
 71
     1
340
11
 62
   256
 40
5.0
340
0
340
0
 62
   256
 40
5.0
300
I, O, Q, S, X, Z
 40
10.0
 90
        0
 40
2.5
 90
        0
 71
     2
340
15
 90
       25
 62
   256
340
15
 90
       50
 62
   256
 40
5.0
 40
2.5
 40
5.0
 71
     3
340
11
 62
   256
 40
5.0
 90
        0
 40
15.0
 90
        1
300
%<\AcVar ViewSectionStartId>%-%<\AcVar ViewSectionEndId>% (%<\AcVar ViewScale \f "%sn">%)
 71
     4
 62
   256
 62
   257
300
ANSI31
 40
1.0
 90
        0
290
     0
290
     0
 90
        6
 40
0.0
 40
1.570796326794896
 40
0.2617993877991494
 40
1.308996938995747
 40
-0.2617993877991494
 40
1.832595714594044
  0
TABLESTYLE
  5
86EB4
102
{ACAD_XDICTIONARY
360
86F00
102
}
102
{ACAD_REACTORS
330
86EB3
102
}
330
86EB3
100
AcDbTableStyle
280
     0
  3
Standard
 70
     0
 71
     0
 40
0.06
 41
0.06
280
     0
281
     0
  7
STANDARD
140
0.18
170
     2
 62
     0
 63
     7
283
     0
 90
      512
 91
        0
  1

274
    -2
284
     1
 64
     0
275
    -2
285
     1
 65
     0
276
    -2
286
     1
 66
     0
277
    -2
287
     1
 67
     0
278
    -2
288
     1
 68
     0
279
    -2
289
     1
 69
     0
  7
STANDARD
140
0.25
170
     5
 62
     0
 63
     7
283
     0
 90
      512
 91
        0
  1

274
    -2
284
     1
 64
     0
275
    -2
285
     1
 65
     0
276
    -2
286
     1
 66
     0
277
    -2
287
     1
 67
     0
278
    -2
288
     1
 68
     0
279
    -2
289
     1
 69
     0
  7
STANDARD
140
0.18
170
     5
 62
     0
 63
     7
283
     0
 90
      512
 91
        0
  1

274
    -2
284
     1
 64
     0
275
    -2
285
     1
 65
     0
276
    -2
286
     1
 66
     0
277
    -2
287
     1
 67
     0
278
    -2
288
     1
 68
     0
279
    -2
289
     1
 69
     0
  0
VISUALSTYLE
  5
86E9F
102
{ACAD_REACTORS
330
86E99
102
}
330
86E99
100
AcDbVisualStyle
  2

 70
     4
177
     3
291
     0
 70
    58
 90
        0
176
     1
 90
        2
176
     1
 90
        0
176
     1
 90
        0
176
     1
 40
0.6
176
     1
 40
30.0
176
     1
 62
     7
420
 16777215
176
     1
 90
        1
176
     1
 90
        4
176
     1
 62
     7
176
     1
 62
   257
176
     1
 90
        1
176
     1
 90
        1
176
     1
 40
1.0
176
     1
 90
        0
176
     1
 62
   257
176
     1
 40
1.0
176
     1
 90
        1
176
     1
 90
        6
176
     1
 90
        2
176
     1
 62
     7
176
     1
 90
        5
176
     1
 90
        0
176
     1
 90
        0
176
     1
290
     0
176
     1
 90
        1
176
     1
 40
0.0
176
     1
 90
        0
176
     1
290
     1
176
     1
290
     1
176
     1
290
     0
176
     1
290
     0
176
     1
290
     0
176
     1
290
     0
176
     1
290
     0
176
     1
290
     0
176
     1
290
     0
176
     1
 90
       50
176
     1
 40
0.0
176
     1
 40
1.0
176
     1
 90
        0
176
     1
 62
    18
176
     1
 90
       50
176
     1
 90
        3
176
     1
 62
     5
420
      255
176
     1
290
     0
176
     1
 90
       50
176
     1
 90
       50
176
     1
 90
       50
176
     1
290
     0
176
     1
 90
       50
176
     1
 62
   256
176
     0
 40
1.0
176
     0
 90
        2
176
     1
  1
strokes_ogs.tif
176
     1
290
     0
176
     1
 40
1.0
176
     1
 40
1.0
176
     1
1001
ACAD
1000
AcDbSavedByObjectVersion
1070
     0
  0
VISUALSTYLE
  5
86E9E
102
{ACAD_REACTORS
330
86E99
102
}
330
86E99
100
AcDbVisualStyle
  2

 70
     7
177
     3
291
     1
 70
    58
 90
        1
176
     1
 90
        0
176
     1
 90
        1
176
     1
 90
        0
176
     1
 40
0.6
176
     1
 40
30.0
176
     1
 62
     7
420
 16777215
176
     1
 90
        0
176
     1
 90
        4
176
     1
 62
     7
176
     1
 62
   257
176
     1
 90
        1
176
     1
 90
        1
176
     1
 40
1.0
176
     1
 90
        8
176
     1
 62
     7
176
     1
 40
1.0
176
     1
 90
        1
176
     1
 90
        6
176
     1
 90
        2
176
     1
 62
     7
176
     1
 90
        5
176
     1
 90
        0
176
     1
 90
        0
176
     1
290
     0
176
     1
 90
        1
176
     1
 40
0.0
176
     1
 90
        0
176
     1
290
     0
176
     1
290
     1
176
     1
290
     1
176
     1
290
     0
176
     1
290
     0
176
     1
290
     0
176
     1
290
     0
176
     1
290
     0
176
     1
290
     0
176
     1
 90
       50
176
     1
 40
0.0
176
     1
 40
1.0
176
     1
 90
        0
176
     1
 62
    18
176
     1
 90
       50
176
     1
 90
        3
176
     1
 62
     5
420
      255
176
     1
290
     0
176
     1
 90
       50
176
     1
 90
       50
176
     1
 90
       50
176
     1
290
     0
176
     1
 90
       50
176
     1
 62
   256
176
     0
 40
1.0
176
     0
 90
        2
176
     1
  1
strokes_ogs.tif
176
     1
290
     0
176
     1
 40
1.0
176
     1
 40
1.0
176
     1
1001
ACAD
1000
AcDbSavedByObjectVersion
1070
     0
  0
VISUALSTYLE
  5
86EA5
102
{ACAD_REACTORS
330
86E99
102
}
330
86E99
100
AcDbVisualStyle
  2

 70
    12
177
     3
291
     1
 70
    58
 90
        2
176
     1
 90
        2
176
     1
 90
        0
176
     1
 90
        0
176
     1
 40
0.6
176
     1
 40
30.0
176
     1
 62
     7
420
 16777215
176
     1
 90
        1
176
     1
 90
        4
176
     1
 62
     7
176
     1
 62
   257
176
     1
 90
        1
176
     1
 90
        1
176
     1
 40
1.0
176
     1
 90
        8
176
     1
 62
     7
176
     1
 40
1.0
176
     1
 90
        1
176
     1
 90
        6
176
     1
 90
        2
176
     1
 62
     7
176
     1
 90
        5
176
     1
 90
        0
176
     1
 90
        0
176
     1
290
     0
176
     1
 90
        1
176
     1
 40
50.0
176
     1
 90
        0
176
     1
290
     0
176
     1
290
     1
176
     1
290
     1
176
     1
290
     0
176
     1
290
     0
176
     1
290
     0
176
     1
290
     0
176
     1
290
     0
176
     1
290
     0
176
     1
 90
       50
176
     1
 40
0.0
176
     1
 40
1.0
176
     1
 90
        0
176
     1
 62
    18
176
     1
 90
       50
176
     1
 90
        3
176
     1
 62
     5
420
      255
176
     1
290
     0
176
     1
 90
       50
176
     1
 90
       50
176
     1
 90
       50
176
     1
290
     0
176
     1
 90
       50
176
     1
 62
   256
176
     0
 40
1.0
176
     0
 90
        2
176
     1
  1
strokes_ogs.tif
176
     1
290
     0
176
     1
 40
1.0
176
     1
 40
1.0
176
     1
1001
ACAD
1000
AcDbSavedByObjectVersion
1070
     0
  0
VISUALSTYLE
  5
86EA9
102
{ACAD_REACTORS
330
86E99
102
}
330
86E99
100
AcDbVisualStyle
  2

 70
    16
177
     3
291
     1
 70
    58
 90
        2
176
     1
 90
        2
176
     1
 90
        3
176
     1
 90
        0
176
     1
 40
0.6
176
     1
 40
30.0
176
     1
 62
     8
420
  8421504
176
     1
 90
        1
176
     1
 90
        4
176
     1
 62
     7
176
     1
 62
   257
176
     1
 90
        1
176
     1
 90
        1
176
     1
 40
1.0
176
     1
 90
        8
176
     1
 62
     8
420
  8421504
176
     1
 40
1.0
176
     1
 90
        1
176
     1
 90
        6
176
     1
 90
        2
176
     1
 62
     7
176
     1
 90
        5
176
     1
 90
        0
176
     1
 90
        0
176
     1
290
     0
176
     1
 90
        1
176
     1
 40
0.0
176
     1
 90
        0
176
     1
290
     0
176
     1
290
     1
176
     1
290
     1
176
     1
290
     0
176
     1
290
     0
176
     1
290
     0
176
     1
290
     0
176
     1
290
     0
176
     1
290
     0
176
     1
 90
       50
176
     1
 40
0.0
176
     1
 40
1.0
176
     1
 90
        0
176
     1
 62
    18
176
     1
 90
       50
176
     1
 90
        3
176
     1
 62
     5
420
      255
176
     1
290
     0
176
     1
 90
       50
176
     1
 90
       50
176
     1
 90
       50
176
     1
290
     0
176
     1
 90
       50
176
     1
 62
   256
176
     0
 40
1.0
176
     0
 90
        2
176
     1
  1
strokes_ogs.tif
176
     1
290
     0
176
     1
 40
1.0
176
     1
 40
1.0
176
     1
1001
ACAD
1000
AcDbSavedByObjectVersion
1070
     0
  0
VISUALSTYLE
  5
86EA2
102
{ACAD_REACTORS
330
86E99
102
}
330
86E99
100
AcDbVisualStyle
  2

 70
     9
177
     3
291
     0
 70
    58
 90
        3
176
     1
 90
        2
176
     1
 90
        0
176
     1
 90
        0
176
     1
 40
0.6
176
     1
 40
30.0
176
     1
 62
     7
420
 16777215
176
     1
 90
        2
176
     1
 90
        2
176
     1
 62
     7
176
     1
 62
   257
176
     1
 90
        1
176
     1
 90
        1
176
     1
 40
179.0
176
     1
 90
        8
176
     1
 62
     7
176
     1
 40
1.0
176
     1
 90
        1
176
     1
 90
        6
176
     1
 90
        2
176
     1
 62
     7
176
     1
 90
        3
176
     1
 90
        0
176
     1
 90
        0
176
     1
290
     0
176
     1
 90
        1
176
     1
 40
0.0
176
     1
 90
        0
176
     1
290
     0
176
     1
290
     1
176
     1
290
     1
176
     1
290
     0
176
     1
290
     0
176
     1
290
     0
176
     1
290
     0
176
     1
290
     0
176
     1
290
     0
176
     1
 90
       50
176
     1
 40
0.0
176
     1
 40
1.0
176
     1
 90
        0
176
     1
 62
    18
176
     1
 90
       50
176
     1
 90
        3
176
     1
 62
     5
420
      255
176
     1
290
     0
176
     1
 90
       50
176
     1
 90
       50
176
     1
 90
       50
176
     1
290
     0
176
     1
 90
       50
176
     1
 62
   256
176
     0
 40
1.0
176
     0
 90
        2
176
     1
  1
strokes_ogs.tif
176
     1
290
     0
176
     1
 40
1.0
176
     1
 40
1.0
176
     1
1001
ACAD
1000
AcDbSavedByObjectVersion
1070
     0
  0
VISUALSTYLE
  5
86EA4
102
{ACAD_REACTORS
330
86E99
102
}
330
86E99
100
AcDbVisualStyle
  2

 70
    11
177
     3
291
     1
 70
    58
 90
        2
176
     1
 90
        2
176
     1
 90
        0
176
     1
 90
        0
176
     1
 40
0.6
176
     1
 40
30.0
176
     1
 62
     7
420
 16777215
176
     1
 90
        1
176
     1
 90
        4
176
     1
 62
     7
176
     1
 62
   257
176
     1
 90
        1
176
     1
 90
        1
176
     1
 40
1.0
176
     1
 90
        8
176
     1
 62
     7
176
     1
 40
1.0
176
     1
 90
        1
176
     1
 90
        6
176
     1
 90
        2
176
     1
 62
     7
176
     1
 90
        5
176
     1
 90
        0
176
     1
 90
        0
176
     1
290
     0
176
     1
 90
        1
176
     1
 40
-50.0
176
     1
 90
        0
176
     1
290
     0
176
     1
290
     1
176
     1
290
     1
176
     1
290
     0
176
     1
290
     0
176
     1
290
     0
176
     1
290
     0
176
     1
290
     0
176
     1
290
     0
176
     1
 90
       50
176
     1
 40
0.0
176
     1
 40
1.0
176
     1
 90
        0
176
     1
 62
    18
176
     1
 90
       50
176
     1
 90
        3
176
     1
 62
     5
420
      255
176
     1
290
     0
176
     1
 90
       50
176
     1
 90
       50
176
     1
 90
       50
176
     1
290
     0
176
     1
 90
       50
176
     1
 62
   256
176
     0
 40
1.0
176
     0
 90
        2
176
     1
  1
strokes_ogs.tif
176
     1
290
     0
176
     1
 40
1.0
176
     1
 40
1.0
176
     1
1001
ACAD
1000
AcDbSavedByObjectVersion
1070
     0
  0
VISUALSTYLE
  5
86EB1
102
{ACAD_REACTORS
330
86E99
102
}
330
86E99
100
AcDbVisualStyle
  2

 70
    22
177
     3
291
     1
 70
    58
 90
        2
176
     0
 90
        2
176
     0
 90
        0
176
     0
 90
        0
176
     0
 40
0.6
176
     0
 40
30.0
176
     0
 62
     7
420
 16777215
176
     0
 90
        1
176
     0
 90
        4
176
     0
 62
     7
176
     0
 62
   257
176
     0
 90
        1
176
     0
 90
        1
176
     0
 40
1.0
176
     0
 90
        8
176
     2
 62
     7
176
     0
 40
1.0
176
     0
 90
        1
176
     0
 90
        6
176
     0
 90
        2
176
     0
 62
     7
176
     0
 90
        5
176
     0
 90
        0
176
     0
 90
        0
176
     0
290
     0
176
     0
 90
        1
176
     0
 40
0.0
176
     0
 90
        0
176
     0
290
     0
176
     1
290
     1
176
     1
290
     1
176
     1
290
     0
176
     1
290
     0
176
     1
290
     0
176
     1
290
     0
176
     1
290
     0
176
     1
290
     0
176
     1
 90
       50
176
     0
 40
0.0
176
     0
 40
1.0
176
     0
 90
        0
176
     0
 62
    18
176
     0
 90
       50
176
     0
 90
        3
176
     0
 62
     5
420
      255
176
     0
290
     0
176
     1
 90
       50
176
     0
 90
       50
176
     0
 90
       50
176
     0
290
     0
176
     1
 90
       50
176
     0
 62
   256
176
     0
 40
1.0
176
     0
 90
        2
176
     0
  1
strokes_ogs.tif
176
     0
290
     0
176
     1
 40
1.0
176
     0
 40
1.0
176
     0
1001
ACAD
1000
AcDbSavedByObjectVersion
1070
     0
  0
VISUALSTYLE
  5
86EA8
102
{ACAD_REACTORS
330
86E99
102
}
330
86E99
100
AcDbVisualStyle
  2

 70
    15
177
     3
291
     1
 70
    58
 90
        2
176
     1
 90
        2
176
     1
 90
        0
176
     1
 90
        0
176
     1
 40
0.6
176
     1
 40
30.0
176
     1
 62
     7
420
 16777215
176
     1
 90
        1
176
     1
 90
        4
176
     1
 62
     7
176
     1
 62
   257
176
     1
 90
        1
176
     1
 90
        1
176
     1
 40
1.0
176
     1
 90
        8
176
     1
 62
     7
176
     1
 40
1.0
176
     1
 90
        1
176
     1
 90
        6
176
     1
 90
        2
176
     1
 62
     7
176
     1
 90
        5
176
     1
 90
        0
176
     1
 90
        0
176
     1
290
     0
176
     1
 90
        1
176
     1
 40
0.0
176
     1
 90
        0
176
     1
290
     0
176
     1
290
     1
176
     1
290
     1
176
     1
290
     0
176
     1
290
     0
176
     1
290
     0
176
     1
290
     0
176
     1
290
     0
176
     1
290
     0
176
     1
 90
       50
176
     1
 40
0.0
176
     1
 40
1.0
176
     1
 90
        0
176
     1
 62
    18
176
     1
 90
       50
176
     1
 90
        3
176
     1
 62
     5
420
      255
176
     1
290
     0
176
     1
 90
       50
176
     1
 90
       50
176
     1
 90
       50
176
     1
290
     0
176
     1
 90
       50
176
     1
 62
   256
176
     0
 40
1.0
176
     0
 90
        2
176
     1
  1
strokes_ogs.tif
176
     1
290
     0
176
     1
 40
1.0
176
     1
 40
1.0
176
     1
1001
ACAD
1000
AcDbSavedByObjectVersion
1070
     0
  0
VISUALSTYLE
  5
86E9A
102
{ACAD_REACTORS
330
86E99
102
}
330
86E99
100
AcDbVisualStyle
  2

 70
     0
177
     3
291
     1
 70
    58
 90
        2
176
     1
 90
        1
176
     1
 90
        1
176
     1
 90
        2
176
     1
 40
0.6
176
     1
 40
30.0
176
     1
 62
     7
420
 16777215
176
     1
 90
        0
176
     1
 90
        0
176
     1
 62
     7
176
     1
 62
   257
176
     1
 90
        1
176
     1
 90
        1
176
     1
 40
1.0
176
     1
 90
        8
176
     1
 62
     7
176
     1
 40
1.0
176
     1
 90
        1
176
     1
 90
        6
176
     1
 90
        2
176
     1
 62
     7
176
     1
 90
        5
176
     1
 90
        0
176
     1
 90
        0
176
     1
290
     0
176
     1
 90
       13
176
     1
 40
0.0
176
     1
 90
        0
176
     1
290
     0
176
     1
290
     1
176
     1
290
     1
176
     1
290
     0
176
     1
290
     0
176
     1
290
     0
176
     1
290
     0
176
     1
290
     0
176
     1
290
     0
176
     1
 90
       50
176
     1
 40
0.0
176
     1
 40
1.0
176
     1
 90
        0
176
     1
 62
    18
176
     1
 90
       50
176
     1
 90
        3
176
     1
 62
     5
420
      255
176
     1
290
     0
176
     1
 90
       50
176
     1
 90
       50
176
     1
 90
       50
176
     1
290
     0
176
     1
 90
       50
176
     1
 62
   256
176
     0
 40
1.0
176
     0
 90
        2
176
     1
  1
strokes_ogs.tif
176
     1
290
     0
176
     1
 40
1.0
176
     1
 40
1.0
176
     1
1001
ACAD
1000
AcDbSavedByObjectVersion
1070
     0
  0
VISUALSTYLE
  5
86E9B
102
{ACAD_REACTORS
330
86E99
102
}
330
86E99
100
AcDbVisualStyle
  2

 70
     1
177
     3
291
     1
 70
    58
 90
        2
176
     1
 90
        1
176
     1
 90
        1
176
     1
 90
        2
176
     1
 40
0.6
176
     1
 40
30.0
176
     1
 62
     7
420
 16777215
176
     1
 90
        1
176
     1
 90
        0
176
     1
 62
     7
176
     1
 62
   257
176
     1
 90
        1
176
     1
 90
        1
176
     1
 40
1.0
176
     1
 90
        0
176
     1
 62
   257
176
     1
 40
1.0
176
     1
 90
        1
176
     1
 90
        6
176
     1
 90
        2
176
     1
 62
     7
176
     1
 90
        5
176
     1
 90
        0
176
     1
 90
        0
176
     1
290
     0
176
     1
 90
       13
176
     1
 40
0.0
176
     1
 90
        0
176
     1
290
     0
176
     1
290
     1
176
     1
290
     1
176
     1
290
     0
176
     1
290
     0
176
     1
290
     0
176
     1
290
     0
176
     1
290
     0
176
     1
290
     0
176
     1
 90
       50
176
     1
 40
0.0
176
     1
 40
1.0
176
     1
 90
        0
176
     1
 62
    18
176
     1
 90
       50
176
     1
 90
        3
176
     1
 62
     5
420
      255
176
     1
290
     0
176
     1
 90
       50
176
     1
 90
       50
176
     1
 90
       50
176
     1
290
     0
176
     1
 90
       50
176
     1
 62
   256
176
     0
 40
1.0
176
     0
 90
        2
176
     1
  1
strokes_ogs.tif
176
     1
290
     0
176
     1
 40
1.0
176
     1
 40
1.0
176
     1
1001
ACAD
1000
AcDbSavedByObjectVersion
1070
     0
  0
VISUALSTYLE
  5
86E9C
102
{ACAD_REACTORS
330
86E99
102
}
330
86E99
100
AcDbVisualStyle
  2

 70
     2
177
     3
291
     1
 70
    58
 90
        2
176
     1
 90
        2
176
     1
 90
        1
176
     1
 90
        2
176
     1
 40
0.6
176
     1
 40
30.0
176
     1
 62
     7
420
 16777215
176
     1
 90
        0
176
     1
 90
        0
176
     1
 62
     7
176
     1
 62
   257
176
     1
 90
        1
176
     1
 90
        1
176
     1
 40
1.0
176
     1
 90
        0
176
     1
 62
     7
176
     1
 40
1.0
176
     1
 90
        1
176
     1
 90
        6
176
     1
 90
        2
176
     1
 62
     7
176
     1
 90
        5
176
     1
 90
        0
176
     1
 90
        0
176
     1
290
     0
176
     1
 90
       13
176
     1
 40
0.0
176
     1
 90
        0
176
     1
290
     0
176
     1
290
     1
176
     1
290
     1
176
     1
290
     0
176
     1
290
     0
176
     1
290
     0
176
     1
290
     0
176
     1
290
     0
176
     1
290
     0
176
     1
 90
       50
176
     1
 40
0.0
176
     1
 40
1.0
176
     1
 90
        0
176
     1
 62
    18
176
     1
 90
       50
176
     1
 90
        3
176
     1
 62
     5
420
      255
176
     1
290
     0
176
     1
 90
       50
176
     1
 90
       50
176
     1
 90
       50
176
     1
290
     0
176
     1
 90
       50
176
     1
 62
   256
176
     0
 40
1.0
176
     0
 90
        2
176
     1
  1
strokes_ogs.tif
176
     1
290
     0
176
     1
 40
1.0
176
     1
 40
1.0
176
     1
1001
ACAD
1000
AcDbSavedByObjectVersion
1070
     0
  0
VISUALSTYLE
  5
86E9D
102
{ACAD_REACTORS
330
86E99
102
}
330
86E99
100
AcDbVisualStyle
  2

 70
     3
177
     3
291
     1
 70
    58
 90
        2
176
     1
 90
        2
176
     1
 90
        1
176
     1
 90
        2
176
     1
 40
0.6
176
     1
 40
30.0
176
     1
 62
     7
420
 16777215
176
     1
 90
        1
176
     1
 90
        0
176
     1
 62
     7
176
     1
 62
   257
176
     1
 90
        1
176
     1
 90
        1
176
     1
 40
1.0
176
     1
 90
        0
176
     1
 62
   257
176
     1
 40
1.0
176
     1
 90
        1
176
     1
 90
        6
176
     1
 90
        2
176
     1
 62
     7
176
     1
 90
        5
176
     1
 90
        0
176
     1
 90
        0
176
     1
290
     0
176
     1
 90
       13
176
     1
 40
0.0
176
     1
 90
        0
176
     1
290
     0
176
     1
290
     1
176
     1
290
     1
176
     1
290
     0
176
     1
290
     0
176
     1
290
     0
176
     1
290
     0
176
     1
290
     0
176
     1
290
     0
176
     1
 90
       50
176
     1
 40
0.0
176
     1
 40
1.0
176
     1
 90
        0
176
     1
 62
    18
176
     1
 90
       50
176
     1
 90
        3
176
     1
 62
     5
420
      255
176
     1
290
     0
176
     1
 90
       50
176
     1
 90
       50
176
     1
 90
       50
176
     1
290
     0
176
     1
 90
       50
176
     1
 62
   256
176
     0
 40
1.0
176
     0
 90
        2
176
     1
  1
strokes_ogs.tif
176
     1
290
     0
176
     1
 40
1.0
176
     1
 40
1.0
176
     1
1001
ACAD
1000
AcDbSavedByObjectVersion
1070
     0
  0
VISUALSTYLE
  5
86EA1
102
{ACAD_REACTORS
330
86E99
102
}
330
86E99
100
AcDbVisualStyle
  2

 70
     6
177
     3
291
     0
 70
    58
 90
        1
176
     1
 90
        2
176
     1
 90
        2
176
     1
 90
        0
176
     1
 40
0.6
176
     1
 40
30.0
176
     1
 62
     7
420
 16777215
176
     1
 90
        2
176
     1
 90
        2
176
     1
 62
     7
176
     1
 62
   257
176
     1
 90
        2
176
     1
 90
        1
176
     1
 40
40.0
176
     1
 90
        0
176
     1
 62
   257
176
     1
 40
1.0
176
     1
 90
        1
176
     1
 90
        6
176
     1
 90
        2
176
     1
 62
     7
176
     1
 90
        3
176
     1
 90
        0
176
     1
 90
        0
176
     1
290
     0
176
     1
 90
        1
176
     1
 40
0.0
176
     1
 90
        0
176
     1
290
     0
176
     1
290
     1
176
     1
290
     1
176
     1
290
     0
176
     1
290
     0
176
     1
290
     0
176
     1
290
     0
176
     1
290
     0
176
     1
290
     0
176
     1
 90
       50
176
     1
 40
0.0
176
     1
 40
1.0
176
     1
 90
        0
176
     1
 62
    18
176
     1
 90
       50
176
     1
 90
        3
176
     1
 62
     5
420
      255
176
     1
290
     0
176
     1
 90
       50
176
     1
 90
       50
176
     1
 90
       50
176
     1
290
     0
176
     1
 90
       50
176
     1
 62
   256
176
     0
 40
1.0
176
     0
 90
        2
176
     1
  1
strokes_ogs.tif
176
     1
290
     0
176
     1
 40
1.0
176
     1
 40
1.0
176
     1
1001
ACAD
1000
AcDbSavedByObjectVersion
1070
     0
  0
VISUALSTYLE
  5
86EAF
102
{ACAD_REACTORS
330
86E99
102
}
330
86E99
100
AcDbVisualStyle
  2

 70
    20
177
     3
291
     1
 70
    58
 90
        2
176
     0
 90
        2
176
     0
 90
        0
176
     0
 90
        0
176
     0
 40
0.6
176
     0
 40
30.0
176
     0
 62
     7
420
 16777215
176
     0
 90
        1
176
     0
 90
        4
176
     0
 62
     7
176
     0
 62
   257
176
     0
 90
        1
176
     0
 90
        1
176
     0
 40
1.0
176
     0
 90
       10
176
     2
 62
     7
176
     0
 40
1.0
176
     0
 90
        1
176
     0
 90
        6
176
     0
 90
        2
176
     0
 62
     7
176
     0
 90
        5
176
     0
 90
        0
176
     0
 90
        0
176
     0
290
     0
176
     0
 90
        1
176
     0
 40
0.0
176
     0
 90
        0
176
     0
290
     0
176
     1
290
     1
176
     1
290
     1
176
     1
290
     0
176
     1
290
     0
176
     1
290
     0
176
     1
290
     0
176
     1
290
     0
176
     1
290
     0
176
     1
 90
       50
176
     0
 40
0.0
176
     0
 40
1.0
176
     0
 90
        0
176
     0
 62
    18
176
     0
 90
       50
176
     0
 90
        3
176
     0
 62
     5
420
      255
176
     0
290
     0
176
     1
 90
       50
176
     0
 90
       50
176
     0
 90
       50
176
     0
290
     0
176
     1
 90
       50
176
     0
 62
   256
176
     0
 40
1.0
176
     0
 90
        2
176
     0
  1
strokes_ogs.tif
176
     0
290
     0
176
     1
 40
1.0
176
     0
 40
1.0
176
     0
1001
ACAD
1000
AcDbSavedByObjectVersion
1070
     0
  0
VISUALSTYLE
  5
86EA7
102
{ACAD_REACTORS
330
86E99
102
}
330
86E99
100
AcDbVisualStyle
  2

 70
    14
177
     3
291
     1
 70
    58
 90
        2
176
     1
 90
        2
176
     1
 90
        0
176
     1
 90
        0
176
     1
 40
0.6
176
     1
 40
30.0
176
     1
 62
     7
420
 16777215
176
     1
 90
        1
176
     1
 90
        4
176
     1
 62
     7
176
     1
 62
   257
176
     1
 90
        7
176
     1
 90
        7
176
     1
 40
1.0
176
     1
 90
        8
176
     1
 62
     7
176
     1
 40
1.0
176
     1
 90
        1
176
     1
 90
        6
176
     1
 90
        2
176
     1
 62
     7
176
     1
 90
        5
176
     1
 90
        0
176
     1
 90
        0
176
     1
290
     0
176
     1
 90
        1
176
     1
 40
0.0
176
     1
 90
        0
176
     1
290
     0
176
     1
290
     1
176
     1
290
     1
176
     1
290
     0
176
     1
290
     0
176
     1
290
     0
176
     1
290
     0
176
     1
290
     0
176
     1
290
     0
176
     1
 90
       50
176
     1
 40
0.0
176
     1
 40
1.0
176
     1
 90
        0
176
     1
 62
    18
176
     1
 90
       50
176
     1
 90
        3
176
     1
 62
     5
420
      255
176
     1
290
     0
176
     1
 90
       50
176
     1
 90
       50
176
     1
 90
       50
176
     1
290
     0
176
     1
 90
       50
176
     1
 62
   256
176
     0
 40
1.0
176
     0
 90
        2
176
     1
  1
strokes_ogs.tif
176
     1
290
     0
176
     1
 40
1.0
176
     1
 40
1.0
176
     1
1001
ACAD
1000
AcDbSavedByObjectVersion
1070
     0
  0
VISUALSTYLE
  5
86EB0
102
{ACAD_REACTORS
330
86E99
102
}
330
86E99
100
AcDbVisualStyle
  2

 70
    21
177
     3
291
     1
 70
    58
 90
        2
176
     0
 90
        2
176
     0
 90
        0
176
     0
 90
        0
176
     0
 40
0.6
176
     0
 40
30.0
176
     0
 62
     7
420
 16777215
176
     0
 90
        1
176
     0
 90
        4
176
     0
 62
     7
176
     0
 62
   257
176
     0
 90
        1
176
     0
 90
        1
176
     0
 40
1.0
176
     0
 90
        9
176
     2
 62
     7
176
     0
 40
1.0
176
     0
 90
        1
176
     0
 90
        6
176
     0
 90
        2
176
     0
 62
     7
176
     0
 90
        5
176
     0
 90
        0
176
     0
 90
        0
176
     0
290
     0
176
     0
 90
        1
176
     0
 40
0.0
176
     0
 90
        0
176
     0
290
     0
176
     1
290
     1
176
     1
290
     1
176
     1
290
     0
176
     1
290
     0
176
     1
290
     0
176
     1
290
     0
176
     1
290
     0
176
     1
290
     0
176
     1
 90
       50
176
     0
 40
0.0
176
     0
 40
1.0
176
     0
 90
        0
176
     0
 62
    18
176
     0
 90
       50
176
     0
 90
        3
176
     0
 62
     5
420
      255
176
     0
290
     0
176
     1
 90
       50
176
     0
 90
       50
176
     0
 90
       50
176
     0
290
     0
176
     1
 90
       50
176
     0
 62
   256
176
     0
 40
1.0
176
     0
 90
        2
176
     0
  1
strokes_ogs.tif
176
     0
290
     0
176
     1
 40
1.0
176
     0
 40
1.0
176
     0
1001
ACAD
1000
AcDbSavedByObjectVersion
1070
     0
  0
VISUALSTYLE
  5
86EA3
102
{ACAD_REACTORS
330
86E99
102
}
330
86E99
100
AcDbVisualStyle
  2

 70
     8
177
     3
291
     0
 70
    58
 90
        2
176
     1
 90
        3
176
     1
 90
        0
176
     1
 90
        2
176
     1
 40
0.6
176
     1
 40
30.0
176
     1
 62
     7
420
 16777215
176
     1
 90
        0
176
     1
 90
        0
176
     1
 62
     7
176
     1
 62
   257
176
     1
 90
        1
176
     1
 90
        1
176
     1
 40
1.0
176
     1
 90
        8
176
     1
 62
   257
176
     1
 40
1.0
176
     1
 90
        1
176
     1
 90
        6
176
     1
 90
        2
176
     1
 62
     7
176
     1
 90
        3
176
     1
 90
        0
176
     1
 90
        0
176
     1
290
     0
176
     1
 90
       13
176
     1
 40
0.0
176
     1
 90
        0
176
     1
290
     0
176
     1
290
     1
176
     1
290
     1
176
     1
290
     0
176
     1
290
     0
176
     1
290
     0
176
     1
290
     0
176
     1
290
     0
176
     1
290
     0
176
     1
 90
       50
176
     1
 40
0.0
176
     1
 40
1.0
176
     1
 90
        0
176
     1
 62
    18
176
     1
 90
       50
176
     1
 90
        3
176
     1
 62
     5
420
      255
176
     1
290
     0
176
     1
 90
       50
176
     1
 90
       50
176
     1
 90
       50
176
     1
290
     0
176
     1
 90
       50
176
     1
 62
   256
176
     0
 40
1.0
176
     0
 90
        2
176
     1
  1
strokes_ogs.tif
176
     1
290
     0
176
     1
 40
1.0
176
     1
 40
1.0
176
     1
1001
ACAD
1000
AcDbSavedByObjectVersion
1070
     0
  0
VISUALSTYLE
  5
86EAE
102
{ACAD_REACTORS
330
86E99
102
}
330
86E99
100
AcDbVisualStyle
  2

 70
    27
177
     3
291
     0
 70
    58
 90
        2
176
     1
 90
        2
176
     1
 90
        1
176
     1
 90
        2
176
     1
 40
0.6
176
     1
 40
30.0
176
     1
 62
     7
420
 16777215
176
     1
 90
        0
176
     1
 90
        4
176
     1
 62
     7
176
     1
 62
   257
176
     1
 90
        1
176
     1
 90
        1
176
     1
 40
1.0
176
     1
 90
        8
176
     1
 62
   257
176
     1
 40
1.0
176
     1
 90
        1
176
     1
 90
        6
176
     1
 90
        2
176
     1
 62
     8
420
  7895160
176
     1
 90
        3
176
     1
 90
        0
176
     1
 90
        0
176
     1
290
     0
176
     1
 90
        5
176
     1
 40
0.0
176
     1
 90
        0
176
     1
290
     0
176
     1
290
     1
176
     1
290
     1
176
     1
290
     0
176
     1
290
     0
176
     1
290
     0
176
     1
290
     0
176
     1
290
     0
176
     1
290
     0
176
     1
 90
       50
176
     1
 40
0.0
176
     1
 40
1.0
176
     1
 90
        0
176
     1
 62
    18
176
     1
 90
       50
176
     1
 90
        3
176
     1
 62
     5
420
      255
176
     1
290
     0
176
     1
 90
       50
176
     1
 90
       50
176
     1
 90
       50
176
     1
290
     0
176
     1
 90
       50
176
     1
 62
   256
176
     0
 40
1.0
176
     0
 90
        2
176
     1
  1
strokes_ogs.tif
176
     1
290
     0
176
     1
 40
1.0
176
     1
 40
1.0
176
     1
1001
ACAD
1000
AcDbSavedByObjectVersion
1070
     0
  0
VISUALSTYLE
  5
86EAD
102
{ACAD_REACTORS
330
86E99
102
}
330
86E99
100
AcDbVisualStyle
  2

 70
    26
177
     3
291
     0
 70
    58
 90
        2
176
     1
 90
        2
176
     1
 90
        1
176
     1
 90
        2
176
     1
 40
0.6
176
     1
 40
30.0
176
     1
 62
     7
420
 16777215
176
     1
 90
        1
176
     1
 90
        2
176
     1
 62
     7
176
     1
 62
   257
176
     1
 90
        2
176
     1
 90
        1
176
     1
 40
1.0
176
     1
 90
        8
176
     1
 62
   257
176
     1
 40
1.0
176
     1
 90
        1
176
     1
 90
        6
176
     1
 90
        2
176
     1
 62
     7
176
     1
 90
        3
176
     1
 90
        0
176
     1
 90
        0
176
     1
290
     0
176
     1
 90
        5
176
     1
 40
0.0
176
     1
 90
        0
176
     1
290
     0
176
     1
290
     1
176
     1
290
     1
176
     1
290
     0
176
     1
290
     0
176
     1
290
     0
176
     1
290
     0
176
     1
290
     0
176
     1
290
     0
176
     1
 90
       50
176
     1
 40
0.0
176
     1
 40
1.0
176
     1
 90
        0
176
     1
 62
    18
176
     1
 90
       50
176
     1
 90
        3
176
     1
 62
     5
420
      255
176
     1
290
     0
176
     1
 90
       50
176
     1
 90
       50
176
     1
 90
       50
176
     1
290
     0
176
     1
 90
       50
176
     1
 62
   256
176
     0
 40
1.0
176
     0
 90
        2
176
     1
  1
strokes_ogs.tif
176
     1
290
     0
176
     1
 40
1.0
176
     1
 40
1.0
176
     1
1001
ACAD
1000
AcDbSavedByObjectVersion
1070
     0
  0
VISUALSTYLE
  5
86EAA
102
{ACAD_REACTORS
330
86E99
102
}
330
86E99
100
AcDbVisualStyle
  2

 70
    23
177
     3
291
     0
 70
    58
 90
        2
176
     1
 90
        2
176
     1
 90
        3
176
     1
 90
        0
176
     1
 40
0.6
176
     1
 40
30.0
176
     1
 62
     7
420
 16777215
176
     1
 90
        2
176
     1
 90
        2
176
     1
 62
     7
176
     1
 62
     7
176
     1
 90
        1
176
     1
 90
        1
176
     1
 40
40.0
176
     1
 90
        8
176
     1
 62
     7
176
     1
 40
1.0
176
     1
 90
        1
176
     1
 90
        6
176
     1
 90
        2
176
     1
 62
     7
176
     1
 90
        3
176
     1
 90
        0
176
     1
 90
        0
176
     1
290
     0
176
     1
 90
        1
176
     1
 40
0.0
176
     1
 90
        0
176
     1
290
     0
176
     1
290
     1
176
     1
290
     1
176
     1
290
     0
176
     1
290
     0
176
     1
290
     0
176
     1
290
     0
176
     1
290
     0
176
     1
290
     0
176
     1
 90
       50
176
     1
 40
0.0
176
     1
 40
1.0
176
     1
 90
        0
176
     1
 62
    18
176
     1
 90
       50
176
     1
 90
        3
176
     1
 62
     5
420
      255
176
     1
290
     0
176
     1
 90
       50
176
     1
 90
       50
176
     1
 90
       50
176
     1
290
     0
176
     1
 90
       50
176
     1
 62
   256
176
     0
 40
1.0
176
     0
 90
        2
176
     1
  1
strokes_ogs.tif
176
     1
290
     0
176
     1
 40
1.0
176
     1
 40
1.0
176
     1
1001
ACAD
1000
AcDbSavedByObjectVersion
1070
     0
  0
VISUALSTYLE
  5
86EAB
102
{ACAD_REACTORS
330
86E99
102
}
330
86E99
100
AcDbVisualStyle
  2

 70
    24
177
     3
291
     0
 70
    58
 90
        1
176
     1
 90
        2
176
     1
 90
        2
176
     1
 90
        0
176
     1
 40
0.6
176
     1
 40
30.0
176
     1
 62
     7
420
 16777215
176
     1
 90
        2
176
     1
 90
        2
176
     1
 62
     7
176
     1
 62
     7
176
     1
 90
        1
176
     1
 90
        1
176
     1
 40
40.0
176
     1
 90
       11
176
     1
 62
     7
176
     1
 40
1.0
176
     1
 90
        1
176
     1
 90
        6
176
     1
 90
        2
176
     1
 62
     7
176
     1
 90
        6
176
     1
 90
        0
176
     1
 90
        0
176
     1
290
     0
176
     1
 90
        1
176
     1
 40
0.0
176
     1
 90
        0
176
     1
290
     0
176
     1
290
     1
176
     1
290
     1
176
     1
290
     0
176
     1
290
     0
176
     1
290
     0
176
     1
290
     0
176
     1
290
     0
176
     1
290
     0
176
     1
 90
       50
176
     1
 40
0.0
176
     1
 40
1.0
176
     1
 90
        0
176
     1
 62
    18
176
     1
 90
       50
176
     1
 90
        3
176
     1
 62
     5
420
      255
176
     1
290
     0
176
     1
 90
       50
176
     1
 90
       50
176
     1
 90
       50
176
     1
290
     0
176
     1
 90
       50
176
     1
 62
   256
176
     0
 40
1.0
176
     0
 90
        2
176
     1
  1
strokes_ogs.tif
176
     1
290
     0
176
     1
 40
1.0
176
     1
 40
1.0
176
     1
1001
ACAD
1000
AcDbSavedByObjectVersion
1070
     0
  0
VISUALSTYLE
  5
86EA6
102
{ACAD_REACTORS
330
86E99
102
}
330
86E99
100
AcDbVisualStyle
  2

 70
    13
177
     3
291
     1
 70
    58
 90
        2
176
     1
 90
        2
176
     1
 90
        0
176
     1
 90
        0
176
     1
 40
0.6
176
     1
 40
30.0
176
     1
 62
     7
420
 16777215
176
     1
 90
        1
176
     1
 90
        4
176
     1
 62
     7
176
     1
 62
   257
176
     1
 90
        1
176
     1
 90
        1
176
     1
 40
1.0
176
     1
 90
       12
176
     1
 62
     7
176
     1
 40
1.0
176
     1
 90
        1
176
     1
 90
        6
176
     1
 90
        2
176
     1
 62
     7
176
     1
 90
        5
176
     1
 90
        0
176
     1
 90
        0
176
     1
290
     0
176
     1
 90
        1
176
     1
 40
0.0
176
     1
 90
        0
176
     1
290
     0
176
     1
290
     1
176
     1
290
     1
176
     1
290
     0
176
     1
290
     0
176
     1
290
     0
176
     1
290
     0
176
     1
290
     0
176
     1
290
     0
176
     1
 90
       50
176
     1
 40
0.0
176
     1
 40
1.0
176
     1
 90
        0
176
     1
 62
    18
176
     1
 90
       50
176
     1
 90
        3
176
     1
 62
     5
420
      255
176
     1
290
     0
176
     1
 90
       50
176
     1
 90
       50
176
     1
 90
       50
176
     1
290
     0
176
     1
 90
       50
176
     1
 62
   256
176
     0
 40
1.0
176
     0
 90
        2
176
     1
  1
strokes_ogs.tif
176
     1
290
     0
176
     1
 40
1.0
176
     1
 40
1.0
176
     1
1001
ACAD
1000
AcDbSavedByObjectVersion
1070
     0
  0
VISUALSTYLE
  5
86EA0
102
{ACAD_REACTORS
330
86E99
102
}
330
86E99
100
AcDbVisualStyle
  2

 70
     5
177
     3
291
     0
 70
    58
 90
        0
176
     1
 90
        2
176
     1
 90
        0
176
     1
 90
        0
176
     1
 40
0.6
176
     1
 40
30.0
176
     1
 62
     7
420
 16777215
176
     1
 90
        1
176
     1
 90
        4
176
     1
 62
     7
176
     1
 62
   257
176
     1
 90
        1
176
     1
 90
        1
176
     1
 40
1.0
176
     1
 90
        0
176
     1
 62
   257
176
     1
 40
1.0
176
     1
 90
        1
176
     1
 90
        6
176
     1
 90
        2
176
     1
 62
     7
176
     1
 90
        3
176
     1
 90
        0
176
     1
 90
        0
176
     1
290
     0
176
     1
 90
        1
176
     1
 40
0.0
176
     1
 90
        0
176
     1
290
     0
176
     1
290
     1
176
     1
290
     1
176
     1
290
     0
176
     1
290
     0
176
     1
290
     0
176
     1
290
     0
176
     1
290
     0
176
     1
290
     0
176
     1
 90
       50
176
     1
 40
0.0
176
     1
 40
1.0
176
     1
 90
        0
176
     1
 62
    18
176
     1
 90
       50
176
     1
 90
        3
176
     1
 62
     5
420
      255
176
     1
290
     0
176
     1
 90
       50
176
     1
 90
       50
176
     1
 90
       50
176
     1
290
     0
176
     1
 90
       50
176
     1
 62
   256
176
     0
 40
1.0
176
     0
 90
        2
176
     1
  1
strokes_ogs.tif
176
     1
290
     0
176
     1
 40
1.0
176
     1
 40
1.0
176
     1
1001
ACAD
1000
AcDbSavedByObjectVersion
1070
     0
  0
VISUALSTYLE
  5
86EAC
102
{ACAD_REACTORS
330
86E99
102
}
330
86E99
100
AcDbVisualStyle
  2

 70
    25
177
     3
291
     0
 70
    58
 90
        2
176
     1
 90
        2
176
     1
 90
        1
176
     1
 90
        1
176
     1
 40
0.5
176
     1
 40
30.0
176
     1
 62
     7
420
 16777215
176
     1
 90
        1
176
     1
 90
        0
176
     1
 62
     7
176
     1
 62
   257
176
     1
 90
        1
176
     1
 90
        1
176
     1
 40
1.0
176
     1
 90
        8
176
     1
 62
     7
176
     1
 40
1.0
176
     1
 90
        1
176
     1
 90
        6
176
     1
 90
        2
176
     1
 62
     7
176
     1
 90
        3
176
     1
 90
        0
176
     1
 90
        0
176
     1
290
     0
176
     1
 90
       13
176
     1
 40
0.0
176
     1
 90
        0
176
     1
290
     0
176
     1
290
     1
176
     1
290
     1
176
     1
290
     0
176
     1
290
     0
176
     1
290
     0
176
     1
290
     0
176
     1
290
     0
176
     1
290
     0
176
     1
 90
       50
176
     1
 40
0.0
176
     1
 40
1.0
176
     1
 90
        0
176
     1
 62
    18
176
     1
 90
       50
176
     1
 90
        3
176
     1
 62
     5
420
      255
176
     1
290
     0
176
     1
 90
       50
176
     1
 90
       50
176
     1
 90
       50
176
     1
290
     0
176
     1
 90
       50
176
     1
 62
   256
176
     0
 40
1.0
176
     0
 90
        2
176
     1
  1
strokes_ogs.tif
176
     1
290
     0
176
     1
 40
1.0
176
     1
 40
1.0
176
     1
1001
ACAD
1000
AcDbSavedByObjectVersion
1070
     0
  0
DICTIONARYVAR
  5
86EDB
102
{ACAD_REACTORS
330
86ED5
102
}
330
86ED5
100
DictionaryVariables
280
     0
  1
1:1
  0
DICTIONARYVAR
  5
86ED7
102
{ACAD_REACTORS
330
86ED5
102
}
330
86ED5
100
DictionaryVariables
280
     0
  1
STANDARD
  0
DICTIONARYVAR
  5
86ED6
102
{ACAD_REACTORS
330
86ED5
102
}
330
86ED5
100
DictionaryVariables
280
     0
  1
STANDARD
  0
DICTIONARYVAR
  5
86ED8
102
{ACAD_REACTORS
330
86ED5
102
}
330
86ED5
100
DictionaryVariables
280
     0
  1
Metric50
  0
DICTIONARYVAR
  5
86ED9
102
{ACAD_REACTORS
330
86ED5
102
}
330
86ED5
100
DictionaryVariables
280
     0
  1
Metric50
  0
DICTIONARYVAR
  5
86EDD
102
{ACAD_REACTORS
330
86ED5
102
}
330
86ED5
100
DictionaryVariables
280
     0
  1
1
  0
DICTIONARYVAR
  5
86EDE
102
{ACAD_REACTORS
330
86ED5
102
}
330
86ED5
100
DictionaryVariables
280
     0
  1
15
  0
DICTIONARYVAR
  5
86EDC
102
{ACAD_REACTORS
330
86ED5
102
}
330
86ED5
100
DictionaryVariables
280
     0
  1
0
  0
DICTIONARYVAR
  5
A76FB
102
{ACAD_REACTORS
330
86ED5
102
}
330
86ED5
100
DictionaryVariables
280
     0
  1
1.570796
  0
DICTIONARYVAR
  5
A76FC
102
{ACAD_REACTORS
330
86ED5
102
}
330
86ED5
100
DictionaryVariables
280
     0
  1
1.570796
  0
DICTIONARYVAR
  5
A76FD
102
{ACAD_REACTORS
330
86ED5
102
}
330
86ED5
100
DictionaryVariables
280
     0
  1
-122.394000
  0
DICTIONARYVAR
  5
86EDA
102
{ACAD_REACTORS
330
86ED5
102
}
330
86ED5
100
DictionaryVariables
280
     0
  1
0
  0
DICTIONARYVAR
  5
A76FE
102
{ACAD_REACTORS
330
86ED5
102
}
330
86ED5
100
DictionaryVariables
280
     0
  1
2
  0
DICTIONARY
  5
A7765
102
{ACAD_REACTORS
330
A7763
102
}
330
A7763
100
AcDbDictionary
281
     1
  0
DICTIONARY
  5
A7764
102
{ACAD_REACTORS
330
A7763
102
}
330
A7763
100
AcDbDictionary
281
     1
  3
2017695780704
350
A775E
  3
2017695780720
350
A775F
  3
2018191370240
350
A7760
  3
2018191370256
350
A7761
  3
2018191370272
350
A7762
  0
DICTIONARY
  5
A73DC
102
{ACAD_REACTORS
330
A73D5
102
}
330
A73D5
100
AcDbDictionary
281
     1
  0
DICTIONARY
  5
A7768
330
86ECC
100
AcDbDictionary
280
     1
281
     1
  3
ACAD_XREC_ROUNDTRIP
360
A7769
  0
DICTIONARY
  5
A776C
330
87813
100
AcDbDictionary
280
     1
281
     1
  3
ACAD_XREC_ROUNDTRIP
360
A776D
  0
DICTIONARY
  5
86E8A
330
86E89
100
AcDbDictionary
280
     1
281
     1
  3
ACAD_XREC_ROUNDTRIP
360
8A5EE
  3
BUMPTILE
360
86E8C
  3
DIFFUSETILE
360
86E8B
  3
OPACITYTILE
360
86E8F
  3
REFLECTIONTILE
360
86E8E
  3
REFRACTIONTILE
360
86E90
  3
SPECULARTILE
360
86E8D
  0
DICTIONARY
  5
86E82
330
86E81
100
AcDbDictionary
280
     1
281
     1
  3
ACAD_XREC_ROUNDTRIP
360
8A5ED
  3
BUMPTILE
360
86E84
  3
DIFFUSETILE
360
86E83
  3
OPACITYTILE
360
86E87
  3
REFLECTIONTILE
360
86E86
  3
REFRACTIONTILE
360
86E88
  3
SPECULARTILE
360
86E85
  0
DICTIONARY
  5
86E92
330
86E91
100
AcDbDictionary
280
     1
281
     1
  3
ACAD_XREC_ROUNDTRIP
360
8A5EF
  3
BUMPTILE
360
86E94
  3
DIFFUSETILE
360
86E93
  3
FBXASSET
360
A4871
  3
OPACITYTILE
360
86E97
  3
REFLECTIONTILE
360
86E96
  3
REFRACTIONTILE
360
86E98
  3
SPECULARTILE
360
86E95
  0
DICTIONARY
  5
A7766
330
86ECA
100
AcDbDictionary
280
     1
281
     1
  3
ACAD_XREC_ROUNDTRIP
360
A7767
  0
DICTIONARY
  5
A776A
330
87812
100
AcDbDictionary
280
     1
281
     1
  3
ACAD_XREC_ROUNDTRIP
360
A776B
  0
DICTIONARY
  5
86F00
330
86EB4
100
AcDbDictionary
280
     1
281
     1
  3
ACAD_ROUNDTRIP_2008_TABLESTYLE_CELLSTYLEMAP
360
A775C
  0
XRECORD
  5
A775E
102
{ACAD_REACTORS
330
A7764
102
}
330
A7764
100
AcDbXrecord
280
     1
  1
AcDb_Thumbnail_Schema
102
{ATTRRECORD
341
A775F
  2
AcDbDs::TreatedAsObjectData
280
     1
291
     1
102
ATTRRECORD}
102
{ATTRRECORD
341
A7760
  2
AcDbDs::Legacy
280
     1
291
     1
102
ATTRRECORD}
  2
AcDbDs::ID
280
    10
 91
        8
102
{ATTRRECORD
341
A7761
  2
AcDs:Indexable
280
     1
291
     1
102
ATTRRECORD}
102
{ATTRRECORD
341
A7762
  2
AcDbDs::HandleAttribute
280
     7
282
     1
102
ATTRRECORD}
  2
Thumbnail_Data
280
    15
 91
        0
  0
XRECORD
  5
A775F
102
{ACAD_REACTORS
330
A7764
102
}
330
A7764
100
AcDbXrecord
280
     1
  1
AcDbDs::TreatedAsObjectDataSchema
  2
AcDbDs::TreatedAsObjectData
280
     1
 91
        0
  0
XRECORD
  5
A7760
102
{ACAD_REACTORS
330
A7764
102
}
330
A7764
100
AcDbXrecord
280
     1
  1
AcDbDs::LegacySchema
  2
AcDbDs::Legacy
280
     1
 91
        0
  0
XRECORD
  5
A7761
102
{ACAD_REACTORS
330
A7764
102
}
330
A7764
100
AcDbXrecord
280
     1
  1
AcDbDs::IndexedPropertySchema
  2
AcDs:Indexable
280
     1
 91
        0
  0
XRECORD
  5
A7762
102
{ACAD_REACTORS
330
A7764
102
}
330
A7764
100
AcDbXrecord
280
     1
  1
AcDbDs::HandleAttributeSchema
  2
AcDbDs::HandleAttribute
280
     7
 91
        1
284
     1
  0
XRECORD
  5
A7769
102
{ACAD_REACTORS
330
A7768
102
}
330
A7768
100
AcDbXrecord
280
     1
102
DISPLAYNAME
  1
Imperial24
102
FLAGS
 90
        0
  0
XRECORD
  5
A776D
102
{ACAD_REACTORS
330
A776C
102
}
330
A776C
100
AcDbXrecord
280
     1
102
DISPLAYNAME
  1
Metric50
102
FLAGS
 90
        0
  0
XRECORD
  5
8A5EE
102
{ACAD_REACTORS
330
86E8A
102
}
330
86E8A
100
AcDbXrecord
280
     1
102
MATERIAL
148
0.0
149
0.0
149
0.0
 93
        0
 94
      127
282
     0
 72
     0
 77
     0
171
     0
175
     0
179
     0
273
     0
  0
XRECORD
  5
86E8C
102
{ACAD_REACTORS
330
86E8A
102
}
330
86E8A
100
AcDbXrecord
280
     1
270
     1
271
     1
  0
XRECORD
  5
86E8B
102
{ACAD_REACTORS
330
86E8A
102
}
330
86E8A
100
AcDbXrecord
280
     1
270
     1
271
     1
  0
XRECORD
  5
86E8F
102
{ACAD_REACTORS
330
86E8A
102
}
330
86E8A
100
AcDbXrecord
280
     1
270
     1
271
     1
  0
XRECORD
  5
86E8E
102
{ACAD_REACTORS
330
86E8A
102
}
330
86E8A
100
AcDbXrecord
280
     1
270
     1
271
     1
  0
XRECORD
  5
86E90
102
{ACAD_REACTORS
330
86E8A
102
}
330
86E8A
100
AcDbXrecord
280
     1
270
     1
271
     1
  0
XRECORD
  5
86E8D
102
{ACAD_REACTORS
330
86E8A
102
}
330
86E8A
100
AcDbXrecord
280
     1
270
     1
271
     1
  0
XRECORD
  5
8A5ED
102
{ACAD_REACTORS
330
86E82
102
}
330
86E82
100
AcDbXrecord
280
     1
102
MATERIAL
148
0.0
149
0.0
149
0.0
 93
        0
 94
      127
282
     0
 72
     0
 77
     0
171
     0
175
     0
179
     0
273
     0
  0
XRECORD
  5
86E84
102
{ACAD_REACTORS
330
86E82
102
}
330
86E82
100
AcDbXrecord
280
     1
270
     1
271
     1
  0
XRECORD
  5
86E83
102
{ACAD_REACTORS
330
86E82
102
}
330
86E82
100
AcDbXrecord
280
     1
270
     1
271
     1
  0
XRECORD
  5
86E87
102
{ACAD_REACTORS
330
86E82
102
}
330
86E82
100
AcDbXrecord
280
     1
270
     1
271
     1
  0
XRECORD
  5
86E86
102
{ACAD_REACTORS
330
86E82
102
}
330
86E82
100
AcDbXrecord
280
     1
270
     1
271
     1
  0
XRECORD
  5
86E88
102
{ACAD_REACTORS
330
86E82
102
}
330
86E82
100
AcDbXrecord
280
     1
270
     1
271
     1
  0
XRECORD
  5
86E85
102
{ACAD_REACTORS
330
86E82
102
}
330
86E82
100
AcDbXrecord
280
     1
270
     1
271
     1
  0
XRECORD
  5
8A5EF
102
{ACAD_REACTORS
330
86E92
102
}
330
86E92
100
AcDbXrecord
280
     1
102
MATERIAL
148
0.0
149
0.0
149
0.0
 93
        0
 94
      127
282
     0
 72
     0
 77
     0
171
     0
175
     0
179
     0
273
     0
  0
XRECORD
  5
86E94
102
{ACAD_REACTORS
330
86E92
102
}
330
86E92
100
AcDbXrecord
280
     1
270
     1
271
     1
  0
XRECORD
  5
86E93
102
{ACAD_REACTORS
330
86E92
102
}
330
86E92
100
AcDbXrecord
280
     1
270
     1
271
     1
  0
XRECORD
  5
A4871
102
{ACAD_REACTORS
330
86E92
102
}
330
86E92
100
AcDbXrecord
280
     1
 70
     1
 90
652598616
 71
     1
  1
40185B36-0F3B-48D7-982D-717CF6B20333
311
504B03041400060808003A664750EDE4D2E62F010000A80100004F00000036434637344445302D434546412D344544382D383241352D4342313744333238423032422F4173736574446174612F446566696E6974696F6E4974657261746F7250726F706572746965732E62696E65504D4F0231147C7AD048E281C478E6E0B5
311
76B7FB8941CCF663D52860583893B25620D95D08DD0D578EFE6B6D0346135F329D9737ED9B493F01E0EB58A6851383BD392F0D3FAA4A6D5779962F5529E1CC4E8AF55C1637A6F39388399E2B104F028A7CCE62D42594A3346124E4247043B77B6AEE9D1B70F5219BA2B62B072B9DABA290955A37BA6D06478F4E296BE3258B
311
5BFBE802C0D2DE007E046D372D0E896CC89D817CDFDC3D48AD557D8F4396463E170E62224D902F788C629204885137E21E89A943281E2BBD6EB6B9D2D877DC38A05E889CD433F9631EA16E4C388ADC88A521258EE779B85E36F66BAE6C8C7925570576F031C26C532D46D3E1A4DFEAFCA91E664F82BD8CA693D767268699F8
311
95FF49D941EBE16926C6FDD681CDD09801A46FA56803856718C00C76E5F537504B03041400060808003A6647502AC143E71C010000300200004500000036434637344445302D434546412D344544382D383241352D4342313744333238423032422F4173736574446174612F496E7374616E636550726F706572746965732E
311
62696EEB606060F80F0540260323103700495E20ED9E9A975A94991C9C9C919A9BA80214303130B430753236D335703376D235B17031D7B5B43072D1353734777633733232303636664768046931363471713532B5D435353131D635313332D475727372D13534373670367376B67474B5042A03DBCBA019D37FE8ABC6157B
311
20CD04146B0062181F4C03F940F0C11EA29A8141C08141002C0426541C106CAC2CA046088033B02A030AC2157C6006F21A8018AAF50194E6010A610250382264E08660284CD9E98021862280A91564B406929A0FF62C401E28B6F88038B83CB1243943D7A928312F25350524C3C2F07E1F9002033D18032B6DC8C091CEC020
311
C2D0C26008971760F00D8DD2F5F133328D37350873F78832D27535740D012A0000504B03041400060808003A66475088E57597CD3F0000904100006B00000036434637344445302D434546412D344544382D383241352D4342313744333238423032422F5265736F75726365732F34303138354233362D304633422D343844
311
372D393832442D3731374346364232303333332F7468756D626E61696C2F302F67656E657269635F706E67355B773CD4FF1FBF73E71C0E67EF7576C9DEF3EC995D46C6A1EC5046649CBDF79E192942562825CE965D8A868C2842C8DE9FDFD1F7E7F138F7078FCF6B3F5FCFD7EBFDFEC41B196891913091804020321D6D7513
311
FC77D8C5070EC3FFEE51B21F068154CC75D455CC028A3EA68992803810109FDDE5D5CEC5521B28A1B422BF80741695D5B529DA1C2D058AD2388BDA9F476F7C2CADC939304173DBF48A452BF8A700C0C70C3D121C1AA15A5270C22E2B9E28763651F7DA0D12CE11077B2ECD0D560B5E3DE2368B1E65C5E1C87384A4CC5F2D9F
311
B8BE39E9B77C753783A37998F5CEF1B4FEE553463245C9712270880DF339E0B882A6BA713D865F6F384C842D440934EF264F4A304F8DE4EEFA1E2BF5E2D91F5ADD9613D6E31DDB33ED31DB1D7916CAF091286EA3D31B9CFECB78BB0060245B943C4C040119FF780A74DD308BA9D028678674EB5504ECF284EE814DAED07440
311
BAF649BE4B55DA2890F4D73E2D489A59EE54FDB0A85B59F2F52C4858A02705C4815A792B0C4A996A2023ECB195073E115E3E3647F64243A8338F2000BCB58DA5692C7E7C3D413F963FEDF3CF00FBB0F831A9D51360FECA43819F527B89FA260EB63C5DA676830AA3626A3693B23F1A17A0DFFCE3EE164E31B5365EDF0C89EF
311
64D8E38AB0BA9A1117D7C3A0EC44F44F4023095E80BA610DE336D0F99593A88BFC5306E72DF98F7FD132ED95878DF2964EA7E43071359FD83B2BDF9C6B5BDF768F0F3C0FC351199526F53D9460A34511F75D1B63E488178569472C91A94497807A3FD4A390C6558F26D416365C3656DE6E769DA9D8FC73774E1709812842DD
311
8EF96AED1960F79D21B395CDDFE6F92CB4EB962A4668C76990E2EF29798C8941D67DA50F4A5F947872460F1F6FDB794E8A29FD7AC0C0D6E0714339CE258FB17AE8535221E3464A10F29A0BE5EEECEFC5675926A89F49EB14E5711894F6586DB5754EB4D5DA9C6437EBA57DB97A24F8B8A8DB295FFD73266CF57E82694DF516
311
6DDF93573AFE9C9C5EB05F8FEF8E89E0A8917B0B3724DB7BEBB53252581EFC3E38166BA131A3A5B42FE2AD00A769BBFA4458D2DE7822F8C4F63D0B8E21B285AE13325F3410A435C648C9D91FDEB109E73CEDA7BC796961AF79175E1A3CE4C5E8B0D009B0C9E29EFD98BC8E97554E3D8D838424E270F7685226E5AC268E021E
311
DE3522D583E8F20C0BDE2959EF5BBFEEDAB32FE9A3ED0E39F211A86AA9DEBFC68182EDED132AB8BB794442D2D7EA9F4D8BFF52BC4D55BB165124EE90A42D101E67BBBB292FFB4F66DE5BF2300E44546757DA7CEF8932BFC9F92A0707953491A55C5A5ACEDABD9FA1AEA01BAC3DC5A24E22E7C47213493996EFBC369D086ED9
311
397C9BA6C7F9855C7BD5E15BFC8C53DB3D2A4C5901A57ACD2FBDF4D1676E95338B2C2BCE65FDA4C64F5FEFDC7D9CA5AA1FCF11E193F2FDABF0F4916BF13FB916A224380E6462A9815F2300DC49CC4DF8D055CEF76462F4B7A7ACA7365C2707891370BC1D0AA6203C44CCAB47084FEC057F27FFCD57F89B8B9852459798A675
311
C66BD7CE572CAF71FF7E6D7ECF7BF62CAB7B3F1107DCD04DC55A3F9961700286141C94A4F771FEB2BCDA2DDEE0CB0BAE402FF1DB0100F8E475DFFFC074DDB4498AB7D186A7654DDB1CB680D703D47CEB4E72F8CB13D86A4AA68116E26387B93FD6738779B34FEDB8E517EDF2BAF28D9BE93A1D3A164320E07D42E514725C29
311
515FF361754213EDE06B079A2E99EB1CA82A02019EADEEB87B9AF005BD04BBCECB14AACD6B24EFBE482194A97DD32400685FF1FEF1544D1B14EFB1E7F08E6D2CD2AF52DE757F35F5E62332EE88EA26417AD5C3E0E319D68F25414E6D672BD4522B278C57D18F0113921C71D96527E091F00CEB15AE23D24667369BD3CEFA10
311
C7549D930890BA4366F4EBC55F01F746109F98ABCDD5A3EE06619C6AD78AB33E48E4C9BD21BF7478B385EC05C4F8987E2C1BFA0A60EBEDAA0AE0B015C2720ECE180FB6F2DEFBEB822D96338C9B63822183BBF52FB664A7AE57003AABCE512BF77E7E31BDA2E739AC4C131657DDFE5225E900FB56CC01CDE808FA4A9C9DA16A
311
C679656BB64796283D89812B8F91136AE18EE5EBBAF47A73BE3C153EB5D4CD491B4BFB4FE690A4CF9ABA08C0D8AA64220C438C96EA6CA80B58FE5761E697B3A292EB9FBDA502FA863E49FE694ADDFFF9D62C520BDD1A22014147A0903A05B9B729F54272EF83931FEEC057BFF8C8055C279EAC5C0011804828734024F6CFA3
311
19C9CC6867C727184465CD9BB7ED386AFFD96B294A85E3802FAE47244602D8273615952B98C4F23F7EAE4463D9D638EEE374A20959E0FE519C4CFB0FBFE5DD80C2AA3F9DB961D1BDE57E67C9BB47B77FDD74EE3094F5DBBE3EBC1FBDB7393F5116263009E2EFE1AF9A221B2AE234C902BF70E9F280ED23E739083615659643
311
33A3F01D0B006AF32FB21AA1316744B489D5A198E85299241735BE559675130955C902A8ED761FC0DBE337A9F91919AF5CE32AF902ADF9AB2615E00E8A94586BA1A90839B61832FF1BFB76D2EFADE6DB1BA04CCAD3DA649E7E2A0219F592E22F2AD54847EEA8E42271011E9074F8F3DD9FBA6CDF88FFC9FC7E811AD1CA8F45
311
57CE4AFC7BBEDCF0114A48689F20A584520C74DA8127124B767E2FB91A6B186246727BE63C9445BAE02088D58B8EFDC0F1072407CD9B89A13F6303B4A928F593AD489B58E6869325790ADC406036C591729FE14021F94B7796BB11848D463536A092A26F077F94639F7CEEE2A724C66EC885F4A24F8B8A0AC321F8FD149BA5
311
29460FAA34E4663C02D41FDF80BCA222D42F0ABFF8490F4FA74C673807C2051D8E467B47B616072860069A9A303ABA9B319D58404461401B0A0F9BE5E1E151C14BC33B32ABE03DDE91708DFAEB15E7C0D593C86BB7D7EC17BE56E57975F077BFD5525F3A1A361D584A75E08CF29FC7B44B2B3085014F3A5A14517377C3F6B8
311
F37E59514C3B12F8AACDEDDA4DFC49BE5710101534CD6FB6DE15B50F11A09472AABA727F0C49D9CB906B158030065F48EB3625E010CEC1D511D0053474B11E6A4F01C0D6EF1BED3A944FDEC70E0DDCDC756C86545910E0DAE3BE3AA9A404574C2995CD5CAF9549226BC94B4F4F0F5F9086F418F6B32346464610D8BC7391D3
311
C3A3CCF04CFC1FB2A3A3170E369511868F14EEA4E5E438CC73DB1F3248AA94B6B2FF33B222FF3D1E7BF146CAD229770158063BCE4F5391964DF62F7E52A7BE0EEA829C9E13C4C147D6F93FE59E111DAB5E4594D6F3CD1AD375EE039930EFE5AF2BB2D41C83C7DABD8C659BAFBE8FAB392CA634F3D15C1D945DB4588D2B0824
311
A4EC928AAC565557CA2F0DAA588CA5BE30B3A8004F7BF005E96CBF891D7F18112A3619FDF530DC8AA64954258E1811789B5189B49B4EB53F5F89F7D37523894F3EB57B373763C91E502F52CC99EB7BDDF933FC324C4FFC2561DFFA7339FAFDD0A4BFBE6D3A8FF9ED1FC49898139864602458968913181918F719CCF5A68B2E
311
E9C1FF050E34E63107003B8120FA982C21B30A874E4F5E4B38D5A8290C4B8D9BE48A0BE31EA995BDC37AC6DE90BA17D259DEF53605D55922FEB1855D915B659FBEB350EE0DFB2F9F766E1C84CC8964B75D08667445EAB966015F63A18A9E0A325C1B3DC628C0D3CB60F767FA93CC65F25458BD23C3B312716E5F40E5858AC0
311
6EBA9AB14F95DB99147B832069201541D09A0D856E12C629CF32683760EE855537D1901988D5EBC156676C7DD51D7207CF3267AF1D76C2AD867315E44618015313A98B19941C696FED3461CAA9B5415F918556D7802EDACEFD6B2E45853A9735DFC9DBF7E440F9319F8B6805A973BCCDC76C069A9144E51F187EDCC12FC31B
311
5DEAAF0A76137199B106EC84ADA6B6EE697D4E6A96E007417F4E880E8B1E89B4BCE9D81EF611E2ED8F0C1A6C25F620FAFAAB656A7C42D464880E8AFAB0E0FC8EA38CA9A8AEEAEE3E4648BA4680270A89743CDD3E6C6CBF34B7B640EFA285ABC7EA0A1E28F3CC963D114A80123EE66D0AF7D5380EB41909B605AB4765B709B8
311
08590458157E69BA1378FEC4B48CAF6A730E3BE3C5EF2DD1A5EAF94B1DDE50CEB55DDFD7EE9A16747FA4B223359FB1FCC69E1194892BABB93A1D5C4E807AC0EA2E30180811E77A2291F6E7F7FAA5E0F60215BC6024E48DE436C511F0628B8CA189982D4D83CCA17D305A7E923C37941CFDFDCD93ACAF735EF5F0E61BBD3E6C
311
41A59B242790D3A3BAC7064DCD89AA2E37214EC839820949D5CAA31E240D2948E48F690298974A96BA9A8432BC90F5071D6537C9666EA4564796B7AFFFA548077BEEA75F63083435074BA182F3699557397F71548383FDA8CA34D99B981E72835ECDA5DDDC151315173D05A21F651AAF8524E88209E2E7A737ED1045800CE3
311
390050BCFB8BE588DF111617874C62575039CA588EEFDEFEFE319B739DE2EDC147092A262611E159650E787917885EF08F1F51B8F2D8A71D60B58B190FEF9541A1BE94BC19FEA50784DA1419FE4B0FB51B8D36B5FF8E1286FD8AF42B91E59A5F1CC4D60174E764045FD8C57B18209B217F89A62252BD20BE0E63E12B8E8F02
311
9FE19E0E8D0870F58721A557082250D5424F7909369376E41666C0EE77CD87CB283F661D5FB6D0DA023CB67320A20DC7BE661E9E1BFE5463085C557DA1FF9BE835733766C3D139F2CF9E2208873AD0EB4814DE9E6BF2CAF81614D4D43906ED1C05A3265CABBFE192770FC2F64F940CB6B17B5F166F133C9AEEAD2641807C3E
311
69515171DD74C4A85311513D6EC9530B3B601B6BA3EBFF3B5C3D2F7D69765141E345F75433953D013ADDF8F6AA7DC3F4A7563FE5C7D367937E2900D7EAD0F9FC9A4A1A9B5BDF1FEF08532660C01C5D6DE22199AA774383E306DAB87E301ABB7D213887F9869D4942D0D71E94B27EDF216A318BD488D45DF84529EF575AF3C3
311
938C0AAA0215B01994153E2054A0B894DA5C784980633AAD48576957CF4AEAEAFADC7C587368551C73DBE1E57C58AC713303A8BFC258BD04B51724459FF9E24C03A81E0E0679CEB9B348C0DC998FEB9C6D6EFA77D247CC8F92D3848599ED89A23218D0636465AD1CEEB7DC140D7426F83491C4E8E8281C2FB35240918FFECE
311
880CA2A42D70E8B20B34DF5221C7DB0CF90ECCB9C745B37A47E9B716FF7A97B7A252C1F3814DC7B1E1A7F72B8751D524EF7CAE45B0C73B3BE7D08ED39781B380DDFC9AA4A4749C9493DB5BAD07A6EA6C092FBD0E85DB004DF06B8C9D3089C5320187E4CE1846158C7EA7DDAE8AD9AFFF21AA3A1026BB06A259845E8232DEE6
311
2811A4DA9CEAB3A4887320B76E2AE5615EAB7BDF738CBDD01F1E64064BC13D9EC53576751CA8CACD58B3CEB0E6CA585BD089B2A59B9FC101403387AADBDBE70586B93D64BF3AD4453EF9C3B6A93817E8346991798601344F79A83C51F3D50F7BF2683A3605F51A72449489E0EE6169C749C60B1035651103AEE24D24E51A75
311
9C840DD3FC6504DA6FE107510E447B43461C79D22970B75DE5E1BD3007D1AFC619A4A4A69B5626AF5E9B8374E20677F77E2F8E73DF868E8BEC7EBA7B6A75EEF7205E1AB9486CB642741D6E03FF13FCCEDB1C4AC129886268B01CDF4B124AF797CF784F3C6DEC97A17D4B558070A0F1C04DA4FF9BDBF34159AEFE958479824B
311
3F58EBD1E19088A2AFDE501B6F2052368A3FD0E650A179EFAB1561E1D27527077136E652676C3670F42DCB3352F48F6BC86D2C3B0051727E41A0A4DC6CE2BE9D47F5CAA2935A3C0539AF080665997194ABECD723B08129CC5B6B21D2E7D54CD4D12610E7E9FB8306771A89576C7A982002775ED44F3F744CF21EEBB27A6316
311
71D921938AAEE3EB0D19CD1E083727F607823E817BF599DCED5394E37EEBC2E88782E638920CA641EF74D4CDFCDEF06F4278ECB18E31E7E9876F2D783C8BF429C75395F57E98C2B495A3DA077EB3AC3C158608B6B57FE3EA48484D9A480096FCEE0DE880950E7E5A5714131C5C41AAA29FD19AE81AC145FA1B9E85C7169A5A
311
B837B213493DF7E9AA4B5FBF9CDEB36EBD21EF1181B7CF7366AB2A951D01E37AF4EB835D1BE8C117CFBE7625D2EBCDB0B20C5A4B45CED0BCDE3EE8DA9DA78C2E21DEAAFFD1197E463C33CC6A80FB785669B856EFF7A8CCCA2841B5A5369173320B1170C368B2748D81062EA0296E5E2D95D7667A4A46D98A6FF475C76AAB0A
311
8C8D45E226FAFC9FE0133EA9F60111F99CA81ACE03A1D14C89E8B0D69079C91464FA1D99E651D0EAF606F345C42A8A1AA9BA391031582B96D5B4176A77AADB01F12FD298A75DEEBB2C82F0B8650E880722F8DDD90C56A7A058E5FDEF1AC93545BA27367C76F5D8F9690CB6F8DAE141EDD7971F0FB548A2AE435F224D6E5954
311
CA155512F7332029D5A1230854B79F258EC5FFDB09F5F6343A8EB193229B7F7E79B3E48F8E183860B38C8269D1B53738FF1E0BACF6AADA6D4869E9DE708E79B5DADCC09B1BC76F649731CFAF59A83FD8BAE4C749D66FA87A3810D4D62FFE826FA400C0F325D2BC0F3CA35F5847B82A2ACC7961745C823E4D863D54460AF792
311
CE6F79B5C7A33B25C3AEA6CDE15A919B6367D781E9D44F61BF828672594A3E1D9EDD6DF179A81F27EAC05B936575D73E05C209DDD2115CFB705DF9BBF3C911589B3640735E9E618FC9C36A7326C82B2205E244C55D56FDB9D5DC93CE958D4BF8174D2B3DA54CB3C09F2C2A6DFF73D23B2197355761AD421EC581284A7EF8DE
311
2CE3497C0C804D49B41DFD6A7360844E5BEFFB495CFCDB97A4595911CDBA623274CE852B5E278AF0BEB1770E9D37CD977B2766A7DED0E94B840E1E95E8C77DE5CB6354AF7871427C28ADBEEF7BA0A28E19DE9ACD75F379FE373EAE6DDDAE3834692F9C2B03B4FCA8FCA9ABE8EEEBEBB725B88A7C90941E850682CA04061A7D
311
F0CE82ED49BFAFFD42C309818FAE14755CAAE78B0F73243ECCCAD7DF58FCB9CDFAE7A4D3E6671A613639130D056C8383C8F4FCF4808C331E544DD26E4755D09EA05253B3049A1E32587CC25D72E073E2CD96D04A71BBCB0038FEC3F53D254199C3CDC67CD66640269431860225392B2CB3ECD0B4498AAE78BA1994246AE1EE
311
78F2EDFB79F6C6CB6B5E279C4D373FBC21CB2698C9ACBBEB6A4BB6B39E16AB0E421CCBFC7654D81ED86022F9BB522146F9F4772E2D0E4FA70120C95A85A417BF5078B232F4754363EB1750B2AC2148EB46B1EA72AD9B4D23ADCBC589D70106C3EC2ABEEED84DFE28E718C6C83502C28E9FDD3B09DA0A6F6F7B72B706A31C9E
311
2A331EE70DA56A083D2177BFD63C55B11D8D949FAFCF90B23A1E24B9B5018B9A17E99F2890EC302F330FE7936E2C23F0D237EC8916F5166AB84B62A21BB0B950146962D754F92CC2C8877BED8FC7B7B25726DD19545392570B3A2C66B58F027BEF412E552D12A588C4A3CC5C3193FCB3485EFFF700D0B9EEC077754A33DC1F
311
B9E25AF814628F91DDFECB667D3F7690803F38D13F8AE39353523BB08FC6760144AFA2CE28236F65EDBB3D5F59A57D612B99E3D7E5F8A851666BF9B5A6658EFC96EEB37A378ABB0EB3FDDF1303AF32C41BD1C8560745D7BD81066B0D6313359CF488563D3BA3F8E2185D1FAA3EBA1397C9D0E3DD232180A4DCADB6AF25DB3A
311
C3CC26589C8239E66E81547BC7E2F328F9884764CA37EB5DBE390DFC03A5246B456A7C3684C4377D0EEF9A350680FA9A077E8B2957B489E09AB1AD41316944C2254B5984830F691C93CAA767EECF976FA5647538830B5E63236A6F0365C1E0F3E327F24FE35EDDBD7360B0F7374837409F7A6311BECC12B7026D4FA1AE204F
311
A3F5FE904B1F420C7A9044AE58E403E7C4848E7DA25DC9EDAC79DD756FAA26B9EA83ACE8A214A2612A22AFA19DAE7DBAC5F8CDE1292A485F98DAC731A29FE01A3966E96BCB9FB5A4C8830E1B9AF0C54B87FBE221A097036E5D28D1F869F810C06A9BB0AC0612F69AEBAF893C6E7AD59460208BAB3A6B09CA4F6BDDAB8CF0D1
311
F84B72487498395A70DCD754796E271099A567A55CF242BBED64696378BB6CF25EF0FCDB589F3A82F1116D010A9AB9FA4358809EE0C973A2B4229BAA876A70B03AB49CBA7FBE71DB1832FFD32F9BF2C8E98075CACAFB36921235D0F552B6A67E94E094097A5D7DF681B40623DA535ADA7A9AD8E9A62407D7C9A5AE51D62A17
311
A83A23728DE86BB56115804D3F2675F2C6B87541A0FC497BF0CA86420F558C9859EBE9FAD62747E323E3AADC03FDCDDFE7407B09DA90B44E3185723C5381EAEF589765E2F7A099BA46695BAD60CEF3491B8A171F5F56444F7CE9455312C3498C74173AEA0214EC029833B34B650CBB5A5508D5091665309642791708ECF27C
311
F11DB3D797D6CFE474453BD4BFADB768094B2147814D81C7CBAF8228DCAF5564B5891F5EF6A860EB2E323CB82AB868D8EA048880D63B0DE5341F1B3D53297B928A11E15F25E5148990F710747C3509ED14909C552EBE3973246FCE55D00564D8310BC3EBC5085D08D806799B77D6C57FDF5E55837F9E934F09C03C729271B6
311
4F12D0A9F9E938107CAF7BF1EC8CF1BB9B42363D33070F4CACB425E605DDB0A34A12BB936DE286B9887A4E2E558F0886498BFF49C311D96C277CF6A9FC0D75AD0ECC5226D7E0E3572012E56D7FDE4410CEC7A6D0F997F225A2055B8B92E3956E875AE4993CB3D4C9063AF98FD45E1BAB165640A43439A2C9181A7C355B297C
311
0A0CCFFAE19B6FA3C2BA238A885FBC98B8F6DAF4B94B97304878DF4D8BFF6A4AEDF79E90ED4E68F00CD7299F4E0D83E35601AF0CBEF18C1E870E74758FA91F5131075004DB3CFCF09AE1DABC11957FD9808C92E8A678CE9DBE40DDA0E0D1D505AAFBCBA208232BFB6FB3704E8985E61ADE53DE74152F5C7DE74B1DEDCD37DC
311
3E8FB30D7EBA8B9EFFC3606BF90B8D438279CB7709FC7C00D327F41817EEA71CD9E49FE9C8C9A81C70915D9F0F15958EC5AA4C3BBFAF46986B90F188BDB24B89DE3C6F29EC3E6F66D84856EE96A35E657CA41B41EFD8DBFA16AD6E91439EA92B40B21C053249F51AE50EB0B24C770FFAF40DF12C8436366819C48E36547D4E
311
7B72FE2BBF10828583057814A668BDF183F6B2E58DFB151103E56303E63D00F39C27C4661605DB644D19175D02E3F0241E8FC3458D17AAAADB117CE9EEA690D0DB01E634878C04C2C9310B69FCAB831151E3AD293BEF6E46B0ABCECB50F5939B39C613D41E81FAE8D34CAE3C4566B761D37185FE864AC32FCB71AEF39DAA5B
311
AB88609BB980CD2F07A8F941653B529567726E2B2A58D079DD57E1E5E31426CF184A04D7B03B985F276D47406AF276FE32E3328BA866EB1FD39BEF57863A317634AA5FE467409B3873F5069EF0D71AF00AD189D17BA1974ECDB2D623E9E14086386A6AAB5807825C37B015BFE892AFD154920EC437EB945D958E18622E1E0F
311
E2FA06557CE4BB9BBD05A2D40E774DA2B65473791E314B7D6C886820B2FCFE4AA272B3B8B15E7344A145E8AF919B5454D89D36D413E87211186BF6F645E5EC94DCCE8E1C799022E4EC9BC86D7A0F2AFB1FC4B2CE48F84B3F49ECE65BAD24CADCC07EFF39AB06BE9E6B27A059938EA7208838455383DDBCFCD967DDE4650EF9
311
2A14FF933C975DB20BD7FEEBC4487576485963D757D16340D9599FEB362F775F38CA4185A86F74B629C81B133644A3B18FD056E997E0734F9BE26D11C0AAFC669E2AC9FC41D281F8B2E1C35AE27BCE05F3DA295488096688719D974DF1B5D182DB7792288697F8763CFB43562C1CDEE11C4AABD5C22B6E33F6F389CFC3477C
311
5919DC0D533F8A7A1846B7ADB60ABDC26C43D0CFC8910B7C15EE22675BD02702ED39DB77A87A192CA7A543E6205B979B9F5A6B512A3CA799E198B2D5797C0AF8D1D872CA455D4D431A7879D4DD76110B5FF7F4176B54477A9EB5E4A5D11214FDA585F0382751D8E2582BA5D2075053298FEB8F1537304E32CB22C2E2B693DC
311
0A760B1DFCA751BDC445AFDCBB12820ED85F6D5298933C7EF1211E9E057684056CDA3FEF3BB6052355E162DF27C59E965A8DDB7F9437EB72CDDA3A090DE65A5B2F50326247B7EC67B73ACC7047FC9B353D6EE990F772207C6EC52B39DC2F3C0754821DAB559F7C1809C7D0DD5B0499D0442E0A6E391B3D5DB46D11E731E679
311
4EC77523FBDAA242ED67F9FA1FB684255671F63C9BCFE6E7E896D51001A6113EF2298BA494E0B0980D1FA5B9D60796554C02256B1E0345FB7C6186B6A19D2DCA270416262845FA4F42DB5D9B0A0B6F07FCA2E56C242522E001E0CEB734AF310FC8BFB57E38E03AACE93B3326A2197891E68452B26A6307FDABFEE0223D3C03
311
C3C73D2D5BC054C8311F12004CAE488E5C29287F8156A2CAA4AD0D7BE6B97264E4139F437CE73ADF52E5134C52B819777C18B323A5924E4F67AFD13B1CDC3A61793A79FAF5C0CEB718E441071E797C6DCCB9EFCF7E4A1E9F3DF3C2F9C9E8294E9586868788C972857FB0556D7A26941A7EEB9B580AD78EC40B85DC906B4120
311
A563CA3B87797ED612D3B035962BB75F6515A393F4CB057F564CDF54F2E5A024514E6A1F901DB80C7E70B1FC05E356A7E72FABF4775B3E3FB8F70A2A8E7B6A94542BB304157978CCC999E707A29CC795E67A59CC546A5D47B368954CA7B6E75EC9E1F6FC73CE3B4F71F8CB1A6B15923D61EAAEB14626AAA9D04A26EB9C66CD
311
1BE86CA31A5D8703DE04CD1EBCE4F5CCB62F93909AD11E55799A781A956ED27D3E738F4538CB04ADABC7DAEF20BC35BA6A90BCC1DC61BA05F20D8832FFB9BC9B15E2DB838A0AFBB7E0C82A562127E0446894F427794C3037186F622BF24DE1B00AA10A23BFA47B2A180D6DA5AD6F7326FEB8C100C2D7142EB2A0B2A9D1008A
311
09BA343D70E054AB69E2A7EDB783CBD92537FAF4A44D1296AC2792729104B3276C276C951D0CF3CF3F1E6B017720A7B8505A5FF9589365979678C36F1BAF759EAF57C60F1FF5FE9DCF5F8E764FF25A2D06CF25117A8FED51884C13B2B750DB0E4F5E3D64124FCF11F0AD8F1CC3B3DA4B38ED22BF1CB2585EE6BFEBBA63FBFD
311
44F9537B9B37BDD6B358720F98A8125AED4349CCFEB0E135F19E208A04CA7E2B10711185D72E381F448036EF57C9F874E54A971CA37A639E986AC0226DC5AA00D5B14FEA9192234B3DE617814FC221C92F33F1D392F297731B567FD98FD91D989379AF567A65B8ADF177591DB90FBEA99BF4ED11B16E50A0AB1DBF1156D034
311
BBE04D69D08F939D8E92BF525A1DDAFF80ECBC95D8F45D3FDD289FD23F7D8B452F8EBB34EC082DEEE68E18EDDF072060FAD2AB1504DD4879BF67099FC58F6E9DEFBF645D16334A3E9A127C6F1AF6132CF287E433B43A0EE93812B4AA0B194E03EE3FF91EF9C6ED0074A2F6EB18A96A7C9890B1FCDA1F2095E944DB911ED54C
311
60DF16FB74C8CE9BDC7C54C4F14078CF73C2FFF1F1BBCCD7CF64F71407EA1683DBC410D226627F66E509060D5C0AFD611DE681D509DB8DD12FB1265B03C6F5C55FF4C30BD94187FF692B4F152982502F193098A789526A038AB529A52BC0DC4FB6285CBAC10A8B8DB75DCD9BDABBB221E27D1F8DA9F5EE5926A1C8AA9BA9BC
311
09239C6A7F12914EA3B59EFF7AAEC3FFCCE56F1C5C2980AD072793527565E774F4631DB178CEEC691B1F367BEA0CF2907E1D6B854D527065979DDEF002D8B2ACEA7CE21AE297737EDE1D45B31233B73FEA35BCFDD0B09721FDBAF6432681F2FD10C3E9EFB246FD6E854B344ACC9D8A0EEF876A7314B49B6A499FC650B099D6
311
50DBFEC7638ADFD245E2B7839DA5AC5F7D5623FC0ECEEC8653FC9B2BDD1AD4D00A566FBA7186DD3C9CD26512551637498CADB950FEC71ADB9A5524285DE328B8EC7EC75D2345AEC6A27C42AF6D9B92155315C80DBFCABBB7DA0FAE425C4FB896B15C9BFAC4FE67DF5A23D30C93DA4D8F36FB15D100050DA6062E22AEC5F4DA
311
C4F6FEEF97AE05DE63C6D38F9E068A20BC5E3B6BCD75320C5090924E7F93640A7735B1A43451C2D91EE62C6238B797349E59890AF3A520DF4A87095F3ABEC2E61F0593416CE46CDCBE0E00E2523FCCD04408588B5B6C9DB6459C786CE378770B54F51DA3A5E1DF2A3349BEAAC234A6CF8993B598B3B25B4B113E353A4D750F
311
A7534749430F3EBF2512E7EA3FD43C6AB9A1F765A58463B306721A15D224FAFE8C6F5E3432D57EE697DA0DD5A9D4866A8BCCAAA9DFF1F06047851408FEC060471D0E3EB86BFAF46E4B5E60311DC3E3CEA147C75CF971BE74689507154FF2D2E92F15CDB2B9182B11459FD8ACAC5A85F174BC94A7F4EE4C4F5CAFA7C02E37BF
311
0BC77B7DCD0C047BC316F562A01A441AFA7931CC84A28CB9F4AA367EB515778F29BFE61195FA671F4352E5E46E3A64773F1F76EE5EB36D7BCE9BCEAD837A4D77F8DB8C92AEEF6711920D7C7D0F76B0FD0EB7AB83724CD35BCA7D36DDDF5FBB7FF6F04A91F3E2BB3B8F1A43CD659639507FF6331C5F697BCC782AE57D757A27
311
D97F1AB9E0AEDB43F92F1B2AACDF5FEC8ADBAF9F814E2027003BA2F9E144B1938A7A04050AE5D953B82C45619165C813A10E76DD6906B3C16438064D14CDA713AEC420034613E1AC7241904A49FBF87409AFB1FCB9B72FE7933A87D8FBEDACECE4EDCF6A4FE9FB94D5DEB74FAB7CFEAE17EE965DF980DCCA2D04134994F9A2
311
E94D2265DA4FE6AA7B7AC15FACAC2B5ABBCD7DFF542C5314FDAB2E1B9D8B65220B8E2B638BE008E8DCA22678C820C5053664D15E89F2D735B51A84955E81A443545E9FF787BE0FA700A76D136C27DA179A7C6E8939E01BE756E19CB292798063D8B97F44E8A27BCF3A614FEB8BE974A718E86F7EC99B53CA35FA24F61F2B07
311
266684623A3D4CF073E511F3A10A8FDAFAF0078C577F4DF9D339FE7862E5FA47CF4344209E5BF76D783B1B48E152AD281B15FCB934DCDA49CEC5706B1EE8B460F435324A5CAD154725E21AB8044B75A557A79F6C807B9340AA3D92503E866F4274412926C8C504E4D5EF8C0E68DD0B028781A6B4054F11CF18941F101C57CC
311
C796773ABC8DED9CD91FE5788806C05E548895354AEAC96546D55B0E94A59F148D061F42AA398D822CDECA4CDE79E13469BDCC44FDC990F366BA5978C15F97ED80CBFD73B0CD9B8B83A4F6845BDFBFAF034019473FB9A63BD55D3A4A7284757071574029A4D016DCCBE95DD679EF3C4880BF169422F8C89B68A988D2B13793
311
CAED4F74DE7486C72DC94DF46B8E93D8E02EFCB1FF9B3BA10C8AE7F653DF94F4AF466CDDCEF5776687F7C4C14B63E4EED1719DC2EC482D7DBCC7AE518CDE3D5FF86D39000EC3673C0044E1D308BF05F74D1B5F033A7D1BE7F74BC55BBE3E4A20F920946CA0271EB17BD2B80E5660ACB8A29A79F5E4BBA49D4D945B6EEF4A7E
311
FEAA65E5555BBB57A7E15D2F83C69F30BBB978D2B39F1F26FC097424D39BB33CA3D87ABF64E307938B685BAD44F71556A30B7E712CA4FE600613C3E554B69ADE949A7CFE214DF1FFF05CB82151EC6FC31950239F94CF7AD39DC473F6EA356E5EC2C4EFA04383CEFE985A127484366FBEE3C0EC4FEA363E4F6632AE781392FD
311
45D67B63FB8DF70E82734F431FD3443172A0E30A83D60982D55FA6A2CF86DBA8382502ACC6CDEF3B907982EED1160E14863FA242F9757347E1544275CCDCF71ECD5F8621CBEA326B8BA884AD7F825781923E66971F04010D574C541D8427A438A37EEF8AF88240EED7362C953F5A81DE2D56109CDE2524EA0F5D2F87308C0C
311
47BD97AD605878AB8589E17CA83930CB5E0DCCD75853D68B1AB136594926DE426C367428E9334AFAFF90ECE221BB5DC9E5BB53D2CDEF954EAA9CD814F0E5725F1965DD458E5F8487683AD86B9D0076BE3EE91EB1CECC5331A67A3F79D8B27587C12EC2A6A70474749F27B4C0BBAFB94B34189E88DC18964BE4121B9137FD51
311
6C7755356E50D6714E31ACD222621EBBCD1CFF81D87479056A9DA0E0B8EA19D24CF937DA89F78E8650CCBDC110AAB6C4E46DCBFD0446BA9E2060E81F314AC2031E88135E5476AC0160EF5C0DD2EEF1B8B5CB2D198BE9A554A9093B5F7D7E4B5407DDFCA1D9C152FD97F55BFFFDFE802954DFEC8995B983E28AC92F1971E28F
311
531DC407A1280EB125F64A72E617EFB27DFBCEDCDA2D6F2BDADA36873EE46B9BE1782998C63DA7182BC383FB6FD15DA472B175D7E8B4FC88F38D6E07FEAA3FA3CBB8F6B449ECF14D2175E5C5CCA3A42ABF24CA6C9395AF74535F4DDB38CB84F56614B0FD32D7E19CA5CF988DB4449C40E23DF2B16772594554579094450F56
311
F253CD25EA7F77366FB1CFE79696C428BB64D5A41E986189427E5E4D7E2DAE3D5BB4972B3DC44EAABDDDD63A2264ECFA5C786EB0EE1FDC5BE34FA0F08376869FD1E61EA06CAE15191135445EE8F0394161C3266A596AA035572BB0C8876180D8B9C77D307DF9DCDF7365ABDA6F3A2366436457A4DFC1F259666569A9E4A79C
311
817BDD5610E5200FCE894A358EC72858D50EF67545DA81C6FACE3D457BAF70367E1E6BDD9A952FB4F56247F58F523B97E640246051A72F79BE42FFA0B3187F63097F91C48B868586F714B0EBD5A00A8412C1236E1298F60C72BE6C96B82B404CADAA304AE9F303176B14BA53FBC2D5E86377E35542019E24D97B96A49B2C0E
311
5006E7795954DEAF5DA58958839043C6C70BD3B1B33B6DC5C31316D8A6923F142E26F6711A2258AF977DDF1F970ECC4F1F2B434B96D81BEB6E89BF3BBB3C7C8CC80505070723D6D7D7D3C8CA27CA164A26024FED94B12A86031867241DA53D929636DA600F050BC40CE48B8BA03D69224720DEE2ED2127390BDF5E6EA64527
311
BBD4C4C63FA76BB801FEEC0E61218EC98A8A86CD8313781617877E66692839B9468CF4DB8E50A73986E558E309C0D6F676F921BE02F1185454DC75B111572FF9D27D85EA14C05AD7271225B391C4275659CA4A43759D0BA44639BE4C30A84DB7F67A41399FB95CBF923B1B1672ABC807C1590557FB18D811983FA97F5E6095
311
16D62281D38B1281F68FC75528C35E4CD7DF0F7DBB5E5DD69C414EBEA2F4A5B241B996BA77AE6C772E367408C633EA3E438B68563EA8BE7667F3A4C4FDEEA52ABD78A2820F443B7914A15F180018D231E64519C56A12F6CA7C8DAE18F06F6B769DBF92329EF6A5D18FBCE600F36BD8E8198DE5CDAA96181F3A756EBA5501CE
311
E58F497EA4F418A2B82565B9BCC611713C0B708CCA1F398B78C5F7D03B3437CC18F13061F55C7BEDADD5ACB1DB0E36D3CE47FF6EA1A563A57E9649EA5D14D1A50EAA457463381C073777EF1600607BAF6428A7DDC079D47A204EF1E1F1F0589FB054D45E02CE623B3823C317C601E589E22B1E88B448524B86A82828E32345
311
EC18AE17214B42F8C41C6D428016D9BA31DDCB47572561E5A402E5BA4FCE55F78AF7268524AA04130F3A20BA5D1E9F9948EA48FC8F5314FDB35E21898198060034ACE5E3E2BBCA34092518F275190AF65F45867FF0900AA4B81F25427414C372BF51DC29AA855C5428EE1EEDD6B849AD60F6E73475C2D2523F8A2772C840A4
311
78DED18A8C5C91B085F255DC4F54EA7AA8947354FD17ECF8FB3B4A0DE7B483CAF3A1165EE05BBA413E5C1FEF3DE1D6B8F2F3F3251C17D9FCAB48A9AAF63AC773A0E413BBC46A9ADF84A566FC920E4D8C52C9769EE3301CADEEEDD92B312E02E2A7E35B7F1E7D203FE5A7D75578B06E99D0E46FFADB8FDA17ED8880390DA290
311
94202D6F645F76F6F96409CDA05495A96E84B04A00D1A6C6C81D7F3DE9376E828CCF144EE50E364ACCE7237EA0BFB5607ED1AC3CFE73794E5B61739D14DF1743441B1AC98F00ECEDE9E7301FA29755FBEFA68C91EF2B314CF510537EF1ABFC9A762496280B546F5EDAAF8A5B387D469FC9A878A92828C88608453ACEC6094D
311
CA54111E7AD5B2663DFE2DD151B7F123B9F4FEF8EE36AB125FD7AD52A59B1B765B3E3F73E3F73DEA93875004D2AFFE3CDE9493B87A9904DD052028949041A91DC0E1BA47BA714343FD5B25E0A6A09503AFC17C790058A836A324FE31D7893512E28230332F153181C1E018E1124EBE1BA262AA428A518237D1EA7275E48C5C
311
561BD19ED6912EDD8367DA0F31E40EEAE9683DA9257525AEA7B632B97119E17145A90231768A4F3B9120FF32E8319B015E3CBE26F1A754177D8185345817C096B0CE443A955D13AC15E1FB5DEEA0239EC32A3C92241A237B0B02FFCB4F93CF2B02570C8D192E2F2A68CEEB42F12E6F8CEEFF46C251E22B4341C56FB08CCE55
311
0E7A9D6F4D6564B9EA52A83D5BF2C6E03FA19D2775E15A8A7ACF30A13C259EE7F5EF2AC3BA354F1500E1A07FC63FB4686E2F12EC69719F9ECF5FE3F35598DF2CE944008CE78F0911BA5BE5D0A34E0098FF038669C26030BA9B300303039852A8F6F496341737CA7E0D2E3AAA36DE0A70AA7D9CA0D54D9AD84B18A44C9E6254
311
75E1C97B93BEBB38DCE7D227E67A2D00F531436136355F243D1FC0D712C5765754FA22FCFFAE97919161F46D6E61ACB37D83777B385889770B50765B127768443A5C4D3A4E35A3151111F146B7CA116F918A049F1C272F2CD7976C69A0068773451659A97E0F4A08FE604C3FF6CE7385DB19F4D3ABC8A0D80DA8A42096AC37
311
7DB49382B36E270B6FA7570188B4B7D1DDDDA82ACA487CCA5D38BD3BD039ADBAFA4ACFF27809239B722081E2EB9F145320553D183F28471C388BC8814E5045676767AB58A8E72D1CED2CA731379515D2E533E4CF0B39DFC625F97AC4836831A4DE330E87A8126FA17EBE583D614E71E22A8DBF2825599743E0640037303E8E
311
1B1E8EA4E1ABFA4F62907B5E4E0E5DCFDAB417C36C6848A2B8D15F1E505434C0707E16B1CFC2A1C36A42BBF55734F8F4301DDC2A5110CEE8C0747F69519265012A2174BF4E955ECD4FDE095A3ABC70536B7AD0B9D7892F81287D667C108703C9B66A221E9A0929D030008F77FF6F5D2108EF5706FC87A3069B976F7C9FC323
311
9D13D283CDEA83597461079FEEE049B0F392889898B7D87D31F8D60ED7B56B91823A8E4EDDB36C6172ECEE42BD42B12CD67994FA0F0DFAE9389356F4CD4425A4B8AA55CBF7ECD585C6A2C2316791E43D5C06841ADBB226A87FD61515FFBB0167B74E56BD7F3E90A57A97FEDCBDF483A0D6699A8C0849CAEB4947FAA90D8E33
311
2D9DEBD9F4738C37DA0CAF9CF3DAA68BCB67C420459C7A64498D6E848E5CADE92BB6901F607AA331104A67F7CD650EE169B1DAE94D2C31C2F993632259B6957E246EFE4C5481107B07118607700040E5812A2A2A38DA0076875258C753F60E0F2662C748EDD5F3F3686B8FC3BD6FE631ECCAA1E8B1C1E565AD117E54893E79
311
F4672E32F9E46B2A183DFDCF3EECB4D4D077DBEA0DA254D256045109670050129E9B9B1A9E4A11344D61497A992778095151510C4BB7EF2009B63AA4360635312E4CF668B7E0D3D85A8688E2BD83B569439892ADB63461930D428E0DE42E4AC57CE48DA5CC1449530D8BD3D6A0F08DF20C8E8F570F2CFFFCEA286E30969B46
311
54D498A58D9DA782E19FE3F002181838925592C4A1EF0B332D88B61A92C644547BED490D3A42CFFAB70E36D961F694F6307F72FF15A1C79D5B1B5CEFD353D9E2B52566DEC8F8F09CB3E8359C0F68EBBB7898243E34E12A015B2685AB303C04D3A9E00671FF3DFF0A184E4A2ABEB2B666AF5B3A209C73D8EF29DCDB069C9F39
311
1EEE9DD0F74C7BCDE16F8F02E3B8816122BBEB50665775B600549D8BB33A54A6BF940C028118BC6878C79958D6784F9DEAA6E26748386FFAF8D0D0101E2847B6563F5D8DC1D78F787BE00E2C941AE12148D4A81599FE8F68D4DA5CDED75530ADE138240300EE13B0FC13A1687FED6774662C05A2B7DFB186732F0D7A93545D
311
8B0A6390AE5054D9CB582DA846D7A061B3358B45E2B52DDE63E114397EDB7E09233A579155D795BE76102CF277F4DF8B188C4F2879BEAE3C08347124BF9ED23B128259FE107D31E34A652F090B30B39E0D9AF917B76A2806135621A8A60681F16AF216514BBD02711585B5B1AE823F4B2D0369EA5B6BCB863072727FFC871C
311
A6C9AB79A814D989057E9470A3D238BC87CBB4A0EA49AFE2B86F22E499793CAA9047080450166BDC357524561E258C77CB697F1ABB32562CF87C3B7AA12F911EF19FB3E5C02222E887D08202A60A17151F5E053A86B437771088B4FEE14D652C43E8D939995D34545E12E2FF93D4E366EAD25F10CB7DED141563C3D0C447AF
311
06078A91135FD4B9611583CB4BF3BD167F2399CEAB0E0100F8FFC305F00F1711717173138B4B48C83022295DE657EFEDD97F238ECA80F528AFB4F8D67AD4E2594B9A3AA86D7487EFC313BA95745C186F0CDD84CC12DC9CB0424B42203D351FD9C0A3AF10CC7F388E0329279087386421F194F4A29464C1DEF7EF8BE515E4A1
311
99DCD5B909342598D8FE6A231F71336248D5CEC5454455C7BE383B3BC7B260FED27F703FDC39A170F3827239102F59D4DEE7FEF82EAA1A5E4BA94DCC4CC44E7E2EDE20F24244E4454369D2E87C3F823F193FD4FD27E1C23984B01898D15ABC20711A8A558054951A6AE280096BA36CBA439603B7B0B4C45F248C14B2383B4B
311
5CD8ECECE4FF859AD4A6CA2326D020EF090F4041D28DB66E5256B56232CC52829DE8060BAE6BBF37D4B7469B822454FE93210A3E8D15E69FFCF01123222611C51C4FD0A041A0CFA2471CF6BE38D2B20FA4C3525B5B8B586759475CF80ADFE67A284AC24651E52B8E683D24C2622642F27E7C3C22783BCF63648BC398BD6CD0
311
D9C97E7E7E3EACB6126DB7A6C1FD9F1031302EE67ED96F22B77C7CA0239BB324207559B105E4693EB26EC46182A92C9C0DBD24F29B31C5C5AC1F84300E0E17CEEAC15F5736FA4A98971E2F1423BFCD68D4BBD5F86E74B40A369F39507C88FCDB35D2DD8DEBEA4AF999E23CF2816D204200DF6E611781B9884C1AC8888B4DE3
311
97320472959434323A5A36B22A8E1F721A270DF3BD65E4A31C11FF048AFB0D8B7B6881423793963A23CFCE935FC189ED36FAE35C46DA3574C979E4394BE52084F3081837BE033396D2EBD80F1F691B273F660D2B32FA27A33B1DE4ADA5F0FA4651511102DFA410DDA86E065272CA314D5249DF91B06BB92807B28EFD54F08F
311
7B525252782CD276DD02E6B0319B13DF87B1F6361AD6B28FC0D711CF445429B9E5A433CD493051C49A9E03DDB1B147D880253514A5DED88009018620EE229101C041950E2D8AA8E1F5F5438E0C0C0C60EEDEE9E3E0C051948C69F84BB7B2A48A1F3C8EB9E6864687F4F4F6F6E2FA87608ADAF9C5E117B7C1A737E710769DA1
311
D15ECE6A84502AA855398712D5FB51BE92E4EF824969CE18278798AC303C2C7980DD2500ADF8FB1E6D6C2FAAFF9987178923334A244758BAA01A9A1B70FA5097D01E1CC2A58DAD0EC94CE6430AA9B0C10D75E3C6BAC670EFBADEE1607739CE0FC18A2587E3EC3058562014C64219C69BC269082D5C2F4A659278D585755912
311
176D78A1B641719C2A394CED495A1AC5D583FD2F5EDD93308EA7EAE8A6DD396598BDBD3D4CFED62D18A5BDFDE0DD5C80D1A89BA62697B131AE7CE9A6594138582F1B37D68F1749AC7CB67A70695D48A4A056AC1FBD4E82358CEAE38F54B95A9016F9000F9879C0D9D131768635CA798895F27D6F1614F11F2838A83611AA51
311
C9A3DDB539D42979C29F10465655C17BEC3E2760B80DCBF609198C7B171A531905F3EC218D696025975E986C6B4C666666787271F202805577DD5A3EF0CAFAF91B62DC4B2DB4217A7606282F31D8DDBC290593BAA93EA6353AFA9939B877978481E15CFC9F2755CDC00C538F63A4BA3E80AE009B73CA0185687D339A507D16
311
5B74290D6EE46D5C58148F020C3668ABE9EF2F7549170DC80DB41FFC1D678FF19AEB10C7133832B104B80F691B3138F97A92D26E551F1F110400D45AC71A9B9AC41A1A1B1DAEED0B0810638EFFB511D46B121C6FEA0F38CD00E03CFFEB9713FE1F9C263E4DDEC160D0497FA9A132BA608584057FB15380825DE6C7FC3C667E
311
E947D488A09898D8E939C4953BF4EC9836344D2CC6B2971B2A21A572B06096F4982D2CC7232D46E8EA69DC83722E267754D777F97F96D5DA74E1E75178084D0E70F12AD33E5F71EF2AFA599B2BEBF60A5BE475F444F240CBFE8143C334E7ED9150FEEFEF7EB020C4DBED388DD1D6A167A76F3CBF119B578AE8CFA7736ACAFA
311
4440A1C47185638A0D2F3EB5BDDEFDA958FB13CE4AA4923D5BF840392D45544329525749734866684BF7F8D9D54D892E19BCA9F829A0F8BFCBEEA6CFDFC61D74EA1A645ED7A1FF241739F15694BD835B66FEC5677E40FE69BD3F91AE402F036537218A401CB0828604AD189E575015C6F3F6BBC8AC79CF6C70653847254B31
311
551EFCBEB5978B9DB85D58D0FA41A9DFE9C624834AA04949D24B5AE6D299E072D152D12097920F14AA92C31C3B97E28B6C2E6E9C23D63043ECBBC0A60FDF5BD0C33C127EA8A3308B8B6AFFEB28B4455BF6E7AF4FC6222728357EB8E46E85053E6A8843AB23295BF838ABDA94658FEF3F832F147046B4ACD6F7D48E8FCC9618
311
582961C898D1C7A253C91BFECBDA6BA18A1FCF70755DCCEE2222F41B76D23CA98D0CB3D95F0CF66D57FFF65E2A90F5DF40FC3187621E981BD0BC1D992787212688976B94A8F0C6EF646624B570B78E068826F87CE27041A95C9A4871FF65CC17FCB1639629AD6A9517000D63AC231F3D741CB8430777E7ECF80CE7A3F73C0F
311
162F7E56AA71F4DA80A33CD6ACEE78E2C11FAC03DAFCE929B106F8F6B3ED2DC71FF994BD9CEF4E9A94896EF1B6E2B7B4978168BCF0847A3D2A4F1B0500B926E634B174548E9FBAD27153FB5FC36799B1E6C7C38A94E1F9E996796D7B485E635D5287A2AE76FBD11A341DB3F8F810385BB7296391973DC6C37C452A9305AEBB
311
E0CDB6C566DB59FE60C8E94B1FD090354BF51439FFD1B48D725228FFA88C84F686F547107A7A235665A4593B7C34D748C1AC8D56DD5DA861EEFBADDECBBD65117E65851F90351AEB65F0EFCFF4BCFEF24CB7A5879699FAC437A7AF9099186CF006BB923A59E37D7A36A29FD8D2CBB914A5E9D0A8FD212FBF796AE9A67958FF
311
1D5D8B85F78F96219D4714EB919929241B6C018AAE0C02069F8D919961EC5DDFBFB7573E3AC8E08BFB7C8534BE6DE045B3CD63DBD71F7638BA2309CAE398EA3A7D8F98BBBC7AEB367EFA5CFA27A9F8F2F52FE878058E6209C026453F8E7E8A237DFC389E9590F6059B397CFD65183BBF936E86896612A5B5FEE49DAC8455D0
311
26218AFEBEC12B3523A45B57B82C9C97E02ACFA1184DB18E48CF615DBF39C3CC6F0B4AE6BBEEA2E39D944E290302FA3DE33FA7E40296E2EF7BF1CD855BBECFAD0FD622BEE9746FC4FDFDE545AE6E3BC234CADF83A0FB76DFB145BF3828AE3436368AC24989454F8FF70A177672C711CAA1A76107218CF948CA01F873520E7A
311
2B118EBB161ABAD432932029628B6761590C98AB590C8C8C79798CE9F715BA696E839E9131A4BB68BE923F1747FBFF165331FFDD4D05997ACD168F12CA75348DAC04C7F509FE83898A8B421181AF492861CE81E4A2DD0A30850CFA95E05F097FF70F9E777310D584A75BA7018922E271DAB1D785671157685B7D383D3E074D
311
DB4F1E44EF04B07BAAC75A062077C54B9752C738C9D804D402E02851F3F89605AF189738C18C021D2139EAF72513824E10DDD3047BACC8521ED7E98B257D1166903B1B08FA6F918FD7E162913FEC7D0EF4787E29C35FBA8C6E2C9C20E9AB30AE42CA2A01A090E7D010C1B5BF9CEE2A304BF3A987FB40D836979B79E18D70F2
311
57DA61E808472DD85B82761825779D6B90CAEB0F23360C6F80A7D7D77545E95B3DFF0CF96A827F9B5BCECD2C9698718417EF80FEEDEE938AFF55859D0D540B7FE09435583A6F04874A0C7E8CF234DF4879722000167F5872CEC6BF3EF7E5A8CC8121E6A359227C8A29C95212F9F735BC72A887D56B8F309FC525BFB4FD767A
311
AEC4AEFF249CFBBD2DE1AB9969A6155C7D8DABC307E47324C1F916C7BCFF40ABA5644E9FFB9238D19ADADA49D9610F01ABBA57E4DFCBDCCBB2B93C8953206C91DE01B0E2651A6D6C31721915B31F7B7CBCE55466F6D70402788FA91D73BE4ADCBA99A35F17D6B83383704917D6833F0FA3CD45C926ADB8BC17999A4A0AFBCE
311
2541F7B8CF4C2F5FBA611B3E626D64407CB32C122DFF4EF8674D6EDBB86C8F7C6A16D50FA685E2CCA34F8F7D1D8265BB0042E9D7F1F666F7BE5FAA5184DF58E12122A42EF02F461B3F369AC746F96528AD208512AB56844CF75B97F352DF7995024FB02855385854F3798670D01CAC771AC3E1889EC25F61A20C1F8CAB4689
311
8817F9C47E2CDA1F286BF2F358298709FE567C91133E2638C8B53975E753EA8BFD3578B5F7186B7BF084EBA3F77BAC3132A5779902EC22AF2D2E79F42D324E083386DAEE9810D1B44A5DAA54513C7A71E52A4AB9257D975B621308FE4D2141CC3DCFE946C154A3C1DFCCA7629EC69ACFA831634ADDA93C0388D2A9A2DDAFCF
311
957C6995BCE7FBB6DC4EBAE79E63EB08E9A25F52F67076F7093CA545CA3053B5BF576DEAD4E0017143C5F759F32B2D6F145B52B67B48909B7C7FCA6586EE385A2189C16932CB6DDFD9152AE317C430492A578ED27B72D85D40C7C93C097939E1B50F4D67F05334FE9DC362C30B7FF561B95259138ECFD9274C8D695C31B14D
311
4EAA9F3D7FA8DDF652F8C5DEFA23284C799B7D94416DEE81E05A866302DC70192A5368EA65E1CED8BF107A1E2D3119A71E85DC1A7B0C1E93274CE04DD0F2ABC8AC7C987FDB002B6F81757B43502EF7A0D92E416494FAEEA4C9C090CD9557AA4D532F4996A272B94355C5A0E4974EEA9627476F30809B94D8D8D860062E0220
311
4643BEC7D0438AF800FC7E2B26955D595421E83C69E1A07E0E3122285835F014AD538188CF9737CE76D464A353FA55A001AB2526B84E985083693BC76FE211CA1D000679C889E3C009832C87E1AC2EDD05C302557422DF0800E316FCAC86978A371F025A6C7DAA9F333E7BD160403A1A06EA75AA9888FF01504B0304140006
311
0808003A66475028BB58AF800100009E0500003D00000036434637344445302D434546412D344544382D383241352D4342313744333238423032422F536368656D61732F436F6D6D6F6E536368656D612E786D6CBD544D4FC23018BEFB2B96DE15493C78601010A34B880709DEDFB52FD0D8B54BD70DF6EFED3AC0B12E6442
311
E2716BFB3CEFF3D18E26FB440405EA8C2B1992E1C323095052C5B8DC842437EBFB673219DF8DA659866649B798C078B48AE6410122242F2A4994AC7F93815DF85C049C8564CA0A901499DD886B2EB9B1E02448F358701A9235880C49A0119892A20C89D1B9FD768815CAD268CB5E0355B40B1E47F3E37A2020464BED06AA57
311
CE8FCC20C3C3446D46761A2632A8C1283D07031EFF2AE7CCB1BFEEE916E406DFAC8E36FFD99A9D60A6944090EEDC3B670C7DC13DE86B6B2C5C240D6E503BB85ACD579D513F1B9F9A69DC9CC22AFA80C426D40AF0B21EA168559156B6276F0F726A6BFF04DCD513A87A62CAD41FB24FCB2858B3952E3D852084DA25B9303C15
311
687973CC8E8AAE11DF2836C38C6A9E765E8C1BA1BFB1DC29CDFE518C8B5A7655A4ED7E77291ABEB80DBD82EC866ADE1B8D05AF9E35CF09D7A061F38A986D9EC412B8F0F65E5D81534D9B231D1E5A8FE577A241F3A5FD01504B03041400060808003A664750E336299B9F040000341300003E00000036434637344445302D43
311
4546412D344544382D383241352D4342313744333238423032422F536368656D61732F47656E65726963536368656D612E786D6CD5585B6FE238147EDF5F61E5BD1498E9A895A02398AA5D1E2A5665BAAF96710C78D6B9C87168D95FBFE7F81242134A968E469A4855437C72AEDFB965F4F53551642B7421B3741C0D7AFD88
311
889467B14CD7E3A834AB8BEBE8EBED1FA3495108B3E01B91B0DBD1F3EC8E6C991A470F22155A72F73CBABC1D4D5921DCD1934863A11F990102A6F61466977B8AC49FB13C174CB3940BE4504A22E3713489B7F82406516225536940BD88E4E552493E8E564C1522225AB0384BD56E1C195DC26FAB13882C2EBD62E1FF9E5B0F
311
CC453132C99548446A1872B62267078F1EF14C3DB1DD1952DDBBB384AD456779F387C51992E0ADCE12FED2622BC5CB1952FC9BDF3295E9206E961AB116DA7ACE45F76F07A26EFC3FD762FD7362FC3C0BAA4DB34C09E682CA5167BADCD16CF94370E331E2F1A3D852008AAD5D64BA2373478338AEB1583B905396D158182655
311
E1B938D07926CF007CC7E85E6709999B0D3827C0BF406BEF55C68CF5579DA32C8C85BE03EFE788787E8FEC95DC85C3E31A615658D81F9A34499612004CE69CAB12531B15A887ACA642C110F8C1A8C1974A85853F407794695C905C688E69B116550ACA946B9B4785FC179E0E229240B62665328E86D5BD2C800CF5D80289F3
311
5AC25E3DD51508F4BF9A74A0F5A557BB3D284BC6FF59312E282F956A75C5D453906F48D11A876599E49425602400842995BDF02C4D012E226658F78A710416AC552831FDDEF0E6F0BABEBEA9DC36718CCEF4DAC5A0DF871AECBDD8F448F015F8DA113A473609D1751672B723874B2CAB21ECD6E284E51DCC7D1A47A00F60EC
311
21DC4CC3CDC406DC03760A4E6C772F2F4D561A9AE58C4B03F5B4838701472139EDCB36819A66C472B52AB1139C648956F43E0DAEC067B56B0818F5961D3D446B8F1E1E78C0EAD7EE02AF2895D813E88AC5014A7B436DBB20F778D40A1D9737EFE45B47D49CC8360F9966B15AABAC802C1005548A93EE469F5D55317CD8BF0A
311
A86CABADB2A009D4D6F60CFE53AE370AFE8C45415B15D362A5A038E766E34B00F8C2E3E7098E2093B1C96349FDAEA158903B4BDAEA665F473FECE72186E3BDDCACCADA31839CD6D4FA7D47DF5469006ED340EBE71DF960DDEE88A3E17557039B58C278A1795BA8079419DA8FC5BA1BAA1A66238BF69C7B2BE4E6274839122B
311
7D00BE8B7D52CF61B2D63216046008C8B330FC10F8907787DEF061F47965BBA02FD8F53BA12F9827614979F53563D0BB1AD67A03DC0E00E2FB2CF3EFB457E70E65A3D7C78E7D700DBB45132AE9BBA5E468CD861408961AD8B00A55C2FCC677F4456039FD9F1907A5B3E2D0EE845FDBA2DAFA88C64195671AD6D282DA2E45B1
311
F50A0D632B0D0B6718757DCC7C84A70A3656F222CDA6DBF07E204AB358961D1BE31E53A82C2C0D56DBF61A5608B5A252A932A1DC6E32462430853353EA30417C8199A662E946A4EF352268B8CDB9A9C6762515ACE8E09BBC031C608A02C4BA89C9DDC074E46E0E26A17BCBD4ED43270D03E3645ADB81F6D62CC07A3243EB81
311
C07E01681DDF2DB4730631E6DDA6CBBD048BE9F06AEB3CF06B31DD6C9575E37E9FF17161342C4C76D95519672A6509E0F5C4E71B4B1916440059F57D0921F496237E473A83E3E4E06353BD9D27593594D7B6707C08D22FEBDFBFFE03504B03041400060808003A6647508DFFFC99640100009B030000450000003643463734
311
4445302D434546412D344544382D383241352D4342313744333238423032422F536368656D61732F52656E6465724D6174657269616C536368656D612E786D6CA5535D6BC230147DDFAF08799F5FDB600FADA20EA430D968A7AF12D36B1B481349529DFF7EF9A85A718860DFDA73EFB987734EA3D16FC5D10E946652C4B8DF
311
E9610482CA9C8922C6B5D93CBFE3D1F0291A6B0D26A3255464182D920FB4233CC629881CD49C18508CF000E3EE309A100D61622AAB4A8A33B2483F11CB639C545B0E1508438C3D3C0361192846DB7ACD198DF186700D182920B914FC1063A36AFBEE8FBA03FFD3CC1D1F4FC9E151A2AF59F628C5B7821D83FDFD3489305080
311
F2EE04BF962195FB285E9D2DD352320A9E827AE357594914E42B1F5FE35F83688F60C4C91A6C946ED0668E8F244BC2EB0BA6E3BCCFC0B6A4B507F9F9F8D51EB315D9BA9E08D308E89F96931666E577837E2B4172199C68C4FE306156D47DF51C698C7B9D97FE5BEFE2190C3C38BB054E6E8163FB039CB4B993C80BF18D9692
311
03116D6BBD26238B821F9BB909AD6D9C71B85BCD8C33D66FEA3D31B4BC0AD45BEA46BBEDDFEC0F504B03041400060808003A664750F582260851000000570000004700000036434637344445302D434546412D344544382D383241352D4342313744333238423032422F4173736574446174612F41737365745461626C654F
311
66436F6E74656E74732E62696E53616060303130B430753236D335703376D235B17031D7B5B43072D13537347776337332323036361602AACB4D2C492DCA4CCC492C28484D2C4ACC4B4E050A82012F90744FCD03CA26072767A4E6260200504B03041400060808003A664750C55C6636560000006800000045000000364346
311
37344445302D434546412D344544382D383241352D4342313744333238423032422F4173736574446174612F53747265616D56657273696F6E5461626C652E696E665D8CBD0A80300C06F73E4B29FE6CDD8A2E82A083B8B7F209014925C9FBA3AEAEC7DD2555D896CB85E51C2A1BD834F6A1F56EC4494C4695278364ABB24A
311
BD2146F88CCEBB89D5321FF8F3F43D672A3B44DF3CB6A1710F504B03041400060808003A664750C87C233437010000A20400003600000036434637344445302D434546412D344544382D383241352D4342313744333238423032422F4173736574446174612F636E782E786D6CCD94314FC3301085FF4A6489318E1B4040E5
311
B842B07402898A81EDE25C8A55C78EEC0B827F8FDD6600153175E87AFAEEEEF9C9EFE4EA73B0C5078668BC6BD8820B56A0D3BE336EDBB089FAF296152B2583F7F403638583011B96CB4CC96DF0D338973AEC61B2B96A8DDBCDC5FB189136D05A7CEA1FBC23741459A12DC4D8B0A8DF71000E13F90EE38E7740C0173C60F453
311
D098269119709EA4030261C7542D6A518ABA14379B45BDBCBA5B5E5FBEC92A934AB6DEDB99376959F0E3452DF4612F5342561950720A66A6F26B98FA4B256F8D935522958C14922B73077D8DA903C6D11A0D94CCABBC26A432410883AC0EB0925576E197178FD81B6772CB3A4903F2E13909C44006CFD093FFD49EDE9BB58B
311
044EE3393B72ACF1F43EBCEC7FD1EB2196FBDC9C5F5A8E3572E3FA1364A5DA9F93149D7C5DD437504B03041400060808003A66475015E1B5B8E7000000600100006700000036434637344445302D434546412D344544382D383241352D4342313744333238423032422F5265736F75726365732F34303138354233362D3046
311
33422D343844372D393832442D3731374346364232303333332F7468756D626E61696C2F302F636E782E786D6C4D90C14EC4300C447FA5B2C4B14D5A40C02ACDFE04272E28A4DE126D1A478983E0EF4920873D8D357EB23CA3CEDF871FBE306547618579923060B0B4B9B0AF50F8323EC370D62A11F10D06433007AED06CD0
311
6A4F5462B736BC98E29BEB5DB87673C780C9D9F7187618AC3739AF90ED271E66328569C37C9D36C3669AA784994AB2580FB03BB01FB0090DE3067A918B1CE532CAA7D779393DBC9C1EEFDF9468A4561F44BEF32E30268A778BB454C750FF914A3440AB925CA75A08D037CF2951975A654E357F87F82756C8C4E89D355C6B12
311
641979AC109A43897F582BD1F256F92BA36AEB46FF02504B03041400060808003A664750A233C2345D000000800000006500000036434637344445302D434546412D344544382D383241352D4342313744333238423032422F5265736F75726365732F34303138354233362D304633422D343844372D393832442D37313743
311
46364232303333332F7468756D626E61696C2F636E782E786D6C4D8B490E80201004BF42E6EE76F3C0F216234B883063108CCF170C074F95AE5473F5C4C06E932E4F28601967600677D21E9D8092EDB002539227A2FCCB80E1168D80A6417297A89C5D6963B7129A0D1E8F2EE73AA7B62BBEB8B27DE50B504B030414000608
311
08003A664750BE89762363000000880000005B00000036434637344445302D434546412D344544382D383241352D4342313744333238423032422F5265736F75726365732F34303138354233362D304633422D343844372D393832442D3731374346364232303333332F636E782E786D6C4DCC3B0E80201004D0AB90EDFD75
311
167CCE820A4A845D83603CBE602CAC26799919AEEEE0D965E2E908050C6D0FCCE04C8BC355404EB6198129C92351FAD580A10E464065907C8D948F8F166375F655BDC3FDC3B4E530A176BE7057BDC43B2A593FE403504B03041400060808003A6647505DC5FB527E000000A30000003600000036434637344445302D434546
311
412D344544382D383241352D4342313744333238423032422F5265736F75726365732F636E782E786D6C4D8CD10AC22018465F45FE7B4BE79A06EAC0C6DE63343724A761337AFC3476D1D50787EF1CD97F368FDE36BD5C0C0AE88900B2E11E67175605795FB000D46B9962DCFF6E80C2B459051583966B8AF979A0D92E53F6
311
957A171E076C091517C33A4C4666702B068EAFA21930A7FC3676A6218CB1629CAB52E6D72B5BF3FA0B504B03041400060808003A66475039B00D8E0B010000550300003400000036434637344445302D434546412D344544382D383241352D4342313744333238423032422F536368656D61732F636E782E786D6CCD93BD4E
311
042114855F65426239C08C1A75C3B08585958D5AD9217377250BDC093F46DF5E182976133B2DB683932F37E71CB862FBE96CF701211AF4131928271D788DB3F1FB89E4B4EB6F49B7952220A6238C745E399848958914FB807969D20C3B956D55ADF18726DEA373E89FF53B38453A6D558C1389EB95AA9C708678A0B34A8A0E
311
3440C41C349409C9386813740095602672E423EFF9D8F39B9761DC5CDD6DAE2F5F05ABA4146F88B6F1C62708B85C8C5C6339FA62880B56012972308DAA29883C76474B1F8215428A984269A191E96B29A45A166BB44AA52CB6823F8C14AC863D89FC001E82D1E79AF9C4DEBF857E023F43782C2F158CB2E79AFD37977FAB80
311
AD1B50BE415D08F90D504B03041400060808003A664750E3603EBE7A000000C20000002C00000036434637344445302D434546412D344544382D383241352D4342313744333238423032422F636E782E786D6C6DCD410EC2201085E1AB90D9DBEACE05D09878023D01A1D34A8419C380F1F82DA68B9AB8FDFEC93C3D7C5254
311
6FCC12980C9CBA232824CF63A0D9402DD3E10C6AB03A3397DD192872090D3406ABE7CCF5B5D18893ABB1690CF4DCF02282E5EA8A5BB96FFE536F285CB347F95BEFFE81C9ED5AFF9D5B1FB575BB00504B03041400060808003A66475027A3EC817F000000A300000007000000636E782E786D6C4D8C4D0E83201805AF42BE3D
311
2D525B5920467EBC87A9684C111A2A4D8F5F685C74F592C99BE1DD6773E86DE36B0DBE85EA4400597F0FD3EA9716D23E6306A8133C86B0FFDD00F971B32D140C822F31A4E781263B8FC915EA56FF38E04D0D4DAD0DC1CA0C3DAE8D6698D1FE8A95AC1A7DA14C122AB3712E4A9E5F2F6FC98B2F504B03041400060808003A66
311
4750CA1DF9C9A900000073010000130000005B436F6E74656E745F54797065735D2E786D6CA590410EC2300C04BF12E5DEBA70400835E500FC800F84E0B411AD13252E2ABF27A55740421CEDDDD9B55CEFA7A117778CC979527255565220197F75D42A39B22DB652EC9BFAFC089844F65252B2630E3B80643A1C742A7D40CA
311
8AF571D09CC7D842D0E6A65B8475556DC07862242E78CE904D7D44ABC79EC569CAEBA537E3521C16DF5CA5A40EA17746733E0B6615DE7217475F386F18B9481C510F1F021CD9FF027EA0E1F5C4E609504B03041400060808003A6647503DEE336E64000000790000001B0000006175746F6465736B2D64657369676E2D7061
311
636B6167652E786D6C35CBC10E83200C00D05F21DCA56CA76D41FC96062B120735B69A7DBE268BB7777961F8D5AF396893C2ADB70FE7ADA196782C2DF776D7A97B5933C430F15651E5469C55D70F80A4992A3ADC954792C525AE70A1E4D6AD9816CC044FEFDF01FE3FDE907802504B03041400060808003A6647506EC17F94
311
F9000000960100003700000036434637344445302D434546412D344544382D383241352D4342313744333238423032422F4173736574446174612F636F72652E786D6C8550CB6E833010FC15B477836D480891714494E40B7AEACD320EB5126CE447D5CFAF1DA8D49E7ADAD5ECCCECEEB0D3D7FC2C3E95F3DA9A1E4889A150
311
46DA519BA98718EEE800C58933676DF84583C28859F59061E06C72362E1B24AD09CA64D4D8516DA0F05E0528E433353D78F9A166518A1812C33FCA45C887985449CA95C7598C7ADCA47A4C6EFAAE9503BEA7B4BB0EE4860EF505A3A6A57B74389316354D77EE76C370BB361DABB298B3A0E79FEDD22911D4089C628A11A608
311
B76F841E9BEEB8ABDF5995999CF9E0D2CFDBD2FC1DF0215F7D1141B06A9DFE718DCBF8BF6BD426D474735D151E384947BE069C5539A5545E11A69A13E5DF504B03041400060808003A6647500FC2AA5EF50000008E0100006800000036434637344445302D434546412D344544382D383241352D4342313744333238423032
311
422F5265736F75726365732F34303138354233362D304633422D343844372D393832442D3731374346364232303333332F7468756D626E61696C2F302F636F72652E786D6C8550CB6E833010FC15B477836D4808917144D4E40B7AEACD320EB1126CE447D5CFAF1DA8D49E7ADAD5ECCCECEEB0D3D7FC2C3E95F3DA9A1E4889
311
A15046DA519BA987186EE800C58933676DF84583C28859F59061E06C72362E1B24AD09CA64D4D8516DA0F05E0528E433353D787957B328450C89E11FE522E4434CAA24E5CAE32C463D6E523D26377DD3CA01DF53DA5D06724587FA0DA3A6A57B74389316354D77EE76C370BD341DABB298B3A0E79FEDD22911D4089C628A11
311
A608B7EF841E9BEEB8AB3F5895999CF9E0D2CFDBD2FC1D70CCAA15FDE31697F17FB7A84DA8E9E6B62A3C70928E7B0D38AB723AA9BCA24B3527C9BF01504B03041400060808003A6647500E0F4E96FB000000960100006600000036434637344445302D434546412D344544382D383241352D4342313744333238423032422F
311
5265736F75726365732F34303138354233362D304633422D343844372D393832442D3731374346364232303333332F7468756D626E61696C2F636F72652E786D6C8550CB6E833010FC15B477836D4808917144D4E40B7AEACD058758011BF911F5F36B072AB5A79E76353B33BB3BECF4354FD9535AA78C6E81E41832A97B33
311
283DB610FC0D1D203B71668DF1BF68906931CB16120C9C8DD68465837AA3BDD409D566901B289C931EB27E8A4D0BAEBFCB59E422F8C8708F7C11FD438C3227F9CAE32C04356C523544377553D202DF53DA5C3A724587F20DA3AAA67B7438931A5555736E765D77BD540D2B929833AFE69FEDBD95C2CB0138C514234C11AEDF
311
093D56CD71577EB022313973DEC69FB7A5E93BE0FE1EE64F2DD4C48A75FAC7352CC3FFAE41695FD2CD755538E0241EF91A7056A494627945186B4A947F03504B03041400060808003A66475091E8643F0E010000B10100005C00000036434637344445302D434546412D344544382D383241352D4342313744333238423032
311
422F5265736F75726365732F34303138354233362D304633422D343844372D393832442D3731374346364232303333332F636F72652E786D6C8590CB6EC32014447FC5BA7B6C5EF123C24471137F4157DD219BA428314406AA7E7EA171A576D5D545C30C873BE2F0B9DC8B0FBD7AE36C0FA4C450683BB9D9D86B0F315C500B
311
C5418AD5B9F0CB0685558BEE21CB20C57575F1B14993B341DBAC5A37EB4D54DEEB00C5744F871EFCF4AE1755AA1892C3DFCA879A6EEAAA4B523E7D52C468E62D6AE6F49AB918BD82AC29EDCE4732A2969D30E20DAD513B900671DE0DDDEE781CCFBC13550E4B11CCF2439F56AD829E41524C31C214E1E695D03DEFF63BF626
311
AAEC94C28735EDBC41F376203926ED6E6035C2231B106F4F0DEA5A7A420D695EC67AA0983126AA67F00F303EE6FF81D1D8C0E8067C263C4892FEFF7D2145950B4CE3BBDD3473D9F20B504B03041400060808003A664750FA9D18C9FB000000960100003700000036434637344445302D434546412D344544382D383241352D
311
4342313744333238423032422F5265736F75726365732F636F72652E786D6C8550CB6E833010FC15B477F3302484C838226AF201554FBD596643AD041BF951F5F36B072AB5A79E76353B33BB3BECF4353FB24FB44E19DD43959790A19666547AEA21F81B394076E2CC1AE37FD120D362C61E120C9C4DD6846583A4D11E7542
311
B51971038573E821938FD8F4E0E407CE2217C14786BBE78B907731615EE52B8FB310D4B849D518DDD44DA105BEA7B4BB0CD5951CEA9792342DDD93C3B96A49D374E76E370CD74BD3B1228939F36AFED92E2D0A8F23705AD292949494ED5B458F4D77DCD5EFAC484CCE9CB7F1E76D69FA0EF82B3A13AC44C78A75FAC7352CE3
311
FFAE41695FD3CD755538E0553CF239E0AC4829C5F28C30D69428FF06504B03041400060808003A664750D1D67FD5F8000000940100003500000036434637344445302D434546412D344544382D383241352D4342313744333238423032422F536368656D61732F636F72652E786D6C8550CB6E833010FC15B477836D4880C8
311
38226AF203EDA9370B1C6A25D8C88FAA9F5F1BA8D49E7ADAD5ECCCECEEB0F3D7FCCC3EA575CAE80E488E21937A30A3D25307C1DF5103D999336B8CFF45834C8B59769060E06CB2262C3B3418EDA54EA836A3DC41E19CF4900DCFD874E0860F398B5C041F19EE912F62788849E624DF789C85A0C65DAAC6E8A6EE4A5AE0474A
311
DB6B4F6EA8295F30AA6A7A44CD85D4A8AADA4B7BE8FBDBB56A5991C49C7935FF6C1FAC145E8EC029A618618A70FD46E8A96A4F87F29D1589C999F336FEBC2F4DDF017F5DEF74ACD8667F3CC332FEEF1994F625DD3D3785034EE289EB80B3226514CB1A60AC294FFE0D504B03041400060808003A664750FBC8403D03010000
311
D80100002D00000036434637344445302D434546412D344544382D383241352D4342313744333238423032422F636F72652E786D6C9591C16E842010865FC5CC1D45D46A37C86675DD27E8A9372AB396EC0A46B0E9E317AB4DDB5B7B82FC7CFF0CFF0C3FBE8FF7E80D67A7ADA9218D2944687AABB4196A58FC9554101D059F
311
ADF53F30888C1CB1865506C187D92ED32EF5D67834AB6AACC25D94CEA187A8BF874B0DAE7FC551C672F18170B77892FD4D0E18A7F1C609EEF5F865ED67941E150846192594115A3EA5EC903F1E8AEC99272B29F8A28DCFD8DE0CC71754919D7C8804A2C878B23D076CD16A87B40A9FD4578D338887F652E6E78E92B6BB9C48
311
DE9D2B52B15341DA262DCF19AB1ACA9A50249805777E0EA3D98BAC43F8AB7D33FE8AB64CEA9FD1368703917E874AD6390B9E7C2E219CEB4EC407504B03041400060808003A664750656807B208010000B201000008000000636F72652E786D6C8D50416EC32010FC0ADA3B36C64E1C4798C8519317F4D41B35C445B1C1021C
311
B5BF2FC4AED4DE7A5A3433BB330C3B7D4E237A28E7B5352D141901A44C6FA536430B4BB8E103A01367CEDAF04B06C88849B59060E06C70769937A8B72628935063A5DA40E1BD0A80FA313E5AF0FD879A4426961015FE9ECDA2BF8B416545B6EA380B7AFA59ED9D124149E094508209C5A47E2DE8B16A8EBBF28DE549C9D9B2
311
68B9596919DDF54D2B077C4F6973E98A2B3E942F045735DDE3C3B9A8715535E766D775D74BD5B03C2D73E6838B7FDE8EC49C0179F148BE2C5F29CEDEAD1D37410C259135E31770C2F244FC09BDCCF21FA1B50925DD0EAE1B1E7811033D89689C1A8CE3596F9CA96DFE0D504B010214001400060808003A664750EDE4D2E62F
311
010000A80100004F000000000000000000000000000000000036434637344445302D434546412D344544382D383241352D4342313744333238423032422F4173736574446174612F446566696E6974696F6E4974657261746F7250726F706572746965732E62696E504B010214001400060808003A6647502AC143E71C0100
311
003002000045000000000000000000000000009C01000036434637344445302D434546412D344544382D383241352D4342313744333238423032422F4173736574446174612F496E7374616E636550726F706572746965732E62696E504B010214001400060808003A66475088E57597CD3F0000904100006B000000000000
311
000000000000001B03000036434637344445302D434546412D344544382D383241352D4342313744333238423032422F5265736F75726365732F34303138354233362D304633422D343844372D393832442D3731374346364232303333332F7468756D626E61696C2F302F67656E657269635F706E67504B01021400140006
311
0808003A66475028BB58AF800100009E0500003D000000000000000000000000007143000036434637344445302D434546412D344544382D383241352D4342313744333238423032422F536368656D61732F436F6D6D6F6E536368656D612E786D6C504B010214001400060808003A664750E336299B9F040000341300003E
311
000000000000000000000000004C45000036434637344445302D434546412D344544382D383241352D4342313744333238423032422F536368656D61732F47656E65726963536368656D612E786D6C504B010214001400060808003A6647508DFFFC99640100009B0300004500000000000000000000000000474A00003643
311
4637344445302D434546412D344544382D383241352D4342313744333238423032422F536368656D61732F52656E6465724D6174657269616C536368656D612E786D6C504B010214001400060808003A664750F5822608510000005700000047000000000000000000000000000E4C000036434637344445302D434546412D
311
344544382D383241352D4342313744333238423032422F4173736574446174612F41737365745461626C654F66436F6E74656E74732E62696E504B010214001400060808003A664750C55C663656000000680000004500000000000000000000000000C44C000036434637344445302D434546412D344544382D383241352D
311
4342313744333238423032422F4173736574446174612F53747265616D56657273696F6E5461626C652E696E66504B010214001400060808003A664750C87C233437010000A204000036000000000000000000000000007D4D000036434637344445302D434546412D344544382D383241352D434231374433323842303242
311
2F4173736574446174612F636E782E786D6C504B010214001400060808003A66475015E1B5B8E7000000600100006700000000000000000000000000084F000036434637344445302D434546412D344544382D383241352D4342313744333238423032422F5265736F75726365732F34303138354233362D304633422D3438
311
44372D393832442D3731374346364232303333332F7468756D626E61696C2F302F636E782E786D6C504B010214001400060808003A664750A233C2345D0000008000000065000000000000000000000000007450000036434637344445302D434546412D344544382D383241352D4342313744333238423032422F5265736F
311
75726365732F34303138354233362D304633422D343844372D393832442D3731374346364232303333332F7468756D626E61696C2F636E782E786D6C504B010214001400060808003A664750BE89762363000000880000005B000000000000000000000000005451000036434637344445302D434546412D344544382D3832
311
41352D4342313744333238423032422F5265736F75726365732F34303138354233362D304633422D343844372D393832442D3731374346364232303333332F636E782E786D6C504B010214001400060808003A6647505DC5FB527E000000A300000036000000000000000000000000003052000036434637344445302D4345
311
46412D344544382D383241352D4342313744333238423032422F5265736F75726365732F636E782E786D6C504B010214001400060808003A66475039B00D8E0B0100005503000034000000000000000000000000000253000036434637344445302D434546412D344544382D383241352D4342313744333238423032422F53
311
6368656D61732F636E782E786D6C504B010214001400060808003A664750E3603EBE7A000000C20000002C000000000000000000000000005F54000036434637344445302D434546412D344544382D383241352D4342313744333238423032422F636E782E786D6C504B010214001400060808003A66475027A3EC817F0000
311
00A3000000070000000000000000000000000023550000636E782E786D6C504B010214001400060808003A664750CA1DF9C9A9000000730100001300000000000000000000000000C75500005B436F6E74656E745F54797065735D2E786D6C504B010214001400060808003A6647503DEE336E64000000790000001B000000
311
00000000000000000000A15600006175746F6465736B2D64657369676E2D7061636B6167652E786D6C504B010214001400060808003A6647506EC17F94F90000009601000037000000000000000000000000003E57000036434637344445302D434546412D344544382D383241352D4342313744333238423032422F417373
311
6574446174612F636F72652E786D6C504B010214001400060808003A6647500FC2AA5EF50000008E01000068000000000000000000000000008C58000036434637344445302D434546412D344544382D383241352D4342313744333238423032422F5265736F75726365732F34303138354233362D304633422D343844372D
311
393832442D3731374346364232303333332F7468756D626E61696C2F302F636F72652E786D6C504B010214001400060808003A6647500E0F4E96FB000000960100006600000000000000000000000000075A000036434637344445302D434546412D344544382D383241352D4342313744333238423032422F5265736F7572
311
6365732F34303138354233362D304633422D343844372D393832442D3731374346364232303333332F7468756D626E61696C2F636F72652E786D6C504B010214001400060808003A66475091E8643F0E010000B10100005C00000000000000000000000000865B000036434637344445302D434546412D344544382D383241
311
352D4342313744333238423032422F5265736F75726365732F34303138354233362D304633422D343844372D393832442D3731374346364232303333332F636F72652E786D6C504B010214001400060808003A664750FA9D18C9FB0000009601000037000000000000000000000000000E5D000036434637344445302D4345
311
46412D344544382D383241352D4342313744333238423032422F5265736F75726365732F636F72652E786D6C504B010214001400060808003A664750D1D67FD5F80000009401000035000000000000000000000000005E5E000036434637344445302D434546412D344544382D383241352D4342313744333238423032422F
311
536368656D61732F636F72652E786D6C504B010214001400060808003A664750FBC8403D03010000D80100002D00000000000000000000000000A95F000036434637344445302D434546412D344544382D383241352D4342313744333238423032422F636F72652E786D6C504B010214001400060808003A664750656807B2
311
08010000B20100000800000000000000000000000000F7600000636F72652E786D6C504B0506000000001A001A00210B0000256200000000
310
504B03041400060808003A664750000000000000000000000000370000006662782F46454633463233422D453838432D343738432D423630392D4334464532423630424445412F617474726962757465732E62696E504B03041400060808003A664750000000000000000000000000350000006662782F4645463346323342
310
2D453838432D343738432D423630392D4334464532423630424445412F76657274696365732E62696E504B03041400060808003A664750F270F1330600000004000000360000006662782F46454633463233422D453838432D343738432D423630392D4334464532423630424445412F747269616E676C65732E62696E6366
310
60600000504B03041400060808003A66475088E57597CD3F000090410000420000006662782F46454633463233422D453838432D343738432D423630392D4334464532423630424445412F7265736F75726365732F322F305F67656E657269632E706E67355B773CD4FF1FBF73E71C0E67EF7576C9DEF3EC995D46C6A1EC50
310
46649CBDF79E192942562825CE965D8A868C2842C8DE9FDFD1F7E7F138F7078FCF6B3F5FCFD7EBFDFEC41B196891913091804020321D6D7513FC77D8C5070EC3FFEE51B21F068154CC75D455CC028A3EA68992803810109FDDE5D5CEC5521B28A1B422BF80741695D5B529DA1C2D058AD2388BDA9F476F7C2CADC939304173
310
DBF48A452BF8A700C0C70C3D121C1AA15A5270C22E2B9E28763651F7DA0D12CE11077B2ECD0D560B5E3DE2368B1E65C5E1C87384A4CC5F2D9FB8BE39E9B77C753783A37998F5CEF1B4FEE553463245C9712270880DF339E0B882A6BA713D865F6F384C842D440934EF264F4A304F8DE4EEFA1E2BF5E2D91F5ADD9613D6E31D
310
DB33ED31DB1D7916CAF091286EA3D31B9CFECB78BB0060245B943C4C040119FF780A74DD308BA9D028678674EB5504ECF284EE814DAED07440BAF649BE4B55DA2890F4D73E2D489A59EE54FDB0A85B59F2F52C4858A02705C4815A792B0C4A996A2023ECB195073E115E3E3647F64243A8338F2000BCB58DA5692C7E7C3D41
310
3F963FEDF3CF00FBB0F831A9D51360FECA43819F527B89FA260EB63C5DA676830AA3626A3693B23F1A17A0DFFCE3EE164E31B5365EDF0C89EF64D8E38AB0BA9A1117D7C3A0EC44F44F4023095E80BA610DE336D0F99593A88BFC5306E72DF98F7FD132ED95878DF2964EA7E43071359FD83B2BDF9C6B5BDF768F0F3C0FC351
310
199526F53D9460A34511F75D1B63E488178569472C91A94497807A3FD4A390C6558F26D416365C3656DE6E769DA9D8FC73774E1709812842DD8EF96AED1960F79D21B395CDDFE6F92CB4EB962A4668C76990E2EF29798C8941D67DA50F4A5F947872460F1F6FDB794E8A29FD7AC0C0D6E0714339CE258FB17AE8535221E346
310
4A10F29A0BE5EEECEFC5675926A89F49EB14E5711894F6586DB5754EB4D5DA9C6437EBA57DB97A24F8B8A8DB295FFD73266CF57E82694DF5166DDF93573AFE9C9C5EB05F8FEF8E89E0A8917B0B3724DB7BEBB53252581EFC3E38166BA131A3A5B42FE2AD00A769BBFA4458D2DE7822F8C4F63D0B8E21B285AE13325F3410A4
310
35C648C9D91FDEB109E73CEDA7BC796961AF79175E1A3CE4C5E8B0D009B0C9E29EFD98BC8E97554E3D8D838424E270F7685226E5AC268E021EDE3522D583E8F20C0BDE2959EF5BBFEEDAB32FE9A3ED0E39F211A86AA9DEBFC68182EDED132AB8BB794442D2D7EA9F4D8BFF52BC4D55BB165124EE90A42D101E67BBBB292FFB
310
4F66DE5BF2300E44546757DA7CEF8932BFC9F92A0707953491A55C5A5ACEDABD9FA1AEA01BAC3DC5A24E22E7C47213493996EFBC369D086ED9397C9BA6C7F9855C7BD5E15BFC8C53DB3D2A4C5901A57ACD2FBDF4D1676E95338B2C2BCE65FDA4C64F5FEFDC7D9CA5AA1FCF11E193F2FDABF0F4916BF13FB916A224380E6462
310
A9815F2300DC49CC4DF8D055CEF76462F4B7A7ACA7365C2707891370BC1D0AA6203C44CCAB47084FEC057F27FFCD57F89B8B9852459798A675C66BD7CE572CAF71FF7E6D7ECF7BF62CAB7B3F1107DCD04DC55A3F9961700286141C94A4F771FEB2BCDA2DDEE0CB0BAE402FF1DB0100F8E475DFFFC074DDB4498AB7D186A765
310
4DDB1CB680D703D47CEB4E72F8CB13D86A4AA68116E26387B93FD6738779B34FEDB8E517EDF2BAF28D9BE93A1D3A164320E07D42E514725C29515FF361754213EDE06B079A2E99EB1CA82A02019EADEEB87B9AF005BD04BBCECB14AACD6B24EFBE482194A97DD32400685FF1FEF1544D1B14EFB1E7F08E6D2CD2AF52DE757F
310
35F5E62332EE88EA26417AD5C3E0E319D68F25414E6D672BD4522B278C57D18F0113921C71D96527E091F00CEB15AE23D24667369BD3CEFA10C7549D930890BA4366F4EBC55F01F746109F98ABCDD5A3EE06619C6AD78AB33E48E4C9BD21BF7478B385EC05C4F8987E2C1BFA0A60EBEDAA0AE0B015C2720ECE180FB6F2DEFB
310
EB822D96338C9B63822183BBF52FB664A7AE57003AABCE512BF77E7E31BDA2E739AC4C131657DDFE5225E900FB56CC01CDE808FA4A9C9DA16AC679656BB64796283D89812B8F91136AE18EE5EBBAF47A73BE3C153EB5D4CD491B4BFB4FE690A4CF9ABA08C0D8AA64220C438C96EA6CA80B58FE5761E697B3A292EB9FBDA502
310
FA863E49FE694ADDFFF9D62C520BDD1A22014147A0903A05B9B729F54272EF83931FEEC057BFF8C8055C279EAC5C0011804828734024F6CFA319C9CC6867C727184465CD9BB7ED386AFFD96B294A85E3802FAE47244602D8273615952B98C4F23F7EAE4463D9D638EEE374A20959E0FE519C4CFB0FBFE5DD80C2AA3F9DB961
310
D1BDE57E67C9BB47B77FDD74EE3094F5DBBE3EBC1FBDB7393F5116263009E2EFE1AF9A221B2AE234C902BF70E9F280ED23E73908361565964333A3F01D0B006AF32FB21AA1316744B489D5A198E85299241735BE559675130955C902A8ED761FC0DBE337A9F91919AF5CE32AF902ADF9AB2615E00E8A94586BA1A90839B618
310
32FF1BFB76D2EFADE6DB1BA04CCAD3DA649E7E2A0219F592E22F2AD54847EEA8E42271011E9074F8F3DD9FBA6CDF88FFC9FC7E811AD1CA8F4557CE4AFC7BBEDCF0114A48689F20A584520C74DA8127124B767E2FB91A6B186246727BE63C9445BAE02088D58B8EFDC0F1072407CD9B89A13F6303B4A928F593AD489B58E686
310
9325790ADC406036C591729FE14021F94B7796BB11848D463536A092A26F077F94639F7CEEE2A724C66EC885F4A24F8B8A0AC321F8FD149BA529460FAA34E4663C02D41FDF80BCA222D42F0ABFF8490F4FA74C673807C2051D8E467B47B616072860069A9A303ABA9B319D58404461401B0A0F9BE5E1E151C14BC33B32ABE0
310
3DDE91708DFAEB15E7C0D593C86BB7D7EC17BE56E57975F077BFD5525F3A1A361D584A75E08CF29FC7B44B2B3085014F3A5A14517377C3F6B8F37E59514C3B12F8AACDEDDA4DFC49BE5710101534CD6FB6DE15B50F11A09472AABA727F0C49D9CB906B158030065F48EB3625E010CEC1D511D0053474B11E6A4F01C0D6EF1B
310
ED3A944FDEC70E0DDCDC756C86545910E0DAE3BE3AA9A404574C2995CD5CAF9549226BC94B4F4F0F5F9086F418F6B32346464610D8BC7391D3C3A3CCF04CFC1FB2A3A3170E369511868F14EEA4E5E438CC73DB1F3248AA94B6B2FF33B222FF3D1E7BF146CAD229770158063BCE4F5391964DF62F7E52A7BE0EEA829C9E13C4
310
C147D6F93FE59E111DAB5E4594D6F3CD1AD375EE039930EFE5AF2BB2D41C83C7DABD8C659BAFBE8FAB392CA634F3D15C1D945DB4588D2B0824A4EC928AAC565557CA2F0DAA588CA5BE30B3A8004F7BF005E96CBF891D7F18112A3619FDF530DC8AA64954258E1811789B5189B49B4EB53F5F89F7D37523894F3EB57B373763
310
C91E502F52CC99EB7BDDF933FC324C4FFC2561DFFA7339FAFDD0A4BFBE6D3A8FF9ED1FC49898139864602458968913181918F719CCF5A68B2EE9C1FF050E34E63107003B8120FA982C21B30A874E4F5E4B38D5A8290C4B8D9BE48A0BE31EA995BDC37AC6DE90BA17D259DEF53605D55922FEB1855D915B659FBEB350EE0DFB
310
2F9F766E1C84CC8964B75D08667445EAB966015F63A18A9E0A325C1B3DC628C0D3CB60F767FA93CC65F25458BD23C3B312716E5F40E5858AC06EBA9AB14F95DB99147B832069201541D09A0D856E12C629CF32683760EE855537D1901988D5EBC156676C7DD51D7207CF3267AF1D76C2AD867315E44618015313A98B19941C
310
696FED3461CAA9B5415F918556D7802EDACEFD6B2E45853A9735DFC9DBF7E440F9319F8B6805A973BCCDC76C069A9144E51F187EDCC12FC31B5DEAAF0A76137199B106EC84ADA6B6EE697D4E6A96E007417F4E880E8B1E89B4BCE9D81EF611E2ED8F0C1A6C25F620FAFAAB656A7C42D464880E8AFAB0E0FC8EA38CA9A8AEEA
310
EE3E4648BA4680270A89743CDD3E6C6CBF34B7B640EFA285ABC7EA0A1E28F3CC963D114A80123EE66D0AF7D5380EB41909B605AB4765B709B808590458157E69BA1378FEC4B48CAF6A730E3BE3C5EF2DD1A5EAF94B1DDE50CEB55DDFD7EE9A16747FA4B223359FB1FCC69E1194892BABB93A1D5C4E807AC0EA2E30180811E7
310
7A2291F6E7F7FAA5E0F60215BC6024E48DE436C511F0628B8CA189982D4D83CCA17D305A7E923C37941CFDFDCD93ACAF735EF5F0E61BBD3E6C41A59B242790D3A3BAC7064DCD89AA2E37214EC839820949D5CAA31E240D2948E48F690298974A96BA9A8432BC90F5071D6537C9666EA4564796B7AFFFA548077BEEA75F6308
310
3435074BA182F3699557397F71548383FDA8CA34D99B981E72835ECDA5DDDC151315173D05A21F651AAF8524E88209E2E7A737ED1045800CE3390050BCFB8BE588DF111617874C62575039CA588EEFDEFEFE319B739DE2EDC147092A262611E159650E787917885EF08F1F51B8F2D8A71D60B58B190FEF9541A1BE94BC19FE
310
A50784DA1419FE4B0FB51B8D36B5FF8E1286FD8AF42B91E59A5F1CC4D60174E764045FD8C57B18209B217F89A62252BD20BE0E63E12B8E8F029FE19E0E8D0870F58721A557082250D5424F7909369376E41666C0EE77CD87CB283F661D5FB6D0DA023CB67320A20DC7BE661E9E1BFE5463085C557DA1FF9BE835733766C3D1
310
39F2CF9E2208873AD0EB4814DE9E6BF2CAF81614D4D43906ED1C05A3265CABBFE192770FC2F64F940CB6B17B5F166F133C9AEEAD2641807C3E69515171DD74C4A85311513D6EC9530B3B601B6BA3EBFF3B5C3D2F7D69765141E345F75433953D013ADDF8F6AA7DC3F4A7563FE5C7D367937E2900D7EAD0F9FC9A4A1A9B5BDF
310
1FEF08532660C01C5D6DE22199AA774383E306DAB87E301ABB7D213887F9869D4942D0D71E94B27EDF216A318BD488D45DF84529EF575AF3C3938C0AAA0215B01994153E2054A0B894DA5C784980633AAD48576957CF4AEAEAFADC7C587368551C73DBE1E57C58AC713303A8BFC258BD04B51724459FF9E24C03A81E0E0679
310
CEB9B348C0DC998FEB9C6D6EFA77D247CC8F92D3848599ED89A23218D0636465AD1CEEB7DC140D7426F83491C4E8E8281C2FB35240918FFECE880CA2A42D70E8B20B34DF5221C7DB0CF90ECCB9C745B37A47E9B716FF7A97B7A252C1F3814DC7B1E1A7F72B8751D524EF7CAE45B0C73B3BE7D08ED39781B380DDFC9AA4A474
310
9C9493DB5BAD07A6EA6C092FBD0E85DB004DF06B8C9D3089C5320187E4CE1846158C7EA7DDAE8AD9AFFF21AA3A1026BB06A259845E8232DEE62811A4DA9CEAB3A4887320B76E2AE5615EAB7BDF738CBDD01F1E64064BC13D9EC53576751CA8CACD58B3CEB0E6CA585BD089B2A59B9FC101403387AADBDBE70586B93D64BF3A
310
D4453EF9C3B6A93817E8346991798601344F79A83C51F3D50F7BF2683A3605F51A72449489E0EE6169C749C60B1035651103AEE24D24E51A759C840DD3FC6504DA6FE107510E447B43461C79D22970B75DE5E1BD3007D1AFC619A4A4A69B5626AF5E9B8374E20677F77E2F8E73DF868E8BEC7EBA7B6A75EEF7205E1AB9486C
310
B642741D6E03FF13FCCEDB1C4AC129886268B01CDF4B124AF797CF784F3C6DEC97A17D4B558070A0F1C04DA4FF9BDBF34159AEFE958479824B3F58EBD1E19088A2AFDE501B6F2052368A3FD0E650A179EFAB1561E1D27527077136E652676C3670F42DCB3352F48F6BC86D2C3B0051727E41A0A4DC6CE2BE9D47F5CAA2935A
310
3C0539AF080665997194ABECD723B08129CC5B6B21D2E7D54CD4D12610E7E9FB8306771A89576C7A982002775ED44F3F744CF21EEBB27A631671D921938AAEE3EB0D19CD1E083727F607823E817BF599DCED5394E37EEBC2E88782E638920CA641EF74D4CDFCDEF06F4278ECB18E31E7E9876F2D783C8BF429C75395F57E98
310
C2B495A3DA077EB3AC3C158608B6B57FE3EA48484D9A480096FCEE0DE880950E7E5A5714131C5C41AAA29FD19AE81AC145FA1B9E85C7169A5AB837B213493DF7E9AA4B5FBF9CDEB36EBD21EF1181B7CF7366AB2A951D01E37AF4EB835D1BE8C117CFBE7625D2EBCDB0B20C5A4B45CED0BCDE3EE8DA9DA78C2E21DEAAFFD119
310
7E463C33CC6A80FB785669B856EFF7A8CCCA2841B5A5369173320B1170C368B2748D81062EA0296E5E2D95D7667A4A46D98A6FF475C76AAB0A8C8D45E226FAFC9FE0133EA9F60111F99CA81ACE03A1D14C89E8B0D69079C91464FA1D99E651D0EAF606F345C42A8A1AA9BA391031582B96D5B4176A77AADB01F12FD298A75D
310
EEBB2C82F0B8650E880722F8DDD90C56A7A058E5FDEF1AC93545BA27367C76F5D8F9690CB6F8DAE141EDD7971F0FB548A2AE435F224D6E5954CA155512F7332029D5A1230854B79F258EC5FFDB09F5F6343A8EB193229B7F7E79B3E48F8E183860B38C8269D1B53738FF1E0BACF6AADA6D4869E9DE708E79B5DADCC09B1BC7
310
6F649731CFAF59A83FD8BAE4C749D66FA87A3810D4D62FFE826FA400C0F325D2BC0F3CA35F5847B82A2ACC7961745C823E4D863D54460AF792CE6F79B5C7A33B25C3AEA6CDE15A919B6367D781E9D44F61BF828672594A3E1D9EDD6DF179A81F27EAC05B936575D73E05C209DDD2115CFB705DF9BBF3C911589B3640735E9E
310
618FC9C36A7326C82B2205E244C55D56FDB9D5DC93CE958D4BF8174D2B3DA54CB3C09F2C2A6DFF73D23B2197355761AD421EC581284A7EF8DE2CE3497C0C804D49B41DFD6A7360844E5BEFFB495CFCDB97A4595911CDBA623274CE852B5E278AF0BEB1770E9D37CD977B2766A7DED0E94B840E1E95E8C77DE5CB6354AF7871
310
427C28ADBEEF7BA0A28E19DE9ACD75F379FE373EAE6DDDAE3834692F9C2B03B4FCA8FCA9ABE8EEEBEBB725B88A7C90941E850682CA04061A7DF0CE82ED49BFAFFD42C309818FAE14755CAAE78B0F73243ECCCAD7DF58FCB9CDFAE7A4D3E6671A613639130D056C8383C8F4FCF4808C331E544DD26E4755D09EA05253B3049A
310
1E32587CC25D72E073E2CD96D04A71BBCB0038FEC3F53D254199C3CDC67CD66640269431860225392B2CB3ECD0B4498AAE78BA1994246AE1EE78F2EDFB79F6C6CB6B5E279C4D373FBC21CB2698C9ACBBEB6A4BB6B39E16AB0E421CCBFC7654D81ED86022F9BB522146F9F4772E2D0E4FA70120C95A85A417BF5078B232F475
310
4363EB1750B2AC2148EB46B1EA72AD9B4D23ADCBC589D70106C3EC2ABEEED84DFE28E718C6C83502C28E9FDD3B09DA0A6F6F7B72B706A31C9E2A331EE70DA56A083D2177BFD63C55B11D8D949FAFCF90B23A1E24B9B5018B9A17E99F2890EC302F330FE7936E2C23F0D237EC8916F5166AB84B62A21BB0B950146962D754F9
310
2CC2C8877BED8FC7B7B25726DD19545392570B3A2C66B58F027BEF412E552D12A588C4A3CC5C3193FCB3485EFFF700D0B9EEC077754A33DC1FB9E25AF814628F91DDFECB667D3F7690803F38D13F8AE39353523BB08FC6760144AFA2CE28236F65EDBB3D5F59A57D612B99E3D7E5F8A851666BF9B5A6658EFC96EEB37A378A
310
BB0EB3FDDF1303AF32C41BD1C8560745D7BD81066B0D6313359CF488563D3BA3F8E2185D1FAA3EBA1397C9D0E3DD232180A4DCADB6AF25DB3AC3CC26589C8239E66E81547BC7E2F328F9884764CA37EB5DBE390DFC03A5246B456A7C3684C4377D0EEF9A350680FA9A077E8B2957B489E09AB1AD41316944C2254B5984830F
310
691C93CAA767EECF976FA5647538830B5E63236A6F0365C1E0F3E327F24FE35EDDBD7360B0F7374837409F7A6311BECC12B7026D4FA1AE204FA3F5FE904B1F420C7A9044AE58E403E7C4848E7DA25DC9EDAC79DD756FAA26B9EA83ACE8A214A2612A22AFA19DAE7DBAC5F8CDE1292A485F98DAC731A29FE01A3966E96BCB9F
310
B5A4C8830E1B9AF0C54B87FBE221A097036E5D28D1F869F810C06A9BB0AC0612F69AEBAF893C6E7AD59460208BAB3A6B09CA4F6BDDAB8CF0D1F84B72487498395A70DCD754796E271099A567A55CF242BBED64696378BB6CF25EF0FCDB589F3A82F1116D010A9AB9FA4358809EE0C973A2B4229BAA876A70B03AB49CBA7FBE
310
71DB1832FFD32F9BF2C8E98075CACAFB36921235D0F552B6A67E94E094097A5D7DF681B40623DA535ADA7A9AD8E9A62407D7C9A5AE51D62A17A83A23728DE86BB56115804D3F2675F2C6B87541A0FC497BF0CA86420F558C9859EBE9FAD62747E323E3AADC03FDCDDFE7407B09DA90B44E3185723C5381EAEF589765E2F7A0
310
99BA46695BAD60CEF3491B8A171F5F56444F7CE9455312C3498C74173AEA0214EC029833B34B650CBB5A5508D5091665309642791708ECF27CF11DB3D797D6CFE474453BD4BFADB768094B2147814D81C7CBAF8228DCAF5564B5891F5EF6A860EB2E323CB82AB868D8EA048880D63B0DE5341F1B3D53297B928A11E15F25E5
310
148990F710747C3509ED14909C552EBE3973246FCE55D00564D8310BC3EBC5085D08D806799B77D6C57FDF5E55837F9E934F09C03C729271B64F12D0A9F9E938107CAF7BF1EC8CF1BB9B42363D33070F4CACB425E605DDB0A34A12BB936DE286B9887A4E2E558F0886498BFF49C311D96C277CF6A9FC0D75AD0ECC5226D7E0
310
E3572012E56D7FDE4410CEC7A6D0F997F225A2055B8B92E3956E875AE4993CB3D4C9063AF98FD45E1BAB165640A43439A2C9181A7C355B297C0A0CCFFAE19B6FA3C2BA238A885FBC98B8F6DAF4B94B97304878DF4D8BFF6A4AEDF79E90ED4E68F00CD7299F4E0D83E35601AF0CBEF18C1E870E74758FA91F5131075004DB3C
310
FCF09AE1DABC11957FD9808C92E8A678CE9DBE40DDA0E0D1D505AAFBCBA208232BFB6FB3704E8985E61ADE53DE74152F5C7DE74B1DEDCD37DC3E8FB30D7EBA8B9EFFC3606BF90B8D438279CB7709FC7C00D327F41817EEA71CD9E49FE9C8C9A81C70915D9F0F15958EC5AA4C3BBFAF46986B90F188BDB24B89DE3C6F29EC3E
310
6F66D84856EE96A35E657CA41B41EFD8DBFA16AD6E91439EA92B40B21C053249F51AE50EB0B24C770FFAF40DF12C8436366819C48E36547D4E7B72FE2BBF10828583057814A668BDF183F6B2E58DFB151103E56303E63D00F39C27C4661605DB644D19175D02E3F0241E8FC3458D17AAAADB117CE9EEA690D0DB01E634878C
310
04C2C9310B69FCAB831151E3AD293BEF6E46B0ABCECB50F5939B39C613D41E81FAE8D34CAE3C4566B761D37185FE864AC32FCB71AEF39DAA5BAB88609BB980CD2F07A8F941653B529567726E2B2A58D079DD57E1E5E31426CF184A04D7B03B985F276D47406AF276FE32E3328BA866EB1FD39BEF57863A317634AA5FE46740
310
9B3873F5069EF0D71AF00AD189D17BA1974ECDB2D623E9E14086386A6AAB5807825C37B015BFE892AFD154920EC437EB945D958E18622E1E0FE2FA06557CE4BB9BBD05A2D40E774DA2B65473791E314B7D6C886820B2FCFE4AA272B3B8B15E7344A145E8AF919B5454D89D36D413E87211186BF6F645E5EC94DCCE8E1C7990
310
22E4EC9BC86D7A0F2AFB1FC4B2CE48F84B3F49ECE65BAD24CADCC07EFF39AB06BE9E6B27A059938EA7208838455383DDBCFCD967DDE4650EF92A14FF933C975DB20BD7FEEBC4487576485963D757D16340D9599FEB362F775F38CA4185A86F74B629C81B133644A3B18FD056E997E0734F9BE26D11C0AAFC669E2AC9FC41D2
310
81F8B2E1C35AE27BCE05F3DA295488096688719D974DF1B5D182DB7792288697F8763CFB43562C1CDEE11C4AABD5C22B6E33F6F389CFC3477C5919DC0D533F8A7A1846B7ADB60ABDC26C43D0CFC8910B7C15EE22675BD02702ED39DB77A87A192CA7A543E6205B979B9F5A6B512A3CA799E198B2D5797C0AF8D1D872CA455D
310
4D431A7879D4DD76110B5FF7F4176B54477A9EB5E4A5D11214FDA585F0382751D8E2582BA5D2075053298FEB8F1537304E32CB22C2E2B693DC0A760B1DFCA751BDC445AFDCBB12820ED85F6D5298933C7EF1211E9E057684056CDA3FEF3BB6052355E162DF27C59E965A8DDB7F9437EB72CDDA3A090DE65A5B2F50326247B7
310
EC67B73ACC7047FC9B353D6EE990F772207C6EC52B39DC2F3C0754821DAB559F7C1809C7D0DD5B0499D0442E0A6E391B3D5DB46D11E731E6794EC77523FBDAA242ED67F9FA1FB684255671F63C9BCFE6E7E896D51001A6113EF2298BA494E0B0980D1FA5B9D60796554C02256B1E0345FB7C6186B6A19D2DCA270416262845
310
FA4F42DB5D9B0A0B6F07FCA2E56C242522E001E0CEB734AF310FC8BFB57E38E03AACE93B3326A2197891E68452B26A6307FDABFEE0223D3C03C3C73D2D5BC054C8311F12004CAE488E5C29287F8156A2CAA4AD0D7BE6B97264E4139F437CE73ADF52E5134C52B819777C18B323A5924E4F67AFD13B1CDC3A61793A79FAF5C0
310
CEB718E441071E797C6DCCB9EFCF7E4A1E9F3DF3C2F9C9E8294E9586868788C972857FB0556D7A26941A7EEB9B580AD78EC40B85DC906B4120A563CA3B87797ED612D3B035962BB75F6515A393F4CB057F564CDF54F2E5A024514E6A1F901DB80C7E70B1FC05E356A7E72FABF4775B3E3FB8F70A2A8E7B6A94542BB3041579
310
78CCC999E707A29CC795E67A59CC546A5D47B368954CA7B6E75EC9E1F6FC73CE3B4F71F8CB1A6B15923D61EAAEB14626AAA9D04A26EB9C66CD1BE86CA31A5D8703DE04CD1EBCE4F5CCB62F93909AD11E55799A781A956ED27D3E738F4538CB04ADABC7DAEF20BC35BA6A90BCC1DC61BA05F20D8832FFB9BC9B15E2DB838A0A
310
FBB7E0C82A562127E0446894F427794C3037186F622BF24DE1B00AA10A23BFA47B2A180D6DA5AD6F7326FEB8C100C2D7142EB2A0B2A9D1008A09BA343D70E054AB69E2A7EDB783CBD92537FAF4A44D1296AC2792729104B3276C276C951D0CF3CF3F1E6B017720A7B8505A5FF9589365979678C36F1BAF759EAF57C60F1FF5
310
FE9DCF5F8E764FF25A2D06CF25117A8FED51884C13B2B750DB0E4F5E3D64124FCF11F0AD8F1CC3B3DA4B38ED22BF1CB2585EE6BFEBBA63FBFD44F9537B9B37BDD6B358720F98A8125AED4349CCFEB0E135F19E208A04CA7E2B10711185D72E381F448036EF57C9F874E54A971CA37A639E986AC0226DC5AA00D5B14FEA9192
310
234B3DE617814FC221C92F33F1D392F297731B567FD98FD91D989379AF567A65B8ADF177591DB90FBEA99BF4ED11B16E50A0AB1DBF1156D034BBE04D69D08F939D8E92BF525A1DDAFF80ECBC95D8F45D3FDD289FD23F7D8B452F8EBB34EC082DEEE68E18EDDF072060FAD2AB1504DD4879BF67099FC58F6E9DEFBF645D1633
310
4A3E9A127C6F1AF6132CF287E433B43A0EE93812B4AA0B194E03EE3FF91EF9C6ED0074A2F6EB18A96A7C9890B1FCDA1F2095E944DB911ED54C60DF16FB74C8CE9BDC7C54C4F14078CF73C2FFF1F1BBCCD7CF64F71407EA1683DBC410D226627F66E509060D5C0AFD611DE681D509DB8DD12FB1265B03C6F5C55FF4C30BD941
310
87FF692B4F152982502F193098A789526A038AB529A52BC0DC4FB6285CBAC10A8B8DB75DCD9BDABBB221E27D1F8DA9F5EE5926A1C8AA9BA9BC09239C6A7F12914EA3B59EFF7AAEC3FFCCE56F1C5C2980AD072793527565E774F4631DB178CEEC691B1F367BEA0CF2907E1D6B854D527065979DDEF002D8B2ACEA7CE21AE297
310
737EDE1D45B31233B73FEA35BCFDD0B09721FDBAF6432681F2FD10C3E9EFB246FD6E854B344ACC9D8A0EEF876A7314B49B6A499FC650B099D650DBFEC7638ADFD245E2B7839DA5AC5F7D5623FC0ECEEC8653FC9B2BDD1AD4D00A566FBA7186DD3C9CD26512551637498CADB950FEC71ADB9A5524285DE328B8EC7EC75D2345
310
AEC6A27C42AF6D9B92155315C80DBFCABBB7DA0FAE425C4FB896B15C9BFAC4FE67DF5A23D30C93DA4D8F36FB15D100050DA6062E22AEC5F4DAC4F6FEEF97AE05DE63C6D38F9E068A20BC5E3B6BCD75320C5090924E7F93640A7735B1A43451C2D91EE62C6238B797349E59890AF3A520DF4A87095F3ABEC2E61F0593416CE4
310
6CDCBE0E00E2523FCCD04408588B5B6C9DB6459C786CE378770B54F51DA3A5E1DF2A3349BEAAC234A6CF8993B598B3B25B4B113E353A4D750FA7534749430F3EBF2512E7EA3FD43C6AB9A1F765A58463B306721A15D224FAFE8C6F5E3432D57EE697DA0DD5A9D4866A8BCCAAA9DFF1F06047851408FEC060471D0E3EB86BFA
310
F46E4B5E60311DC3E3CEA147C75CF971BE74689507154FF2D2E92F15CDB2B9182B11459FD8ACAC5A85F174BC94A7F4EE4C4F5CAFA7C02E37BF0BC77B7DCD0C047BC316F562A01A441AFA7931CC84A28CB9F4AA367EB515778F29BFE61195FA671F4352E5E46E3A64773F1F76EE5EB36D7BCE9BCEAD837A4D77F8DB8C92AEEF
310
6711920D7C7D0F76B0FD0EB7AB83724CD35BCA7D36DDDF5FBB7FF6F04A91F3E2BB3B8F1A43CD659639507FF6331C5F697BCC782AE57D757A27D97F1AB9E0AEDB43F92F1B2AACDF5FEC8ADBAF9F814E2027003BA2F9E144B1938A7A04050AE5D953B82C45619165C813A10E76DD6906B3C16438064D14CDA713AEC420034613
310
E1AC7241904A49FBF87409AFB1FCB9B72FE7933A87D8FBEDACECE4EDCF6A4FE9FB94D5DEB74FAB7CFEAE17EE965DF980DCCA2D04134994F9A2E94D2265DA4FE6AA7B7AC15FACAC2B5ABBCD7DFF542C5314FDAB2E1B9D8B65220B8E2B638BE008E8DCA22678C820C5053664D15E89F2D735B51A84955E81A443545E9FF787BE
310
0FA700A76D136C27DA179A7C6E8939E01BE756E19CB292798063D8B97F44E8A27BCF3A614FEB8BE974A718E86F7EC99B53CA35FA24F61F2B07266684623A3D4CF073E511F3A10A8FDAFAF0078C577F4DF9D339FE7862E5FA47CF4344209E5BF76D783B1B48E152AD281B15FCB934DCDA49CEC5706B1EE8B460F435324A5CAD
310
154725E21AB8044B75A557A79F6C807B9340AA3D92503E866F4274412926C8C504E4D5EF8C0E68DD0B028781A6B4054F11CF18941F101C57CCC796773ABC8DED9CD91FE5788806C05E548895354AEAC96546D55B0E94A59F148D061F42AA398D822CDECA4CDE79E13469BDCC44FDC990F366BA5978C15F97ED80CBFD73B0CD
310
9B8B83A4F6845BDFBFAF034019473FB9A63BD55D3A4A7284757071574029A4D016DCCBE95DD679EF3C4880BF169422F8C89B68A988D2B13793CAED4F74DE7486C72DC94DF46B8E93D8E02EFCB1FF9B3BA10C8AE7F653DF94F4AF466CDDCEF5776687F7C4C14B63E4EED1719DC2EC482D7DBCC7AE518CDE3D5FF86D39000EC3
310
673C0044E1D308BF05F74D1B5F033A7D1BE7F74BC55BBE3E4A20F920946CA0271EB17BD2B80E5660ACB8A29A79F5E4BBA49D4D945B6EEF4A7EFEAA65E5555BBB57A7E15D2F83C69F30BBB978D2B39F1F26FC097424D39BB33CA3D87ABF64E307938B685BAD44F71556A30B7E712CA4FE600613C3E554B69ADE949A7CFE214D
310
F1FFF05CB82151EC6FC31950239F94CF7AD39DC473F6EA356E5EC2C4EFA04383CEFE985A127484366FBEE3C0EC4FEA363E4F6632AE781392FD45D67B63FB8DF70E82734F431FD3443172A0E30A83D60982D55FA6A2CF86DBA8382502ACC6CDEF3B907982EED1160E14863FA242F9757347E1544275CCDCF71ECD5F8621CBEA
310
326B8BA884AD7F825781923E66971F04010D574C541D8427A438A37EEF8AF88240EED7362C953F5A81DE2D56109CDE2524EA0F5D2F87308C0C47BD97AD605878AB8589E17CA83930CB5E0DCCD75853D68B1AB136594926DE426C367428E9334AFAFF90ECE221BB5DC9E5BB53D2CDEF954EAA9CD814F0E5725F1965DD458E5F
310
8487683AD86B9D0076BE3EE91EB1CECC5331A67A3F79D8B27587C12EC2A6A70474749F27B4C0BBAFB94B34189E88DC18964BE4121B9137FD516C7755356E50D6714E31ACD222621EBBCD1CFF81D87479056A9DA0E0B8EA19D24CF937DA89F78E8650CCBDC110AAB6C4E46DCBFD0446BA9E2060E81F314AC2031E88135E5476
310
AC0160EF5C0DD2EEF1B8B5CB2D198BE9A554A9093B5F7D7E4B5407DDFCA1D9C152FD97F55BFFFDFE802954DFEC8995B983E28AC92F1971E28F531DC407A1280EB125F64A72E617EFB27DFBCEDCDA2D6F2BDADA36873EE46B9BE1782998C63DA7182BC383FB6FD15DA472B175D7E8B4FC88F38D6E07FEAA3FA3CBB8F6B449EC
310
F14D2175E5C5CCA3A42ABF24CA6C9395AF74535F4DDB38CB84F56614B0FD32D7E19CA5CF988DB4449C40E23DF2B16772594554579094450F56F253CD25EA7F77366FB1CFE79696C428BB64D5A41E986189427E5E4D7E2DAE3D5BB4972B3DC44EAABDDDD63A2264ECFA5C786EB0EE1FDC5BE34FA0F08376869FD1E61EA06CAE
310
15191135445EE8F0394161C3266A596AA035572BB0C8876180D8B9C77D307DF9DCDF7365ABDA6F3A2366436457A4DFC1F259666569A9E4A79C817BDD5610E5200FCE894A358EC72858D50EF67545DA81C6FACE3D457BAF70367E1E6BDD9A952FB4F56247F58F523B97E640246051A72F79BE42FFA0B3187F63097F91C48B86
310
8586F714B0EBD5A00A8412C1236E1298F60C72BE6C96B82B404CADAA304AE9F303176B14BA53FBC2D5E86377E35542019E24D97B96A49B2C0E5006E7795954DEAF5DA58958839043C6C70BD3B1B33B6DC5C31316D8A6923F142E26F6711A2258AF977DDF1F970ECC4F1F2B434B96D81BEB6E89BF3BBB3C7C8CC80505070723
310
D6D7D7D3C8CA27CA164A26024FED94B12A86031867241DA53D929636DA600F050BC40CE48B8BA03D69224720DEE2ED2127390BDF5E6EA64527BBD4C4C63FA76BB801FEEC0E61218EC98A8A86CD8313781617877E66692839B9468CF4DB8E50A73986E558E309C0D6F676F921BE02F1185454DC75B111572FF9D27D85EA14C0
310
5AD7271225B391C4275659CA4A43759D0BA44639BE4C30A84DB7F67A41399FB95CBF923B1B1672ABC807C1590557FB18D811983FA97F5E609516D62281D38B1281F68FC75528C35E4CD7DF0F7DBB5E5DD69C414EBEA2F4A5B241B996BA77AE6C772E367408C633EA3E438B68563EA8BE7667F3A4C4FDEEA52ABD78A2820F44
310
3B7914A15F180018D231E64519C56A12F6CA7C8DAE18F06F6B769DBF92329EF6A5D18FBCE600F36BD8E8198DE5CDAA96181F3A756EBA5501CEE58F497EA4F418A2B82565B9BCC611713C0B708CCA1F398B78C5F7D03B3437CC18F13061F55C7BEDADD5ACB1DB0E36D3CE47FF6EA1A563A57E9649EA5D14D1A50EAA45746338
310
1C073777EF1600607BAF6428A7DDC079D47A204EF1E1F1F0589FB054D45E02CE623B3823C317C601E589E22B1E88B448524B86A82828E32345EC18AE17214B42F8C41C6D428016D9BA31DDCB47572561E5A402E5BA4FCE55F78AF7268524AA04130F3A20BA5D1E9F9948EA48FC8F5314FDB35E21898198060034ACE5E3E2BB
310
CA34092518F275190AF65F45867FF0900AA4B81F25427414C372BF51DC29AA855C5428EE1EEDD6B849AD60F6E73475C2D2523F8A2772C840A478DED18A8C5C91B085F255DC4F54EA7AA8947354FD17ECF8FB3B4A0DE7B483CAF3A1165EE05BBA413E5C1FEF3DE1D6B8F2F3F3251C17D9FCAB48A9AAF63AC773A0E413BBC46A
310
9ADF84A566FC920E4D8C52C9769EE3301CADEEEDD92B312E02E2A7E35B7F1E7D203FE5A7D75578B06E99D0E46FFADB8FDA17ED8880390DA29094202D6F645F76F6F96409CDA05495A96E84B04A00D1A6C6C81D7F3DE9376E828CCF144EE50E364ACCE7237EA0BFB5607ED1AC3CFE73794E5B61739D14DF1743441B1AC98F00
310
ECEDE9E7301FA29755FBEFA68C91EF2B314CF510537EF1ABFC9A762496280B546F5EDAAF8A5B387D469FC9A878A92828C88608453ACEC6094DCA54111E7AD5B2663DFE2DD151B7F123B9F4FEF8EE36AB125FD7AD52A59B1B765B3E3F73E3F73DEA93875004D2AFFE3CDE9493B87A9904DD052028949041A91DC0E1BA47BA71
310
4343FD5B25E0A6A09503AFC17C790058A836A324FE31D7893512E28230332F153181C1E018E1124EBE1BA262AA428A518237D1EA7275E48C5C561BD19ED6912EDD8367DA0F31E40EEAE9683DA9257525AEA7B632B97119E17145A90231768A4F3B9120FF32E8319B015E3CBE26F1A754177D8185345817C096B0CE443A955D
310
13AC15E1FB5DEEA0239EC32A3C92241A237B0B02FFCB4F93CF2B02570C8D192E2F2A68CEEB42F12E6F8CEEFF46C251E22B4341C56FB08CCE550E7A9D6F4D6564B9EA52A83D5BF2C6E03FA19D2775E15A8A7ACF30A13C259EE7F5EF2AC3BA354F1500E1A07FC63FB4686E2F12EC69719F9ECF5FE3F35598DF2CE944008CE78F
310
0911BA5BE5D0A34E0098FF038669C26030BA9B300303039852A8F6F496341737CA7E0D2E3AAA36DE0A70AA7D9CA0D54D9AD84B18A44C9E625475E1C97B93BEBB38DCE7D227E67A2D00F531436136355F243D1FC0D712C5765754FA22FCFFAE97919161F46D6E61ACB37D83777B385889770B50765B127768443A5C4D3A4E35
310
A3151111F146B7CA116F918A049F1C272F2CD7976C69A0068773451659A97E0F4A08FE604C3FF6CE7385DB19F4D3ABC8A0D80DA8A42096AC377DB49382B36E270B6FA7570188B4B7D1DDDDA82ACA487CCA5D38BD3BD039ADBAFA4ACFF27809239B722081E2EB9F145320553D183F28471C388BC8814E5045676767AB58A8E7
310
2D1CED2CA731379515D2E533E4CF0B39DFC625F97AC4836831A4DE330E87A8126FA17EBE583D614E71E22A8DBF2825599743E0640037303E8E1B1E8EA4E1ABFA4F62907B5E4E0E5DCFDAB417C36C6848A2B8D15F1E505434C0707E16B1CFC2A1C36A42BBF55734F8F4301DDC2A5110CEE8C0747F69519265012A2174BF4E95
310
5ECD4FDE095A3ABC70536B7AD0B9D7892F81287D667C108703C9B66A221E9A0929D030008F77FF6F5D2108EF5706FC87A3069B976F7C9FC3239D13D283CDEA83597461079FEEE049B0F392889898B7D87D31F8D60ED7B56B91823A8E4EDDB36C6172ECEE42BD42B12CD67994FA0F0DFAE9389356F4CD4425A4B8AA55CBF7EC
310
D585C6A2C2316791E43D5C06841ADBB226A87FD61515FFBB0167B74E56BD7F3E90A57A97FEDCBDF483A0D6699A8C0849CAEB4947FAA90D8E332D9DEBD9F4738C37DA0CAF9CF3DAA68BCB67C420459C7A64498D6E848E5CADE92BB6901F607AA331104A67F7CD650EE169B1DAE94D2C31C2F993632259B6957E246EFE4C5481
310
107B07118607700040E5812A2A2A38DA0076875258C753F60E0F2662C748EDD5F3F3686B8FC3BD6FE631ECCAA1E8B1C1E565AD117E54893E79F4672E32F9E46B2A183DFDCF3EECB4D4D077DBEA0DA254D256045109670050129E9B9B1A9E4A11344D61497A992778095151510C4BB7EF2009B63AA4360635312E4CF668B7E0
310
D3D85A8688E2BD83B569439892ADB63461930D428E0DE42E4AC57CE48DA5CC1449530D8BD3D6A0F08DF20C8E8F570F2CFFFCEA286E30969B4654D498A58D9DA782E19FE3F002181838925592C4A1EF0B332D88B61A92C644547BED490D3A42CFFAB70E36D961F694F6307F72FF15A1C79D5B1B5CEFD353D9E2B52566DEC8F8
310
F09CB3E8359C0F68EBBB7898243E34E12A015B2685AB303C04D3A9E00671FF3DFF0A184E4A2ABEB2B666AF5B3A209C73D8EF29DCDB069C9F391EEE9DD0F74C7BCDE16F8F02E3B8816122BBEB50665775B600549D8BB33A54A6BF940C028118BC6878C79958D6784F9DEAA6E26748386FFAF8D0D0101E2847B6563F5D8DC1D7
310
8F787BE00E2C941AE12148D4A81599FE8F68D4DA5CDED75530ADE138240300EE13B0FC13A1687FED6774662C05A2B7DFB186732F0D7A93545D8B0A6390AE5054D9CB582DA846D7A061B3358B45E2B52DDE63E114397EDB7E09233A579155D795BE76102CF277F4DF8B188C4F2879BEAE3C08347124BF9ED23B128259FE107D
310
31E34A652F090B30B39E0D9AF917B76A2806135621A8A60681F16AF216514BBD02711585B5B1AE823F4B2D0369EA5B6BCB863072727FFC871CA6C9AB79A814D989057E9470A3D238BC87CBB4A0EA49AFE2B86F22E499793CAA9047080450166BDC357524561E258C77CB697F1ABB32562CF87C3B7AA12F911EF19FB3E5C022
310
22E887D08202A60A17151F5E053A86B437771088B4FEE14D652C43E8D939995D34545E12E2FF93D4E366EAD25F10CB7DED141563C3D0C447AF06078A91135FD4B9611583CB4BF3BD167F2399CEAB0E0100F8FFC305F00F1711717173138B4B48C83022295DE657EFEDD97F238ECA80F528AFB4F8D67AD4E2594B9A3AA86D74
310
87EFC313BA95745C186F0CDD84CC12DC9CB0424B42203D351FD9C0A3AF10CC7F388E0329279087386421F194F4A29464C1DEF7EF8BE515E4A199DCD5B909342598D8FE6A231F71336248D5CEC5454455C7BE383B3BC7B260FED27F703FDC39A170F3827239102F59D4DEE7FEF82EAA1A5E4BA94DCC4CC44E7E2EDE20F24244
310
E4454369D2E87C3F823F193FD4FD27E1C23984B01898D15ABC20711A8A558054951A6AE280096BA36CBA439603B7B0B4C45F248C14B2383B4B5CD8ECECE4FF859AD4A6CA2326D020EF090F4041D28DB66E5256B56232CC52829DE8060BAE6BBF37D4B7469B822454FE93210A3E8D15E69FFCF01123222611C51C4FD0A041A0
310
CFA2471CF6BE38D2B20FA4C3525B5B8B586759475CF80ADFE67A284AC24651E52B8E683D24C2622642F27E7C3C22783BCF63648BC398BD6CD0D9C97E7E7E3EACB6126DB7A6C1FD9F1031302EE67ED96F22B77C7CA0239BB324207559B105E4693EB26EC46182A92C9C0DBD24F29B31C5C5AC1F84300E0E17CEEAC15F5736FA
310
4A98971E2F1423BFCD68D4BBD5F86E74B40A369F39507C88FCDB35D2DD8DEBEA4AF999E23CF2816D204200DF6E611781B9884C1AC8888B4DE397320472959434323A5A36B22A8E1F721A270DF3BD65E4A31C11FF048AFB0D8B7B6881423793963A23CFCE935FC189ED36FAE35C46DA3574C979E4394BE52084F3081837BE03
310
3396D2EBD80F1F691B273F660D2B32FA27A33B1DE4ADA5F0FA4651511102DFA410DDA86E065272CA314D5249DF91B06BB92807B28EFD54F08F7B525252782CD276DD02E6B0319B13DF87B1F6361AD6B28FC0D711CF445429B9E5A433CD493051C49A9E03DDB1B147D880253514A5DED88009018620EE229101C041950E2D8A
310
A8E1F5F5438E0C0C0C60EEDEE9E3E0C051948C69F84BB7B2A48A1F3C8EB9E6864687F4F4F6F6E2FA87608ADAF9C5E117B7C1A737E710769DA1D15ECE6A84502AA855398712D5FB51BE92E4EF824969CE18278798AC303C2C7980DD2500ADF8FB1E6D6C2FAAFF9987178923334A244758BAA01A9A1B70FA5097D01E1CC2A58D
310
AD0EC94CE6430AA9B0C10D75E3C6BAC670EFBADEE1607739CE0FC18A2587E3EC3058562014C64219C69BC269082D5C2F4A659278D585755912176D78A1B641719C2A394CED495A1AC5D583FD2F5EDD93308EA7EAE8A6DD396598BDBD3D4CFED62D18A5BDFDE0DD5C80D1A89BA62697B131AE7CE9A6594138582F1B37D68F17
310
49AC7CB67A70695D48A4A056AC1FBD4E82358CEAE38F54B95A9016F9000F9879C0D9D131768635CA798895F27D6F1614F11F2838A83611AA51C9A3DDB539D42979C29F10465655C17BEC3E2760B80DCBF609198C7B171A531905F3EC218D696025975E986C6B4C666666787271F202805577DD5A3EF0CAFAF91B62DC4B2DB4
310
217A7606282F31D8DDBC290593BAA93EA6353AFA9939B877978481E15CFC9F2755CDC00C538F63A4BA3E80AE009B73CA0185687D339A507D165B74290D6EE46D5C58148F020C3668ABE9EF2F7549170DC80DB41FFC1D678FF19AEB10C7133832B104B80F691B3138F97A92D26E551F1F110400D45AC71A9B9AC41A1A1B1DAE
310
ED0B0810638EFFB511D46B121C6FEA0F38CD00E03CFFEB9713FE1F9C263E4DDEC160D0497FA9A132BA608584057FB15380825DE6C7FC3C667EE947D488A09898D8E939C4953BF4EC9836344D2CC6B2971B2A21A572B06096F4982D2CC7232D46E8EA69DC83722E267754D777F97F96D5DA74E1E75178084D0E70F12AD33E5F
310
71EF2AFA599B2BEBF60A5BE475F444F240CBFE8143C334E7ED9150FEEFEF7EB020C4DBED388DD1D6A167A76F3CBF119B578AE8CFA7736ACAFA4440A1C47185638A0D2F3EB5BDDEFDA958FB13CE4AA4923D5BF840392D45544329525749734866684BF7F8D9D54D892E19BCA9F829A0F8BFCBEEA6CFDFC61D74EA1A645ED7A1
310
FF241739F15694BD835B66FEC5677E40FE69BD3F91AE402F036537218A401CB0828604AD189E575015C6F3F6BBC8AC79CF6C70653847254B31551EFCBEB5978B9DB85D58D0FA41A9DFE9C624834AA04949D24B5AE6D299E072D152D12097920F14AA92C31C3B97E28B6C2E6E9C23D63043ECBBC0A60FDF5BD0C33C127EA8A3
310
308B8B6AFFEB28B4455BF6E7AF4FC6222728357EB8E46E85053E6A8843AB23295BF838ABDA94658FEF3F832F147046B4ACD6F7D48E8FCC9618582961C898D1C7A253C91BFECBDA6BA18A1FCF70755DCCEE2222F41B76D23CA98D0CB3D95F0CF66D57FFF65E2A90F5DF40FC3187621E981BD0BC1D992787212688976B94A8F0
310
C6EF646624B570B78E068826F87CE27041A95C9A4871FF65CC17FCB1639629AD6A9517000D63AC231F3D741CB8430777E7ECF80CE7A3F73C0F162F7E56AA71F4DA80A33CD6ACEE78E2C11FAC03DAFCE929B106F8F6B3ED2DC71FF994BD9CEF4E9A94896EF1B6E2B7B4978168BCF0847A3D2A4F1B0500B926E634B174548E9F
310
BAD27153FB5FC36799B1E6C7C38A94E1F9E996796D7B485E635D5287A2AE76FBD11A341DB3F8F810385BB7296391973DC6C37C452A9305AEBBE0CDB6C566DB59FE60C8E94B1FD090354BF51439FFD1B48D725228FFA88C84F686F547107A7A235665A4593B7C34D748C1AC8D56DD5DA861EEFBADDECBBD65117E65851F9035
310
1AEB65F0EFCFF4BCFEF24CB7A5879699FAC437A7AF9099186CF006BB923A59E37D7A36A29FD8D2CBB914A5E9D0A8FD212FBF796AE9A67958FF1D5D8B85F78F96219D4714EB919929241B6C018AAE0C02069F8D919961EC5DDFBFB7573E3AC8E08BFB7C8534BE6DE045B3CD63DBD71F7638BA2309CAE398EA3A7D8F98BBBC7A
310
EB367EFA5CFA27A9F8F2F52FE878058E6209C026453F8E7E8A237DFC389E9590F6059B397CFD65183BBF936E86896612A5B5FEE49DAC8455D026218AFEBEC12B3523A45B57B82C9C97E02ACFA1184DB18E48CF615DBF39C3CC6F0B4AE6BBEEA2E39D944E290302FA3DE33FA7E40296E2EF7BF1CD855BBECFAD0FD622BEE974
310
6FC4FDFDE545AE6E3BC234CADF83A0FB76DFB145BF3828AE3436368AC24989454F8FF70A177672C711CAA1A76107218CF948CA01F873520E7A2B118EBB161ABAD432932029628B6761590C98AB590C8C8C79798CE9F715BA696E839E9131A4BB68BE923F1747FBFF165331FFDD4D05997ACD168F12CA75348DAC04C7F509FE
310
83898A8B421181AF492861CE81E4A2DD0A30850CFA95E05F097FF70F9E777310D584A75BA7018922E271DAB1D785671157685B7D383D3E074DDB4F1E44EF04B07BAAC75A062077C54B9752C738C9D804D402E02851F3F89605AF189738C18C021D2139EAF72513824E10DDD3047BACC8521ED7E98B257D1166903B1B08FA6F
310
918FD7E162913FEC7D0EF4787E29C35FBA8C6E2C9C20E9AB30AE42CA2A01A090E7D010C1B5BF9CEE2A304BF3A987FB40D836979B79E18D70F257DA61E808472DD85B82761825779D6B90CAEB0F23360C6F80A7D7D77545E95B3DFF0CF96A827F9B5BCECD2C9698718417EF80FEEDEE938AFF55859D0D540B7FE09435583A6F
310
04874A0C7E8CF234DF4879722000167F5872CEC6BF3EF7E5A8CC8121E6A359227C8A29C95212F9F735BC72A887D56B8F309FC525BFB4FD767AAEC4AEFF249CFBBD2DE1AB9969A6155C7D8DABC307E47324C1F916C7BCFF40ABA5644E9FFB9238D19ADADA49D9610F01ABBA57E4DFCBDCCBB2B93C8953206C91DE01B0E2651A
310
6D6C31721915B31F7B7CBCE55466F6D70402788FA91D73BE4ADCBA99A35F17D6B83383704917D6833F0FA3CD45C926ADB8BC17999A4A0AFBCE2541F7B8CF4C2F5FBA611B3E626D64407CB32C122DFF4EF8674D6EDBB86C8F7C6A16D50FA685E2CCA34F8F7D1D8265BB0042E9D7F1F666F7BE5FAA5184DF58E12122A42EF02F
310
461B3F369AC746F96528AD208512AB56844CF75B97F352DF7995024FB02855385854F3798670D01CAC771AC3E1889EC25F61A20C1F8CAB46898817F9C47E2CDA1F286BF2F358298709FE567C91133E2638C8B53975E753EA8BFD3578B5F7186B7BF084EBA3F77BAC3132A5779902EC22AF2D2E79F42D324E083386DAEE9810
310
D1B44A5DAA54513C7A71E52A4AB9257D975B621308FE4D2141CC3DCFE946C154A3C1DFCCA7629EC69ACFA831634ADDA93C0388D2A9A2DDAFCF957C6995BCE7FBB6DC4EBAE79E63EB08E9A25F52F67076F7093CA545CA3053B5BF576DEAD4E0017143C5F759F32B2D6F145B52B67B48909B7C7FCA6586EE385A2189C16932CB
310
6DDFD9152AE317C430492A578ED27B72D85D40C7C93C097939E1B50F4D67F05334FE9DC362C30B7FF561B95259138ECFD9274C8D695C31B14D4EAA9F3D7FA8DDF652F8C5DEFA23284C799B7D94416DEE81E05A866302DC70192A5368EA65E1CED8BF107A1E2D3119A71E85DC1A7B0C1E93274CE04DD0F2ABC8AC7C987FDB00
310
2B6F81757B43502EF7A0D92E416494FAEEA4C9C090CD9557AA4D532F4996A272B94355C5A0E4974EEA9627476F30809B94D8D8D860062E02204643BEC7D0438AF800FC7E2B26955D595421E83C69E1A07E0E3122285835F014AD538188CF9737CE76D464A353FA55A001AB2526B84E985083693BC76FE211CA1D000679C889
310
E3C009832C87E1AC2EDD05C302557422DF0800E316FCAC86978A371F025A6C7DAA9F333E7BD160403A1A06EA75AA9888FF01504B03041400060808003A66475051464CB48900000043010000360000006662782F46454633463233422D453838432D343738432D423630392D4334464532423630424445412F646972656374
310
6F72792E786D6C9D8F310EC2300C45AF127987122606C71DD918B841D4B851A43646695A717C52A85029031293A5A76FBF6FACEF7DA7264E43906840EF0FA03836E242F406C6DCEE4EA06AC22492573150D1F66C60C640E8938CB705396EEDD86DE9B5042FE27813D640EA63BB001C722AF6E55CB61E4863F58284D5D3F53D
310
D715CE1C3985E63FD7F1B7EBDD617E9F1E504B03041400060808003A6647503894D4213E070000541C0000340000006662782F46454633463233422D453838432D343738432D423630392D4334464532423630424445412F6F626A656374732E786D6CDD596D6FE23810FE2B56EECBDD07F20A1456945581B242ABEE568BF6
310
74DF22139CD4D7BCC9495A7ABFFEC68E1D923440DADB9556D74A2D759DF1CC3333CF8C27B38F8728444F84653489AF354B373544622FD9D338B8D68ADC1F4C34F4718E662C49F2DA3E0DC53822D71A5FD6E6B38025452A97F6C4C745D85E5D2FFE42994762A2212FC45976AD65DE0389B08E8B3CD993EC51DFE31CEB817FD0
310
2DBDDCD8141B309C3EB48E4A3123710EAAC27A0C52A40656F34F30C998CF0CBEA1B1CDEEB7CD39B3CD10863715A57196E3D87BA5554B8EDD4F2BC71AAE6EEDD174301A0E9DC1706C5B83C57AB11A58578EB91C2F97D39BDBA986E6B35D928495035212EFC18B2FDADC9A19FC3F95F912852EBDBD248E8927D1ECDAB027522E
310
25591B9306B09630ADE690D2D6DA82D3D3F813DB7A81D250A981B6324EFDAE476FB2FB1B40C8FA4429CB088FF22C67E06B897D990FE6CC28571B7EA1198A704E18C5210AE98E61060E82ADA5831A6278B67051886326BCA8E4D57585C0BE9C4B5D5AFA4518F2FCD5E622D35CC84792674233FA0F6147EDEBA7814E606D41E3
310
7C228DCD5F5210319D1962B1FC9F63CB7F9640223FC401440B98C93739760BAF25E782CD4A9B7F5EEF0E5BCE0FDD87A72C4909CB79E489649679A73C580B2D08BE1EA094B8367D7744E51B40FF0590AF744133F01CA387E161A86C6738CEFC8445E01D64A281093F4CC43FBEFA3433AA87E70835B8F214A690B63F08D38619
310
8DB36B90CE674F10F40973A4715B0F8710D37734E6790E8182C2049680EFFDDD419B6F804C61119EC221580FDF33837F44F0AB94037CD3F25017FDF670944A98769E1D7DF509628651AF7255C3C653F88E7E08BE37ABEDE76DC17CEC913B99D82BE2D398E6504CBB156A80DE48F9EF9B2F22235FD9D3D8E5C13941C289A3C3
310
2F5BE917241C03AAF03A5CBA46ACDC5148F730C431498A4CAE77119597840973772F6E99C39D67FDA982A03C0CF29B474027994175F7184D3928DA5C9A5731A17EC489F3A00CC0A074AABBC3DE2387D7F580B1DEA307442D666DA14594BA384A8A98D3F7EBF06E9BA63BA6F8B2ACA96D4EEDC9743492010FBA8B0354FE2872
310
A8D4E72745383D71CCB2E12FC91B0AC8329386C0975D3678D03515B99BA4D8A3797734B4CCE8A9F29EFA7E9101AD7702D3D25877AC51898DFA69DBC87CC36AA5D4796BA5522E8D70405C1FF39AD8A95F03D04AB872522792419864198D49267A9A575CD742D1D4813ACA4857523BC296666E4472FC9E881545B215B08CF8A1
310
0BDD57CEFBDFCBF1AA1494F5F69444DEEB25B12BEC7F71331CA561D9D75DC2C0B25B2774E2CA95E6473C417CBA3877CD3D116DFA25E91593287C7B499FBE5BFC097818FEE9F0A8232834EB50552F7BD6D247D6947F4D8086C623CB195F55AEB884963A2CE77D4B5840A7E5BDB8CF84060FFD4850B9FCEC3919097D97866111
310
B9650DC949046D1BCE0BD62B63C7C026ED832433B452A276924F4368AA7BD3ACE85754C702878986E514CDD68E01A3680CF7BA5E86BCB2A23388852FC41D965FD52EFBFFED52FF3363D6EF368FE4E53961FB4E4D9BAD87EADA5493C10953D6C4CABD42F27C564FBF485C762EE330544224C395370B19218C3C513ECC10B7A6
310
CE3B47F68C730FA8742B7E0F1690117BB23FF6210D717234A2CDE150254DF5B6F5DB11D01D2F208D666DC32935820905E64C7BC73F84DF30B81ABAC5CC909D9051AE6F7869D3611873D4E38CACAF9FB62D29B0D2FBE97B8E11796E4990AB4BDEFC9D11F57D73EC715B12A445DF37671ECF1F8A681763CA6B230F0BBC4F3F7C
310
14F7CF6B032E17C6FA76EDAC6D6731B89D4C9683E115FC588CCDE960395CDFDAF069B1BABD3118C992827924336CC37455B795C6810A8C12BA3EB71098445CBE2EAA786E3BF87F7C0B09931D3E158BBFEA25A46AF8784BD6CAC5BE97904EA2DEBDEDC660BD22EAEE22F6A65EBB9C2FA8003F5FB6808C54BDEFDF5C28D1AAC2
310
77EB5CAB886F2CBC27EF373FBDC63408BDB33E347674517E938B615ED551A5D48D58F0DAD0B426A385331E986B20B3E1647535984EECD5E0CABA5AAEC70BDB741CA7425CD6C2BE75E597E050A56C6DF40613E42C09290CF2C91E0524813B104C2A7AF02B8B4826EE36D000C832AEDE22F478FAA99CC3E67817AAA7BD070CC3
310
EC5056E4C283412ADC3BAE35B98E7E83D1299F5E8A8196FE08854746BB860A46AF3508819C427DD177300213034721BD35E204B7E138E0B7A6F2A9EAEFE3631C1D8895A35DD59E3EB848CB1AD109E38454BC5B00B6530DC9FB4D57EA209CC3C75D9157C61C178ED64810D44B84D23898143E4A780F403CE7EDB274B1A70149
310
AF69FED93828A50E72CC023192AFE17DB3BA37F8347DF315A5611170779EABF70D4903DE67844539B89A4160483353CC6FE2CB0FC63D4BE0B55484D6148200FD7E988CFF309649142571B964DCC8975B68FB00AFAAF6861A1342E302FC6088BE47BE0A8059574674BCCF1E61015CCB289FA796103702A0A2A75A00288F705F
310
C0638DFD9B159245A0D6C2D65B570E8F780F802091F8FB1F9E36F50DB5A125E4026855CE76AB0F6A616630189CCFFF05504B03041400060808003A664750DDDE1FACE2000000550100003C0000006662782F46454633463233422D453838432D343738432D423630392D4334464532423630424445412F7265736F75726365
310
732F322F636E782E786D6C4D90C16EC32010447F0521F5688CDD566D234C7EA2A75C228A371405B3D60255F3F785944A3DED6AE669353BEAF8BD05F605943CC6854F427206D1E2EAA35B78C997E195B3A3568498FF619C45B3C1C29BCCB5728465EFD20A17534253838FD72ECAB38308E4ED798F8E331B4C4A0B4FF6133623
310
4CC9B842BA8AD56423264190B090857A22FB0DFA094B6032AC5CCF7296839C07F9F23ECD87A7B7C3F3E3498D8DD4EA033174DEC70C84FBC32C2DD635D644528D0DD0AA90EF547BA31A7FF1448DA7C66A6B9532D50E3A966F7BC5FC661C8C77E4D7D56A6C4FD6716FA0CE5688FE01504B03041400060808003A664750FF15A4
310
A45D000000800000003A0000006662782F46454633463233422D453838432D343738432D423630392D4334464532423630424445412F7265736F75726365732F636E782E786D6C4D8B3B0E80201005AF42B6F75B59F0390B113044D83508C6E30BC6C26AF226F3B8BA6360974DA7271430F523308B2B198F9B80925DB70053
310
9227A2FCCB80A18E5640D320F996A81C9F32D6E9129A0D1EF74FCE750E6D57BC7165FBCA07504B03041400060808003A664750FA8A65324301000056050000300000006662782F46454633463233422D453838432D343738432D423630392D4334464532423630424445412F636E782E786D6CCD94414EC3301045AF125962
310
99380920A0725C8905276081D839CE104C133BB22788DE9E71715B10AA6051A9DD59E367E9FF99EF11CB8F71C8DEC107E36CC3AAA2641958ED3A63FB86CDF892DFB26C2985770EBF612CB36A8486C53293A2F76E9E52A98317350FB13A18BB4A4585E84D3B230496E94185D0B0A05F6154859AD175105645A7501555E121B8
310
D96BA0F7684648EFB50785D0315997759997755EDE3C56F5E2EA6E717DF92C7824A5689D1B126F2C8277D3455D6A47474B724AC12320C5EC4DA2A20726F7DA8AD658C1E95E8A407A6D9F385C4F919BA6C16885D428EE3402E604811A05FF82A5E0D1F10FDF0FF74F7B0D74EA8C078DCEAF4FD686EA501B76D20A4AC4FFBAB0
310
01FF32EFDA37B27CBAB91F349C841DCDEE36B981A2FB3B09942765FBE11C3FC04EDAF1F34F8B058D3E47D35B6547F2CC372B90061F37A2FC04504B03041400060808003A6647509FEFDAE37E000000A30000000B0000006662782F636E782E786D6C4D8C410EC2201444AF42FE1EAD6DA398008D54B8476369434AC160311E
310
DF8FE9C2CDCCE4656678F7593D79DBF4723108381D2A20363CE2E8C22C206F1365403AC9538CDB5F0D4818562BA060907C4E313F7734DA69C8BE50EFC2B243A34D63EA4651CD584FDB0B8A3A5757DAB746D798D45DDF70712C13B4DF1F7AB9975F504B03041400060808003A664750A6D797065F0000008200000007000000
310
636E782E786D6C4DCB3B0E80201045D1AD90E9FD7516806B51190811670C8A61F982B1B0BAC9C97B72CA7B1037C6D3332918DA1E04D2CAC69353902EDB8C20262D23F3F59B81A079470595414B17391D1F19B4730A5583A7ED43BBE4025D9592775E5ADFFA01504B03041400060808003A664750ECFD112DA8000000260100
310
00130000005B436F6E74656E745F54797065735D2E786D6C7D4F4B0EC22010BD0A61DF525D18634ABB506FE00510A79458060253536F2FD89D5197F3FED3F68B9BD80362B21E25DFD40D6780DADF2C1AC9671AAA3D677DD75E9E0112CB5A4C928F44E12044D22338956A1F003333F8E814E5331A1194BE2B0362DB343BA13D
310
122055543278D79E6050F344ECBC6478EDCD76CE8EABAE5449AE4298AC56946789C28AAFBEABC53F3EAF09A84A1441B91F0101CD4780756578C173A578FFDDBD00504B03041400060808003A6647503DEE336E64000000790000001B0000006175746F6465736B2D64657369676E2D7061636B6167652E786D6C35CBC10E83
310
200C00D05F21DCA56CA76D41FC96062B120735B69A7DBE268BB7777961F8D5AF396893C2ADB70FE7ADA196782C2DF776D7A97B5933C430F15651E5469C55D70F80A4992A3ADC954792C525AE70A1E4D6AD9816CC044FEFDF01FE3FDE907802504B03041400060808003A6647500F105525F30000008E0100003D0000006662
310
782F46454633463233422D453838432D343738432D423630392D4334464532423630424445412F7265736F75726365732F322F636F72652E786D6C8550CB6EC32010FC156BEFD8801DD98930919DA65FD0536F08131725068B47D5CF2FC4AED49E7A1A34CCCCEE0E3B7F2D8FE25339AFADE98194180A65A49DB4997B88E186
310
3A28CE9C396BC32F1914462CAA874C0367B3B371DD29694D5026B3C64E6A2785F72A40211FE9D183971F6A11A5882129FCBD5C85BC8B5995A4DC749CC5A8A7DDAAA794A66F5A39E0D77A182EE485A071E82EA83974188D633BA2EE4A9BD791B6098FACCA66CE825E7EA64BA7445013708A29469822DCBE117A6A8EA743FDCE
310
AAACE4CC07976EDE87E6EB929C551BFB272DAED3FF69519B50D33D6D7378E0242DF7FCE0ACCAED247856973037C9BF01504B03041400060808003A66475045F759B4F8000000960100003B0000006662782F46454633463233422D453838432D343738432D423630392D4334464532423630424445412F7265736F75726365
310
732F636F72652E786D6C8550CB6E833010FC15B477F3304490C8388234FD829E7AB3CC865A0936F2A3EAE7D70E546A4F3D8D353B33EB1D76FE5A1ED9275AA78CEEA1CA4BC8504B33293DF710FC8D74909D39B3C6F85F32C8B458B087440367B33561DD2969B4479D586D26DC49E11C7AC8E4233E7A70F20317918BE0A3C2DD
310
F355C8BB9831AFF24DC759086ADAAD6A8A69EAA6D002BFD6C370A95E2A320EDD853487AE24E3D88EA4BBD2E675A46DC4232B929933AF969FEDD2A2F03801A7252D494949D9BE55F4D41C4F87FA9D1549C999F336DEBC2F4DD701B7E84CB0121D2BB6E99FD4B04EFFA706A57D4DF7D4CDE18057F193CF0167456A29C2B3C288
310
A951FE0D504B03041400060808003A664750FA893D47F2000000B1010000310000006662782F46454633463233422D453838432D343738432D423630392D4334464532423630424445412F636F72652E786D6C8D50CB6EC32010FC156BEFD818BBCD4398A84EED2FE8A93704C44189C1E251F5F30BB12BB5B75CD8D530B333
310
BBF4F43DDF8B2FE5BCB6A683BAC4502823ACD466EA20860BDA437162D4591BFED0A0307C561D6418189D9C8DCB06096B8232193556AA0DE4DEAB0085B8A7A6032FAE6AE6258F2131FCAD5CB8B8F1499575B9F2180D7AFE950AA778501218C104234C10DE7DD4E4D81E8E2FCD27AD3293D118B5DCACB44CEEFAA29503360E63
310
3392A647C37E7F46ED2E3DFD2B3EA0733B0E2475FDFBF046AB2C66D4079776DE86E4ED9E95AFC27F99E3229FC8AC4D68C866B82A3CB03AE5797C305AE503A6F2B86EAAF9D8EC07504B03041400060808003A664750009DE66054010000DD0200000C0000006662782F636F72652E786D6C8D52CB6EC32010FC158BBB5FC451
310
9C0813C569FA053DF5463071516CB03058F9FC2E7E28F5A1696509D0ECEECCECC8E4F8689B6010A6975A15288D121408C57525555D20676F618E822325466BFBA30D058AB5A2401E4694D446BB6E86B85656288F2A5D8919647D2F2C0A78038F02F5FC4BB42C62CE42477F8F3AC6EFAC16511A4D7D943827AB795456C0266F
310
5218442F9BD3E99CBEA56179CACF61B6CD93B02C7765985F70F65EE21DDC7B12FB614AAC6C17756E04B3A24214273809131C26BB8F141FB2FD61BBF924B1EFA4A4B706769E45FD7688DEAE0F124FF88ACF75D5DF7C4E2ABBC133DF34D1239A82BDB14049ECF3816B0C6F9D2108437E965D9B65853B4083E0569B0C2A9576CF
310
D2C01A27803A09C68FC45315984782DF78F00B9ED71C101453355863169E5767BDFADA53274C38D847A0B46959F33437597C9E4FA1D54ACB38D78D36FF995E565DC28CFD8F49BF01504B03041400060808003A664750517D39D007010000B201000008000000636F72652E786D6C8D50416EC32010FC0ADA3B36C68EEC4498
310
C84ED317F4D41B35C441B1C1021CB5BF2F24AED4DE7A5A343BB3330C3B7ECE13BA2BE7B5352D141901A4CC60A536630B6BB8E006D09133676DF8450364C4AC5A483070363ABB2E1B3458139449A8B1526DA0F05E0540C3141F2DF8E1AA669189354486BF658B186E625459913D799C053DFF4807A7445012382594604231A9
310
DF0A7AA8F6875DF9CEF2C4E46C5DB5DCACB48CEEFAA295037E2EBBEE54BC14B8EF9A13AE760DC17D5FF7B839D3EAB5A7759C7B962731673EB8F8E7ED48CC199017F7E4CBF2E78AB30F6BA78D10434964CDF4059CB03C2DFE845E17F98FD0DA84926E079F0A0FBC88811E8B689C1A8CE3516F9CA96DFE0D504B010214001400
310
060808003A6647500000000000000000000000003700000000000000000000000000000000006662782F46454633463233422D453838432D343738432D423630392D4334464532423630424445412F617474726962757465732E62696E504B010214001400060808003A664750000000000000000000000000350000000000
310
0000000000000000550000006662782F46454633463233422D453838432D343738432D423630392D4334464532423630424445412F76657274696365732E62696E504B010214001400060808003A664750F270F13306000000040000003600000000000000000000000000A80000006662782F46454633463233422D453838
310
432D343738432D423630392D4334464532423630424445412F747269616E676C65732E62696E504B010214001400060808003A66475088E57597CD3F0000904100004200000000000000000000000000020100006662782F46454633463233422D453838432D343738432D423630392D4334464532423630424445412F7265
310
736F75726365732F322F305F67656E657269632E706E67504B010214001400060808003A66475051464CB4890000004301000036000000000000000000000000002F4100006662782F46454633463233422D453838432D343738432D423630392D4334464532423630424445412F6469726563746F72792E786D6C504B0102
310
14001400060808003A6647503894D4213E070000541C000034000000000000000000000000000C4200006662782F46454633463233422D453838432D343738432D423630392D4334464532423630424445412F6F626A656374732E786D6C504B010214001400060808003A664750DDDE1FACE2000000550100003C00000000
310
0000000000000000009C4900006662782F46454633463233422D453838432D343738432D423630392D4334464532423630424445412F7265736F75726365732F322F636E782E786D6C504B010214001400060808003A664750FF15A4A45D000000800000003A00000000000000000000000000D84A00006662782F46454633
310
463233422D453838432D343738432D423630392D4334464532423630424445412F7265736F75726365732F636E782E786D6C504B010214001400060808003A664750FA8A6532430100005605000030000000000000000000000000008D4B00006662782F46454633463233422D453838432D343738432D423630392D433446
310
4532423630424445412F636E782E786D6C504B010214001400060808003A6647509FEFDAE37E000000A30000000B000000000000000000000000001E4D00006662782F636E782E786D6C504B010214001400060808003A664750A6D797065F000000820000000700000000000000000000000000C54D0000636E782E786D6C
310
504B010214001400060808003A664750ECFD112DA8000000260100001300000000000000000000000000494E00005B436F6E74656E745F54797065735D2E786D6C504B010214001400060808003A6647503DEE336E64000000790000001B00000000000000000000000000224F00006175746F6465736B2D64657369676E2D
310
7061636B6167652E786D6C504B010214001400060808003A6647500F105525F30000008E0100003D00000000000000000000000000BF4F00006662782F46454633463233422D453838432D343738432D423630392D4334464532423630424445412F7265736F75726365732F322F636F72652E786D6C504B01021400140006
310
0808003A66475045F759B4F8000000960100003B000000000000000000000000000D5100006662782F46454633463233422D453838432D343738432D423630392D4334464532423630424445412F7265736F75726365732F636F72652E786D6C504B010214001400060808003A664750FA893D47F2000000B1010000310000
310
00000000000000000000005E5200006662782F46454633463233422D453838432D343738432D423630392D4334464532423630424445412F636F72652E786D6C504B010214001400060808003A664750009DE66054010000DD0200000C000000000000000000000000009F5300006662782F636F72652E786D6C504B010214
310
001400060808003A664750517D39D007010000B201000008000000000000000000000000001D550000636F72652E786D6C504B050600000000120012002D0600004A5600000000
  0
XRECORD
  5
86E97
102
{ACAD_REACTORS
330
86E92
102
}
330
86E92
100
AcDbXrecord
280
     1
270
     1
271
     1
  0
XRECORD
  5
86E96
102
{ACAD_REACTORS
330
86E92
102
}
330
86E92
100
AcDbXrecord
280
     1
270
     1
271
     1
  0
XRECORD
  5
86E98
102
{ACAD_REACTORS
330
86E92
102
}
330
86E92
100
AcDbXrecord
280
     1
270
     1
271
     1
  0
XRECORD
  5
86E95
102
{ACAD_REACTORS
330
86E92
102
}
330
86E92
100
AcDbXrecord
280
     1
270
     1
271
     1
  0
XRECORD
  5
A7767
102
{ACAD_REACTORS
330
A7766
102
}
330
A7766
100
AcDbXrecord
280
     1
102
DISPLAYNAME
  1
Imperial24
102
FLAGS
 90
        0
  0
XRECORD
  5
A776B
102
{ACAD_REACTORS
330
A776A
102
}
330
A776A
100
AcDbXrecord
280
     1
102
DISPLAYNAME
  1
Metric50
102
FLAGS
 90
        0
  0
CELLSTYLEMAP
  5
A775C
102
{ACAD_REACTORS
330
86F00
102
}
330
86F00
100
AcDbCellStyleMap
 90
        3
300
CELLSTYLE
  1
TABLEFORMAT_BEGIN
 90
        5
170
     1
 91
        0
 92
    32768
 62
   257
 93
        1
300
CONTENTFORMAT
  1
CONTENTFORMAT_BEGIN
 90
        0
 91
        0
 92
      512
 93
        0
300

 40
0.0
140
1.0
 94
        5
 62
     0
340
11
144
0.25
309
CONTENTFORMAT_END
171
     1
301
MARGIN
  1
CELLMARGIN_BEGIN
 40
0.06
 40
0.06
 40
0.06
 40
0.06
 40
0.18
 40
0.18
309
CELLMARGIN_END
 94
        6
 95
        1
302
GRIDFORMAT
  1
GRIDFORMAT_BEGIN
 90
        0
 91
        1
 62
     0
 92
       -2
340
0
 93
        0
 40
0.045
309
GRIDFORMAT_END
 95
        2
302
GRIDFORMAT
  1
GRIDFORMAT_BEGIN
 90
        0
 91
        1
 62
     0
 92
       -2
340
0
 93
        0
 40
0.045
309
GRIDFORMAT_END
 95
        4
302
GRIDFORMAT
  1
GRIDFORMAT_BEGIN
 90
        0
 91
        1
 62
     0
 92
       -2
340
0
 93
        0
 40
0.045
309
GRIDFORMAT_END
 95
        8
302
GRIDFORMAT
  1
GRIDFORMAT_BEGIN
 90
        0
 91
        1
 62
     0
 92
       -2
340
0
 93
        0
 40
0.045
309
GRIDFORMAT_END
 95
       16
302
GRIDFORMAT
  1
GRIDFORMAT_BEGIN
 90
        0
 91
        1
 62
     0
 92
       -2
340
0
 93
        0
 40
0.045
309
GRIDFORMAT_END
 95
       32
302
GRIDFORMAT
  1
GRIDFORMAT_BEGIN
 90
        0
 91
        1
 62
     0
 92
       -2
340
0
 93
        0
 40
0.045
309
GRIDFORMAT_END
309
TABLEFORMAT_END
  1
CELLSTYLE_BEGIN
 90
        1
 91
        1
300
_TITLE
309
CELLSTYLE_END
300
CELLSTYLE
  1
TABLEFORMAT_BEGIN
 90
        5
170
     1
 91
        0
 92
        0
 62
   257
 93
        1
300
CONTENTFORMAT
  1
CONTENTFORMAT_BEGIN
 90
        0
 91
        0
 92
      512
 93
        0
300

 40
0.0
140
1.0
 94
        5
 62
     0
340
11
144
0.18
309
CONTENTFORMAT_END
171
     1
301
MARGIN
  1
CELLMARGIN_BEGIN
 40
0.06
 40
0.06
 40
0.06
 40
0.06
 40
0.18
 40
0.18
309
CELLMARGIN_END
 94
        6
 95
        1
302
GRIDFORMAT
  1
GRIDFORMAT_BEGIN
 90
        0
 91
        1
 62
     0
 92
       -2
340
0
 93
        0
 40
0.045
309
GRIDFORMAT_END
 95
        2
302
GRIDFORMAT
  1
GRIDFORMAT_BEGIN
 90
        0
 91
        1
 62
     0
 92
       -2
340
0
 93
        0
 40
0.045
309
GRIDFORMAT_END
 95
        4
302
GRIDFORMAT
  1
GRIDFORMAT_BEGIN
 90
        0
 91
        1
 62
     0
 92
       -2
340
0
 93
        0
 40
0.045
309
GRIDFORMAT_END
 95
        8
302
GRIDFORMAT
  1
GRIDFORMAT_BEGIN
 90
        0
 91
        1
 62
     0
 92
       -2
340
0
 93
        0
 40
0.045
309
GRIDFORMAT_END
 95
       16
302
GRIDFORMAT
  1
GRIDFORMAT_BEGIN
 90
        0
 91
        1
 62
     0
 92
       -2
340
0
 93
        0
 40
0.045
309
GRIDFORMAT_END
 95
       32
302
GRIDFORMAT
  1
GRIDFORMAT_BEGIN
 90
        0
 91
        1
 62
     0
 92
       -2
340
0
 93
        0
 40
0.045
309
GRIDFORMAT_END
309
TABLEFORMAT_END
  1
CELLSTYLE_BEGIN
 90
        2
 91
        1
300
_HEADER
309
CELLSTYLE_END
300
CELLSTYLE
  1
TABLEFORMAT_BEGIN
 90
        5
170
     1
 91
        0
 92
        0
 62
   257
 93
        1
300
CONTENTFORMAT
  1
CONTENTFORMAT_BEGIN
 90
        0
 91
        0
 92
      512
 93
        0
300

 40
0.0
140
1.0
 94
        2
 62
     0
340
11
144
0.18
309
CONTENTFORMAT_END
171
     1
301
MARGIN
  1
CELLMARGIN_BEGIN
 40
0.06
 40
0.06
 40
0.06
 40
0.06
 40
0.18
 40
0.18
309
CELLMARGIN_END
 94
        6
 95
        1
302
GRIDFORMAT
  1
GRIDFORMAT_BEGIN
 90
        0
 91
        1
 62
     0
 92
       -2
340
0
 93
        0
 40
0.045
309
GRIDFORMAT_END
 95
        2
302
GRIDFORMAT
  1
GRIDFORMAT_BEGIN
 90
        0
 91
        1
 62
     0
 92
       -2
340
0
 93
        0
 40
0.045
309
GRIDFORMAT_END
 95
        4
302
GRIDFORMAT
  1
GRIDFORMAT_BEGIN
 90
        0
 91
        1
 62
     0
 92
       -2
340
0
 93
        0
 40
0.045
309
GRIDFORMAT_END
 95
        8
302
GRIDFORMAT
  1
GRIDFORMAT_BEGIN
 90
        0
 91
        1
 62
     0
 92
       -2
340
0
 93
        0
 40
0.045
309
GRIDFORMAT_END
 95
       16
302
GRIDFORMAT
  1
GRIDFORMAT_BEGIN
 90
        0
 91
        1
 62
     0
 92
       -2
340
0
 93
        0
 40
0.045
309
GRIDFORMAT_END
 95
       32
302
GRIDFORMAT
  1
GRIDFORMAT_BEGIN
 90
        0
 91
        1
 62
     0
 92
       -2
340
0
 93
        0
 40
0.045
309
GRIDFORMAT_END
309
TABLEFORMAT_END
  1
CELLSTYLE_BEGIN
 90
        3
 91
        2
300
_DATA
309
CELLSTYLE_END
  0
ENDSEC
  0
SECTION
  2
ACDSDATA
 70
     2
 71
     8
  0
ACDSSCHEMA
 90
        0
  1
AcDb_Thumbnail_Schema
  2
AcDbDs::ID
280
    10
 91
        8
  2
Thumbnail_Data
280
    15
 91
        0
101
ACDSRECORD
 95
        0
 90
        1
  2
AcDbDs::TreatedAsObjectData
280
     1
291
     1
101
ACDSRECORD
 95
        0
 90
        2
  2
AcDbDs::Legacy
280
     1
291
     1
101
ACDSRECORD
  1
AcDbDs::ID
 90
        3
  2
AcDs:Indexable
280
     1
291
     1
101
ACDSRECORD
  1
AcDbDs::ID
 90
        4
  2
AcDbDs::HandleAttribute
280
     7
282
     1
  0
ACDSSCHEMA
 90
        1
  1
AcDbDs::TreatedAsObjectDataSchema
  2
AcDbDs::TreatedAsObjectData
280
     1
 91
        0
  0
ACDSSCHEMA
 90
        2
  1
AcDbDs::LegacySchema
  2
AcDbDs::Legacy
280
     1
 91
        0
  0
ACDSSCHEMA
 90
        3
  1
AcDbDs::IndexedPropertySchema
  2
AcDs:Indexable
280
     1
 91
        0
  0
ACDSSCHEMA
 90
        4
  1
AcDbDs::HandleAttributeSchema
  2
AcDbDs::HandleAttribute
280
     7
 91
        1
284
     1
  0
ACDSRECORD
 90
        0
  2
AcDbDs::ID
280
    10
320
851A5
  2
Thumbnail_Data
280
    15
 94
     2548
310
89504E470D0A1A0A0000000D494844520000010000000096080300000006E4A6BE00000300504C5445212830FFFFFF2128300000000000000000000000000000000000000000000000000000330000660000990000CC0000FF0033000033330033660033990033CC0033FF0066000066330066660066990066CC0066FF0099
310
000099330099660099990099CC0099FF00CC0000CC3300CC6600CC9900CCCC00CCFF00FF0000FF3300FF6600FF9900FFCC00FFFF3300003300333300663300993300CC3300FF3333003333333333663333993333CC3333FF3366003366333366663366993366CC3366FF3399003399333399663399993399CC3399FF33CC00
310
33CC3333CC6633CC9933CCCC33CCFF33FF0033FF3333FF6633FF9933FFCC33FFFF6600006600336600666600996600CC6600FF6633006633336633666633996633CC6633FF6666006666336666666666996666CC6666FF6699006699336699666699996699CC6699FF66CC0066CC3366CC6666CC9966CCCC66CCFF66FF0066
310
FF3366FF6666FF9966FFCC66FFFF9900009900339900669900999900CC9900FF9933009933339933669933999933CC9933FF9966009966339966669966999966CC9966FF9999009999339999669999999999CC9999FF99CC0099CC3399CC6699CC9999CCCC99CCFF99FF0099FF3399FF6699FF9999FFCC99FFFFCC0000CC00
310
33CC0066CC0099CC00CCCC00FFCC3300CC3333CC3366CC3399CC33CCCC33FFCC6600CC6633CC6666CC6699CC66CCCC66FFCC9900CC9933CC9966CC9999CC99CCCC99FFCCCC00CCCC33CCCC66CCCC99CCCCCCCCCCFFCCFF00CCFF33CCFF66CCFF99CCFFCCCCFFFFFF0000FF0033FF0066FF0099FF00CCFF00FFFF3300FF3333
310
FF3366FF3399FF33CCFF33FFFF6600FF6633FF6666FF6699FF66CCFF66FFFF9900FF9933FF9966FF9999FF99CCFF99FFFFCC00FFCC33FFCC66FFCC99FFCCCCFFCCFFFFFF00FFFF33FFFF66FFFF99FFFFCCFFFFFF0000000D0D0D1A1A1A2828283535354343435050505D5D5D6B6B6B787878868686939393A1A1A1AEAEAEBB
310
BBBBC9C9C9D6D6D6E4E4E4F1F1F1FFFFFF0000000000000000000000000000000000000000000000000000000000002E4550F1000005594944415478DAED9D4B96AC200C86B303B7C184FD9FE3A027CEB2AAA654402D28C34B1E2655D5B657AF2D9F7F0206B000D8BAB659BD67F556B6AFCFDBCAE7BDFF3E83D9B42EE70101
310
ACBF98526E45DD29CC761368482301D82EF77EE9D78FD6C3410C7AD3C0004E02D85D00663828C0EE351800D0CE6E4A39EF8EA185611DC0E8858D8D8D8D8D8D8D8D8D8D8D8D8D8D8D8D8D8D8D8DAD98E1F6C1F7965FBDD61F6F05806F07F041B05218D6C1EF15B051C870B016F59DD5465440AD83310006C00018000360000C
310
8001540120412A53CBCFE7AD00600520C300F477D3847E016C0A906100A0B71B02370029B50242010CA100ABFDD018D061E2246F2D807BFA680C003244FDE7E4C2200040C61D6C1805BC1BC01A06039D602C0548805009B00B8C0520B8FCC3010006C00018000360000C8001D4018055008845B8F65ADCFF592C58D21E0360
310
CB2C2621041980DA77129FC5BE9AA200CCA6000CDE5D64321459AF772480F03F9CA5F0D3B422E8500102844FECC23A87C7053EFF2EB40F8989EC028E2B5E0B80DBE5A941F06293E80EC056FE49BD12016C878803E009F94F29409D7C260B0070DA695DAB0BE05601504401C745E30072BBC0BECB566CC4AA41B00A80B302C0
310
D9A1383200C301109B88016B044B0A01DB11621590CD05C23BA7B502D2AB803005E095C377B300E32E3E86B703B2D582C10AB021F17CDA1839CE82064086C7803F65A4182056A248757EC3E152DCF02BF9C305CC7827DDD373EEEFA300F85341F08F18043F37D4F496A05E5CA1450E3471B628CC7827DDDD1901E04F01F823
310
D6028A000A5AA036277B05103B41E5DB998EE39DEC902F4B6059C4B24CD3322DDA6039D8670755F6655108FEEC7638EFF4F9B11D422CEBD1C4B2A429C05510620CF852801DEFB4BD8A2B401D4D905DC0D681782BE53817388C777A260650015C6F0AB3B40368CA91100A805E0BAC0004E9444FAABDD602B10A88A83DB2B703
310
4800BE5A825FED80D8B166180520674B7012A1A7EB5000240C388D5440DACDD04101941CDB5735582F1F00B9EF06050820BB80163B42EB00A81921414CB21EA25F1F00C2F2017405200EE7027402664272D59C2094C80AD3EA6BD099304FF3E53900903B2B1CDE0EA8A98089D266A4F50C894000C7EB5EAF77F807814000F4
310
26D03EAD22FBBD806D46C7750F4FB77DC0BF37879D64210011E303D624C61EC8D61BFADF26CC9516A2E478904787C8840D06B03E1F3CA924E0BA551A23744C67DDC5001438C61821DFFA2D00F5CA2581561410F467D7609E8940B5B185C9002059040835279AFD00701BE1CC2CC9340209F99FC200800A208D40DDA9865E00
310
8459638779B2C991A04105DCCF1A3B4D144E77839E5D20898067884C03B580841000D16EE01922D34F35088922C0F65C60EF45D455A1F404C3EF8705C8E853680C80DC7B1225E8A1053400516ED0603568AA40FD26038812417341509E14E07F928CFB791932CB79D405603BD3A5FCF11C11CF0343B2E508FAAB05F2348A06
310
00D0138132003A72834200FA11413100BD102807A013372808A00F111405D00381B2003A7083C200DA17417100AD13280FA07137C800E03EAD2F4707703BC3478E0CE034FFA73F377846012E11E844A3BC4CE931F31AF64D85D93D12039C046C79C101C0E4614A6B270140E87006E94060A7F3D8DCF39E90935A24CD2B806E
310
D2B5660068421705340C203C95291D31004CFAF9180D8E361080066B838701B4D724781C8025200F935A8B2BBD2100D60DE4A9F3ED3D006CFC370040C2AB009C9A7CBAA67B15007DD90FADE16701E8EF10440A00F4377713BA3425D58A94DFFFF81A772911F2CEEB69A2F2737F1F06BA9AFC601FF732140000A4C5001C1100
310
BA6F66FC0A18CD053CDF26FC5810AC5AFC577FC9681BED806CF60FF081286E5D61C86F0000000049454E44AE42608242608209407B32A039C339A80FEC088059D43C2A80F4E70AC37000E4435E8200F83BD301F4240190B7B078017054E64C9F41001C5A130882590F27EF8980FD3470071547ED270E00AD7130A25D206EE6
310
EC937AD6850B00E9CF224F1D5AA0F62436341B8E156A82B148282FF4B81500FAD392B3001822004310AD39C0D9F35C316AE3A6C2AFBDF6DA6BAFBDF6DA6BAF5D6BFFA038193BE2A6E0180000000049454E44AE426082749AF7A50B40DC39100F3D402E4030D8158BDFF8649A4163500C902F900900901C11C2745718C03C03
310
37EF2B596402640B64019CF5D373E2373E916CD813D400C815C800B8364F9E137F74E450EF52204C4A260029807BEBEC39F1C7EF1EA8C67F4B0A2B00842727CF895FFC81F785007902B0D5C118C0F35F3D277EC1C79AE8006409A44BC01B8EE7C4DF0F4020F00900EC516134E300E40880F90FF8A76FF21598291D00000000
310
49454E44AE426082
  0
ENDSEC
  0
EOF
