  0
SECTION
  2
HEADER
  9
$ACADVER
  1
AC1027
  9
$ACADMAINTVER
 70
   125
  9
$DWGCODEPAGE
  3
ANSI_932
  9
$LASTSAVEDBY
  1
SERIZAH
  9
$REQUIREDVERSIONS
160
                 0
  9
$INSBASE
 10
0.0
 20
0.0
 30
0.0
  9
$EXTMIN
 10
-822.6202071755732
 20
-550.0823735023573
 30
-0.0015258207003583
  9
$EXTMAX
 10
1453.821810121222
 20
936.4600828185057
 30
0.0000000349246037
  9
$LIMMIN
 10
-1249.479608370413
 20
-758.4627269689661
  9
$LIMMAX
 10
1273.505948089114
 20
1166.87415941288
  9
$ORTHOMODE
 70
     0
  9
$REGENMODE
 70
     1
  9
$FILLMODE
 70
     1
  9
$QTEXTMODE
 70
     0
  9
$MIRRTEXT
 70
     0
  9
$LTSCALE
 40
50.0
  9
$ATTMODE
 70
     1
  9
$TEXTSIZE
 40
64.0
  9
$TRACEWID
 40
0.05
  9
$TEXTSTYLE
  7
STANDARD
  9
$CLAYER
  8
OUTLINE
  9
$CELTYPE
  6
BYLAYER
  9
$CECOLOR
 62
   256
  9
$CELTSCALE
 40
1.0
  9
$DISPSILH
 70
     0
  9
$DIMSCALE
 40
1.0
  9
$DIMASZ
 40
10.0
  9
$DIMEXO
 40
10.0
  9
$DIMDLI
 40
200.0
  9
$DIMRND
 40
0.0
  9
$DIMDLE
 40
0.0
  9
$DIMEXE
 40
10.0
  9
$DIMTP
 40
0.0
  9
$DIMTM
 40
0.0
  9
$DIMTXT
 40
45.0
  9
$DIMCEN
 40
0.082
  9
$DIMTSZ
 40
0.0
  9
$DIMTOL
 70
     0
  9
$DIMLIM
 70
     0
  9
$DIMTIH
 70
     0
  9
$DIMTOH
 70
     0
  9
$DIMSE1
 70
     0
  9
$DIMSE2
 70
     0
  9
$DIMTAD
 70
     1
  9
$DIMZIN
 70
     8
  9
$DIMBLK
  1
ORIGIN
  9
$DIMASO
 70
     1
  9
$DIMSHO
 70
     0
  9
$DIMPOST
  1

  9
$DIMAPOST
  1

  9
$DIMALT
 70
     0
  9
$DIMALTD
 70
     2
  9
$DIMALTF
 40
25.4
  9
$DIMLFAC
 40
1.0
  9
$DIMTOFL
 70
     1
  9
$DIMTVP
 40
0.0
  9
$DIMTIX
 70
     0
  9
$DIMSOXD
 70
     0
  9
$DIMSAH
 70
     0
  9
$DIMBLK1
  1

  9
$DIMBLK2
  1

  9
$DIMSTYLE
  2
STANDARD
  9
$DIMCLRD
 70
   256
  9
$DIMCLRE
 70
   256
  9
$DIMCLRT
 70
   256
  9
$DIMTFAC
 40
1.0
  9
$DIMGAP
 40
10.0
  9
$DIMJUST
 70
     0
  9
$DIMSD1
 70
     0
  9
$DIMSD2
 70
     0
  9
$DIMTOLJ
 70
     1
  9
$DIMTZIN
 70
     0
  9
$DIMALTZ
 70
     0
  9
$DIMALTTZ
 70
     0
  9
$DIMUPT
 70
     0
  9
$DIMDEC
 70
     3
  9
$DIMTDEC
 70
     3
  9
$DIMALTU
 70
     2
  9
$DIMALTTD
 70
     2
  9
$DIMTXSTY
  7
STANDARD
  9
$DIMAUNIT
 70
     0
  9
$DIMADEC
 70
     0
  9
$DIMALTRND
 40
0.0
  9
$DIMAZIN
 70
     0
  9
$DIMDSEP
 70
    46
  9
$DIMATFIT
 70
     3
  9
$DIMFRAC
 70
     0
  9
$DIMLDRBLK
  1
ORIGIN
  9
$DIMLUNIT
 70
     2
  9
$DIMLWD
 70
    -1
  9
$DIMLWE
 70
    -1
  9
$DIMTMOVE
 70
     0
  9
$DIMFXL
 40
1.0
  9
$DIMFXLON
 70
     0
  9
$DIMJOGANG
 40
0.7853981633974483
  9
$DIMTFILL
 70
     0
  9
$DIMTFILLCLR
 70
     0
  9
$DIMARCSYM
 70
     0
  9
$DIMLTYPE
  6
BYLAYER
  9
$DIMLTEX1
  6
BYLAYER
  9
$DIMLTEX2
  6
BYLAYER
  9
$DIMTXTDIRECTION
 70
     0
  9
$LUNITS
 70
     2
  9
$LUPREC
 70
     1
  9
$SKETCHINC
 40
0.1
  9
$FILLETRAD
 40
0.0
  9
$AUNITS
 70
     1
  9
$AUPREC
 70
     3
  9
$MENU
  1
ACAD
  9
$ELEVATION
 40
0.0
  9
$PELEVATION
 40
0.0
  9
$THICKNESS
 40
0.0
  9
$LIMCHECK
 70
     0
  9
$CHAMFERA
 40
0.0
  9
$CHAMFERB
 40
0.0
  9
$CHAMFERC
 40
0.0
  9
$CHAMFERD
 40
0.0
  9
$SKPOLY
 70
     0
  9
$TDCREATE
 40
2450330.393194445
  9
$TDUCREATE
 40
2450330.018205995
  9
$TDUPDATE
 40
2459424.705127315
  9
$TDUUPDATE
 40
2459424.330127315
  9
$TDINDWG
 40
4.9973633681
  9
$TDUSRTIMER
 40
4.9973602778
  9
$USRTIMER
 70
     1
  9
$ANGBASE
 50
0.0
  9
$ANGDIR
 70
     0
  9
$PDMODE
 70
     3
  9
$PDSIZE
 40
-2.0
  9
$PLINEWID
 40
0.0
  9
$SPLFRAME
 70
     0
  9
$SPLINETYPE
 70
     6
  9
$SPLINESEGS
 70
     8
  9
$HANDSEED
  5
A72D2
  9
$SURFTAB1
 70
     6
  9
$SURFTAB2
 70
     6
  9
$SURFTYPE
 70
     6
  9
$SURFU
 70
     6
  9
$SURFV
 70
     6
  9
$UCSBASE
  2

  9
$UCSNAME
  2

  9
$UCSORG
 10
0.0
 20
0.0
 30
0.0
  9
$UCSXDIR
 10
1.0
 20
0.0
 30
0.0
  9
$UCSYDIR
 10
0.0
 20
1.0
 30
0.0
  9
$UCSORTHOREF
  2

  9
$UCSORTHOVIEW
 70
     0
  9
$UCSORGTOP
 10
0.0
 20
0.0
 30
0.0
  9
$UCSORGBOTTOM
 10
0.0
 20
0.0
 30
0.0
  9
$UCSORGLEFT
 10
0.0
 20
0.0
 30
0.0
  9
$UCSORGRIGHT
 10
0.0
 20
0.0
 30
0.0
  9
$UCSORGFRONT
 10
0.0
 20
0.0
 30
0.0
  9
$UCSORGBACK
 10
0.0
 20
0.0
 30
0.0
  9
$PUCSBASE
  2

  9
$PUCSNAME
  2

  9
$PUCSORG
 10
0.0
 20
0.0
 30
0.0
  9
$PUCSXDIR
 10
1.0
 20
0.0
 30
0.0
  9
$PUCSYDIR
 10
0.0
 20
1.0
 30
0.0
  9
$PUCSORTHOREF
  2

  9
$PUCSORTHOVIEW
 70
     0
  9
$PUCSORGTOP
 10
0.0
 20
0.0
 30
0.0
  9
$PUCSORGBOTTOM
 10
0.0
 20
0.0
 30
0.0
  9
$PUCSORGLEFT
 10
0.0
 20
0.0
 30
0.0
  9
$PUCSORGRIGHT
 10
0.0
 20
0.0
 30
0.0
  9
$PUCSORGFRONT
 10
0.0
 20
0.0
 30
0.0
  9
$PUCSORGBACK
 10
0.0
 20
0.0
 30
0.0
  9
$USERI1
 70
     0
  9
$USERI2
 70
     0
  9
$USERI3
 70
     0
  9
$USERI4
 70
     0
  9
$USERI5
 70
     0
  9
$USERR1
 40
20.0
  9
$USERR2
 40
0.0
  9
$USERR3
 40
0.0
  9
$USERR4
 40
0.0
  9
$USERR5
 40
0.0
  9
$WORLDVIEW
 70
     1
  9
$SHADEDGE
 70
     3
  9
$SHADEDIF
 70
    70
  9
$TILEMODE
 70
     1
  9
$MAXACTVP
 70
    64
  9
$PINSBASE
 10
0.0
 20
0.0
 30
0.0
  9
$PLIMCHECK
 70
     0
  9
$PEXTMIN
 10
1.000000000000000E+20
 20
1.000000000000000E+20
 30
1.000000000000000E+20
  9
$PEXTMAX
 10
-1.000000000000000E+20
 20
-1.000000000000000E+20
 30
-1.000000000000000E+20
  9
$PLIMMIN
 10
0.0
 20
0.0
  9
$PLIMMAX
 10
12.0
 20
9.0
  9
$UNITMODE
 70
     0
  9
$VISRETAIN
 70
     1
  9
$PLINEGEN
 70
     0
  9
$PSLTSCALE
 70
     1
  9
$TREEDEPTH
 70
  3020
  9
$CMLSTYLE
  2
STANDARD
  9
$CMLJUST
 70
     0
  9
$CMLSCALE
 40
1.0
  9
$PROXYGRAPHICS
 70
     1
  9
$MEASUREMENT
 70
     0
  9
$CELWEIGHT
370
    -1
  9
$ENDCAPS
280
     0
  9
$JOINSTYLE
280
     0
  9
$LWDISPLAY
290
     1
  9
$INSUNITS
 70
     0
  9
$HYPERLINKBASE
  1

  9
$STYLESHEET
  1
MONOCHROME.CTB
  9
$XEDIT
290
     1
  9
$CEPSNTYPE
380
     0
  9
$PSTYLEMODE
290
     1
  9
$FINGERPRINTGUID
  2
{97DA8DB6-C4F0-4C3D-ABEB-53C4FBBC7EFF}
  9
$VERSIONGUID
  2
{C0DFC72A-2C17-0E48-9E1E-9C2C1345E8E3}
  9
$EXTNAMES
290
     1
  9
$PSVPSCALE
 40
0.0
  9
$OLESTARTUP
290
     0
  9
$SORTENTS
280
   127
  9
$INDEXCTL
280
     0
  9
$HIDETEXT
280
     0
  9
$XCLIPFRAME
280
     2
  9
$HALOGAP
280
     0
  9
$OBSCOLOR
 70
   257
  9
$OBSLTYPE
280
     0
  9
$INTERSECTIONDISPLAY
280
     0
  9
$INTERSECTIONCOLOR
 70
   257
  9
$DIMASSOC
280
     1
  9
$PROJECTNAME
  1

  9
$CAMERADISPLAY
290
     0
  9
$LENSLENGTH
 40
50.0
  9
$CAMERAHEIGHT
 40
0.0
  9
$STEPSPERSEC
 40
2.0
  9
$STEPSIZE
 40
6.0
  9
$3DDWFPREC
 40
2.0
  9
$PSOLWIDTH
 40
0.25
  9
$PSOLHEIGHT
 40
4.0
  9
$LOFTANG1
 40
1.570795999999999
  9
$LOFTANG2
 40
1.570795999999999
  9
$LOFTMAG1
 40
0.0
  9
$LOFTMAG2
 40
0.0
  9
$LOFTPARAM
 70
     7
  9
$LOFTNORMALS
280
     1
  9
$LATITUDE
 40
37.795
  9
$LONGITUDE
 40
-122.394
  9
$NORTHDIRECTION
 40
0.0
  9
$TIMEZONE
 70
 -8000
  9
$LIGHTGLYPHDISPLAY
280
     1
  9
$TILEMODELIGHTSYNCH
280
     1
  9
$CMATERIAL
347
86E81
  9
$SOLIDHIST
280
     0
  9
$SHOWHIST
280
     1
  9
$DWFFRAME
280
     2
  9
$DGNFRAME
280
     0
  9
$REALWORLDSCALE
290
     1
  9
$INTERFERECOLOR
 62
     1
  9
$INTERFEREOBJVS
345
86EA3
  9
$INTERFEREVPVS
346
86EA0
  9
$CSHADOW
280
     0
  9
$SHADOWPLANELOCATION
 40
0.0
  0
ENDSEC
  0
SECTION
  2
CLASSES
  0
CLASS
  1
ACDBDICTIONARYWDFLT
  2
AcDbDictionaryWithDefault
  3
ObjectDBX Classes
 90
        0
 91
        1
280
     0
281
     0
  0
CLASS
  1
MATERIAL
  2
AcDbMaterial
  3
ObjectDBX Classes
 90
     1153
 91
        3
280
     0
281
     0
  0
CLASS
  1
VISUALSTYLE
  2
AcDbVisualStyle
  3
ObjectDBX Classes
 90
     4095
 91
       24
280
     0
281
     0
  0
CLASS
  1
TABLESTYLE
  2
AcDbTableStyle
  3
ObjectDBX Classes
 90
     4095
 91
        1
280
     0
281
     0
  0
CLASS
  1
SCALE
  2
AcDbScale
  3
ObjectDBX Classes
 90
     1153
 91
       17
280
     0
281
     0
  0
CLASS
  1
MLEADERSTYLE
  2
AcDbMLeaderStyle
  3
ACDB_MLEADERSTYLE_CLASS
 90
     4095
 91
        1
280
     0
281
     0
  0
CLASS
  1
ACDBSECTIONVIEWSTYLE
  2
AcDbSectionViewStyle
  3
ObjectDBX Classes
 90
     1025
 91
        2
280
     0
281
     0
  0
CLASS
  1
ACDBDETAILVIEWSTYLE
  2
AcDbDetailViewStyle
  3
ObjectDBX Classes
 90
     1025
 91
        2
280
     0
281
     0
  0
CLASS
  1
DICTIONARYVAR
  2
AcDbDictionaryVar
  3
ObjectDBX Classes
 90
        0
 91
        9
280
     0
281
     0
  0
CLASS
  1
CELLSTYLEMAP
  2
AcDbCellStyleMap
  3
ObjectDBX Classes
 90
     1152
 91
        2
280
     0
281
     0
  0
CLASS
  1
SORTENTSTABLE
  2
AcDbSortentsTable
  3
ObjectDBX Classes
 90
        0
 91
        1
280
     0
281
     0
  0
CLASS
  1
MULTILEADER
  2
AcDbMLeader
  3
ACDB_MLEADER_CLASS
 90
     1025
 91
        0
280
     0
281
     1
  0
CLASS
  1
AMGSETTINGSOBJ
  2
AmgSettingsObj
  3
"AcadM|Product Description: AutoCAD Mechanical|Company: Autodesk, Inc."
 90
     1024
 91
        0
280
     0
281
     0
  0
CLASS
  1
ACME_DOCUMENT
  2
AcMeDbDoc
  3
AcMeServices
 90
     1024
 91
        0
280
     0
281
     0
  0
CLASS
  1
ACMESCOPE
  2
AcMeScope
  3
AcMeServices
 90
     1024
 91
        0
280
     0
281
     0
  0
CLASS
  1
ACMECOMMANDHISTORY
  2
AcMeCommandHistory
  3
AcMeServices
 90
     1024
 91
        0
280
     0
281
     0
  0
CLASS
  1
ACIMSYSVARMAN
  2
AcImSysVarManager
  3
AcMeServices
 90
     1024
 91
        0
280
     0
281
     0
  0
CLASS
  1
ACIMINTSYSVAR
  2
AcImIntSysVar
  3
AcMeServices
 90
     1024
 91
        0
280
     0
281
     0
  0
CLASS
  1
ACMESTATEMGR
  2
AcMeStateMgr
  3
AcMeServices
 90
     1024
 91
        0
280
     0
281
     0
  0
CLASS
  1
ACDBENTITYCACHE
  2
AcMeEntityCache
  3
AcMeServices
 90
     1024
 91
        0
280
     0
281
     0
  0
CLASS
  1
ACGREFMASTER
  2
AcGrefMaster
  3
AcAttribServices
 90
     1024
 91
        0
280
     0
281
     0
  0
CLASS
  1
ACME_DATABASE
  2
AcMeDbDatabase
  3
AcMeServices
 90
     1024
 91
        0
280
     0
281
     0
  0
CLASS
  1
ACRFINSADJUSTERMGR
  2
AcRfInsAdjusterMgr
  3
AcMeServices
 90
     1024
 91
        0
280
     0
281
     0
  0
CLASS
  1
ACGREFACADMASTER
  2
AcGrefacadMaster
  3
AcGrefServices
 90
     1024
 91
        0
280
     0
281
     0
  0
CLASS
  1
AMIMASTER
  2
AmiMaster
  3
AmiServices
 90
     1024
 91
        0
280
     0
281
     0
  0
CLASS
  1
AMDTMENUSTATEMGR
  2
AmdtMenuStateMgr
  3
McadcomServices
 90
     1024
 91
        0
280
     0
281
     0
  0
CLASS
  1
AMDTMCOMMENUSTATE
  2
AmdtMcomMenuState
  3
McadcomServices
 90
     1024
 91
        0
280
     0
281
     0
  0
CLASS
  1
MAPIAMMOUDLE
  2
MApiAmModule
  3
MApiAmServices
 90
     1024
 91
        0
280
     0
281
     0
  0
CLASS
  1
ACIMSTRSYSVAR
  2
AcImStrSysVar
  3
AcMeServices
 90
     1024
 91
        0
280
     0
281
     0
  0
CLASS
  1
AMDTAMMENUSTATE
  2
AmdtAmMenuState
  3
DesignerAssemblies_arx
 90
     1024
 91
        0
280
     0
281
     0
  0
CLASS
  1
ACAMPROJECT
  2
AcAmProject
  3
DesignerAssemblies
 90
     1024
 91
        0
280
     0
281
     0
  0
CLASS
  1
ACAMGRCOMPDEF
  2
AcAmGrCompDef
  3
DesignerAssemblies
 90
     1024
 91
        0
280
     0
281
     0
  0
CLASS
  1
ACAMCOMPDEF
  2
AcAmCompDef
  3
DesignerAssemblies
 90
     1024
 91
        0
280
     0
281
     0
  0
CLASS
  1
ACAMCOMPDEFMGR
  2
AcAmCompDefMgr
  3
DesignerAssemblies
 90
     1024
 91
        0
280
     0
281
     0
  0
CLASS
  1
AMCONTEXTMGR
  2
AcAmContextMgr
  3
DesignerAssemblies
 90
     1024
 91
        0
280
     0
281
     0
  0
CLASS
  1
ACAMCONTEXTMODELER
  2
AcAmContextModeler
  3
DesignerAssemblies
 90
     1024
 91
        0
280
     0
281
     0
  0
CLASS
  1
ACMDATADICTIONARY
  2
AcmDataDictionary
  3
"AcmSymBB|Product Description: AutoCAD Mechanical|Company: Autodesk, Inc."
 90
     1024
 91
        0
280
     0
281
     0
  0
CLASS
  1
ACAMGRCOMPDEFSET
  2
AcAmGrCompDefSet
  3
DesignerAssemblies
 90
     1024
 91
        0
280
     0
281
     0
  0
CLASS
  1
AMDTBROWSERDBTAB
  2
AmdtBrowserDbTab
  3
McadcomServices
 90
     1024
 91
        0
280
     0
281
     0
  0
CLASS
  1
CBROWSERAPPOBJECT
  2
CBrowserAppObject
  3
McadcomServices
 90
     1024
 91
        0
280
     0
281
     0
  0
CLASS
  1
DM_PLACEHOLDER
  2
AcDmSelsetPlaceholder
  3
McadcomServices
 90
     1024
 91
        0
280
     0
281
     0
  0
CLASS
  1
ACMSTANDARDANSI
  2
AcmStandardANSI
  3
"Amdt_StdImp|Product Description: AutoCAD Mechanical|Company: Autodesk, Inc."
 90
     1024
 91
        0
280
     0
281
     0
  0
CLASS
  1
ACMSURFSTANDARDANSI
  2
AcmSurfTextStdANSI
  3
"Amdt_StdImp|Product Description: AutoCAD Mechanical|Company: Autodesk, Inc."
 90
     1024
 91
        0
280
     0
281
     0
  0
CLASS
  1
ACMFCFSTANDARDANSI
  2
AcmFCFStdANSI
  3
"Amdt_StdImp|Product Description: AutoCAD Mechanical|Company: Autodesk, Inc."
 90
     1024
 91
        0
280
     0
281
     0
  0
CLASS
  1
ACMWELDSTANDARDANSI
  2
AcmWeldingStdANSI
  3
"Amdt_StdImp|Product Description: AutoCAD Mechanical|Company: Autodesk, Inc."
 90
     1024
 91
        0
280
     0
281
     0
  0
CLASS
  1
ACMIDSTANDARDANSI
  2
AcmIdStdANSI
  3
"Amdt_StdImp|Product Description: AutoCAD Mechanical|Company: Autodesk, Inc."
 90
     1024
 91
        0
280
     0
281
     0
  0
CLASS
  1
ACMDATUMSTANDARDANSI
  2
AcmDatumStdANSI
  3
"Amdt_StdImp|Product Description: AutoCAD Mechanical|Company: Autodesk, Inc."
 90
     1024
 91
        0
280
     0
281
     0
  0
CLASS
  1
ACMBOMSTANDARDANSI
  2
AcmBOMStdANSI
  3
"Amdt_StdImp|Product Description: AutoCAD Mechanical|Company: Autodesk, Inc."
 90
     1024
 91
        0
280
     0
281
     0
  0
CLASS
  1
ACMDETAILSTANDARDANSI
  2
AmdtDetailSymStdANSI
  3
"Amdt_StdImp|Product Description: AutoCAD Mechanical|Company: Autodesk, Inc."
 90
     1024
 91
        0
280
     0
281
     0
  0
CLASS
  1
ACMSECTIONSTANDARDANSI
  2
AmdtSectionSymStdANSI
  3
"Amdt_StdImp|Product Description: AutoCAD Mechanical|Company: Autodesk, Inc."
 90
     1024
 91
        0
280
     0
281
     0
  0
CLASS
  1
ACMCENTERLINESTANDARDANSI
  2
AmdtCenterLineStdANSI
  3
"Amdt_StdImp|Product Description: AutoCAD Mechanical|Company: Autodesk, Inc."
 90
     1024
 91
        0
280
     0
281
     0
  0
CLASS
  1
ACMTHREADLINESTANDARDANSI
  2
AmdtThreadLineStdANSI
  3
"Amdt_StdImp|Product Description: AutoCAD Mechanical|Company: Autodesk, Inc."
 90
     1024
 91
        0
280
     0
281
     0
  0
CLASS
  1
ACMNOTESTANDARDANSI
  2
AmdtNoteStdANSI
  3
"Amdt_StdImp|Product Description: AutoCAD Mechanical|Company: Autodesk, Inc."
 90
     1024
 91
        0
280
     0
281
     0
  0
CLASS
  1
ACMTAPERSTANDARDANSI
  2
AcmTaperStdANSI
  3
"Amdt_StdImp|Product Description: AutoCAD Mechanical|Company: Autodesk, Inc."
 90
     1024
 91
        0
280
     0
281
     0
  0
CLASS
  1
ACMANOOTATIONVIEWSTANDARDANSI
  2
AmdtAnViewStdANSI
  3
"Amdt_StdImp|Product Description: AutoCAD Mechanical|Company: Autodesk, Inc."
 90
     1024
 91
        0
280
     0
281
     0
  0
CLASS
  1
ACAMGLAYSTD
  2
AcAmgLayStd
  3
"AmgLay|Product Description: AutoCAD Mechanical|Company: Autodesk, Inc."
 90
     1024
 91
        0
280
     0
281
     0
  0
CLASS
  1
ACAMGDIMSTD
  2
AcAmgDimStd
  3
"AmgDim|Product Description: AutoCAD Mechanical|Company: Autodesk, Inc."
 90
     1024
 91
        0
280
     0
281
     0
  0
CLASS
  1
AMGOBJPROPCFG
  2
AmgObjPropCfg
  3
"AmgLay|Product Description: AutoCAD Mechanical|Company: Autodesk, Inc."
 90
     1024
 91
        0
280
     0
281
     0
  0
CLASS
  1
ACAMGHOLECHARTSTDANSI
  2
AcAmgHoleChartStdANSI
  3
"AmgDim" "Product Description: AutoCAD Mechanical|Company: Autodesk, Inc."
 90
     1024
 91
        0
280
     0
281
     0
  0
CLASS
  1
ACAMGTITLESTD
  2
AcAmgTitleStd
  3
"AmgTitle|Product Description: AutoCAD Mechanical|Company: Autodesk, Inc."
 90
     1024
 91
        0
280
     0
281
     0
  0
CLASS
  1
ACMSECTIONSTANDARDCUSTOM
  2
AmdtSectionSymStdCustom
  3
"Amdt_StdImp|Product Description: AutoCAD Mechanical|Company: Autodesk, Inc."
 90
     1024
 91
        0
280
     0
281
     0
  0
CLASS
  1
ACMDETAILTANDARDCUSTOM
  2
AmdtDetailSymStdCustom
  3
"Amdt_StdImp|Product Description: AutoCAD Mechanical|Company: Autodesk, Inc."
 90
     1024
 91
        0
280
     0
281
     0
  0
CLASS
  1
FIELD
  2
AcDbField
  3
ObjectDBX Classes
 90
     1152
 91
        0
280
     0
281
     0
  0
CLASS
  1
FIELDLIST
  2
AcDbFieldList
  3
ObjectDBX Classes
 90
     1152
 91
        1
280
     0
281
     0
  0
CLASS
  1
AMDTNOTETEMPLATEDB
  2
AmdtNoteTemplateDB
  3
"AcmSymBB" "Product Description: AutoCAD Mechanical|Company: Autodesk, Inc."
 90
     1024
 91
        0
280
     0
281
     0
  0
CLASS
  1
ACAMGFILTERDAT
  2
AcAmgFilterDat
  3
"AcadM|Product Description: AutoCAD Mechanical|Company: Autodesk, Inc."
 90
     1024
 91
        0
280
     0
281
     0
  0
CLASS
  1
SOLID_BACKGROUND
  2
AcDbSolidBackground
  3
SCENEOE
 90
     4095
 91
        0
280
     0
281
     0
  0
CLASS
  1
NPOCOLLECTION
  2
AcDbImpNonPersistentObjectsCollection
  3
ObjectDBX Classes
 90
     1153
 91
        0
280
     0
281
     0
  0
ENDSEC
  0
SECTION
  2
TABLES
  0
TABLE
  2
VPORT
  5
8
330
0
100
AcDbSymbolTable
 70
     1
1001
ACAD
1000
DbSaveVer
1071
      226
  0
VPORT
  5
86E7B
330
8
100
AcDbSymbolTableRecord
100
AcDbViewportTableRecord
  2
*Active
 70
     0
 10
0.0
 20
0.0
 11
1.0
 21
1.0
 12
0.0064154322684544
 22
0.0171852945918545
 13
0.0
 23
0.0
 14
50.0
 24
50.0
 15
100.0
 25
100.0
 16
-0.0000000000017053
 26
0.0
 36
7652.290421068265
 17
297.6350889354618
 27
193.1716693634824
 37
0.0
 40
1498.661626635552
 41
2.036082474226803
 42
50.0
 43
0.0
 44
0.0
 50
0.0
 51
0.0
 71
     0
 72
   500
 73
     1
 74
     2
 75
     0
 76
     0
 77
     0
 78
     0
281
     0
 65
     0
110
0.0
120
0.0
130
0.0
111
1.0
121
0.0
131
0.0
112
0.0
122
1.0
132
0.0
 79
     0
146
0.0
348
86E9F
 60
     3
 61
     5
292
     1
282
     1
141
0.0
142
0.0
 63
   250
421
  3355443
1001
ACAD_NAV_VCDISPLAY
1070
     3
  0
ENDTAB
  0
TABLE
  2
LTYPE
  5
5
330
0
100
AcDbSymbolTable
 70
    19
  0
LTYPE
  5
13
330
5
100
AcDbSymbolTableRecord
100
AcDbLinetypeTableRecord
  2
BYBLOCK
 70
     0
  3

 72
    65
 73
     0
 40
0.0
  0
LTYPE
  5
14
330
5
100
AcDbSymbolTableRecord
100
AcDbLinetypeTableRecord
  2
BYLAYER
 70
     0
  3

 72
    65
 73
     0
 40
0.0
  0
LTYPE
  5
15
330
5
100
AcDbSymbolTableRecord
100
AcDbLinetypeTableRecord
  2
CONTINUOUS
 70
     0
  3
実線
 72
    65
 73
     0
 40
0.0
  0
LTYPE
  5
8A62C
330
5
100
AcDbSymbolTableRecord
100
AcDbLinetypeTableRecord
  2
CENTER
 70
     0
  3
____ _ ____ _ ____ _ ____ _ ____ _ ____ _ ____
 72
    65
 73
     4
 40
0.6
 49
0.375
 74
     0
 49
-0.075
 74
     0
 49
0.075
 74
     0
 49
-0.075
 74
     0
  0
LTYPE
  5
A6466
330
5
100
AcDbSymbolTableRecord
100
AcDbLinetypeTableRecord
  2
CENTERX2
 70
     0
  3
Center (2x) ________  __  ________  __  _____
 72
    65
 73
     4
 40
4.0
 49
2.5
 74
     0
 49
-0.5
 74
     0
 49
0.5
 74
     0
 49
-0.5
 74
     0
  0
LTYPE
  5
A7043
330
5
100
AcDbSymbolTableRecord
100
AcDbLinetypeTableRecord
  2
HIDDEN
 70
     0
  3
Hidden __ __ __ __ __ __ __ __ __ __ __ __ __ _
 72
    65
 73
     2
 40
0.375
 49
0.25
 74
     0
 49
-0.125
 74
     0
  0
LTYPE
  5
A7044
330
5
100
AcDbSymbolTableRecord
100
AcDbLinetypeTableRecord
  2
PHANTOM2
 70
     0
  3
Phantom (.5x) ___ _ _ ___ _ _ ___ _ _ ___ _ _
 72
    65
 73
     6
 40
1.25
 49
0.625
 74
     0
 49
-0.125
 74
     0
 49
0.125
 74
     0
 49
-0.125
 74
     0
 49
0.125
 74
     0
 49
-0.125
 74
     0
  0
LTYPE
  5
A707D
330
5
100
AcDbSymbolTableRecord
100
AcDbLinetypeTableRecord
  2
AM_ISO02W050
 70
     0
  3
__ __ __ __ __ __ __ __ __ __ __ __ __ __ __
 72
    65
 73
     2
 40
7.5
 49
6.0
 74
     0
 49
-1.5
 74
     0
  0
LTYPE
  5
A707E
330
5
100
AcDbSymbolTableRecord
100
AcDbLinetypeTableRecord
  2
AM_ISO08W050
 70
     0
  3
____ . ____ . ____ . ____ . ____ . ____ . ____
 72
    65
 73
     4
 40
18.0
 49
12.0
 74
     0
 49
-1.5
 74
     0
 49
3.0
 74
     0
 49
-1.5
 74
     0
  0
LTYPE
  5
A707F
330
5
100
AcDbSymbolTableRecord
100
AcDbLinetypeTableRecord
  2
AM_ISO09W050
 70
     0
  3
_____ . . _____ . . _____ . . ____ .. ____
 72
    65
 73
     6
 40
22.5
 49
12.0
 74
     0
 49
-1.5
 74
     0
 49
3.0
 74
     0
 49
-1.5
 74
     0
 49
3.0
 74
     0
 49
-1.5
 74
     0
  0
LTYPE
  5
A7080
330
5
100
AcDbSymbolTableRecord
100
AcDbLinetypeTableRecord
  2
Amconstr
 70
     0
  3
_______________________
 72
    65
 73
     2
 40
9999.0
 49
9999.0
 74
     0
 49
0.0
 74
     0
  0
LTYPE
  5
A7081
330
5
100
AcDbSymbolTableRecord
100
AcDbLinetypeTableRecord
  2
AM_ISO08W050x2
 70
     0
  3
__ . __ . __ . __ . __ . __
 72
    65
 73
     4
 40
9.0
 49
6.0
 74
     0
 49
-0.75
 74
     0
 49
1.5
 74
     0
 49
-0.75
 74
     0
  0
LTYPE
  5
A7082
330
5
100
AcDbSymbolTableRecord
100
AcDbLinetypeTableRecord
  2
AM_ISO02W050x2
 70
     0
  3
 _ _ _ _ _ _ _ _ _ _ _ _
 72
    65
 73
     2
 40
3.75
 49
3.0
 74
     0
 49
-0.75
 74
     0
  0
LTYPE
  5
A7085
330
5
100
AcDbSymbolTableRecord
100
AcDbLinetypeTableRecord
  2
Amzigzag
 70
     0
  3
/\/-/\/-/\/-/\/-/\/-/\/
 72
    65
 73
     2
 40
11.0001
 49
0.0001
 74
     4
 75
   136
340
A7084
 46
0.04
 50
0.0
 44
0.0
 45
0.0
 49
-11.0
 74
     0
  0
LTYPE
  5
A7086
330
5
100
AcDbSymbolTableRecord
100
AcDbLinetypeTableRecord
  2
CENTER2
 70
     0
  3
Center (.5x) ___ _ ___ _ ___ _ ___ _ ___ _ ___
 72
    65
 73
     4
 40
1.125
 49
0.75
 74
     0
 49
-0.125
 74
     0
 49
0.125
 74
     0
 49
-0.125
 74
     0
  0
LTYPE
  5
A7087
330
5
100
AcDbSymbolTableRecord
100
AcDbLinetypeTableRecord
  2
HIDDEN2
 70
     0
  3
Hidden (.5x) _ _ _ _ _ _ _ _ _ _ _ _ _ _ _ _ _
 72
    65
 73
     2
 40
0.1875
 49
0.125
 74
     0
 49
-0.0625
 74
     0
  0
LTYPE
  5
A7088
330
5
100
AcDbSymbolTableRecord
100
AcDbLinetypeTableRecord
  2
Amzigzag2
 70
     0
  3
/\/-/\/-/\/-/\/-/\/-/\/
 72
    65
 73
     2
 40
0.4401
 49
0.0001
 74
     4
 75
   136
340
A7084
 46
0.0016
 50
0.0
 44
0.0
 45
0.0
 49
-0.4400000000000003
 74
     0
  0
LTYPE
  5
A709A
330
5
100
AcDbSymbolTableRecord
100
AcDbLinetypeTableRecord
  2
ACANSTGB
 70
     0
  3
__ . . __ . .
 72
    65
 73
     6
 40
0.35433070866
 49
0.15748031496
 74
     0
 49
-0.03937007874
 74
     0
 49
0.03937007874
 74
     0
 49
-0.03937007874
 74
     0
 49
0.03937007874
 74
     0
 49
-0.03937007874
 74
     0
  0
LTYPE
  5
A709B
330
5
100
AcDbSymbolTableRecord
100
AcDbLinetypeTableRecord
  2
ACANSTGL
 70
     0
  3
_ _ _ _ _
 72
    65
 73
     2
 40
0.11811023622
 49
0.07874015748
 74
     0
 49
-0.03937007874
 74
     0
  0
ENDTAB
  0
TABLE
  2
LAYER
  5
2
102
{ACAD_XDICTIONARY
360
87810
102
}
330
0
100
AcDbSymbolTable
 70
    10
  0
LAYER
  5
10
102
{ACAD_XDICTIONARY
360
86EEC
102
}
330
2
100
AcDbSymbolTableRecord
100
AcDbLayerTableRecord
  2
0
 70
     0
 62
     7
  6
CONTINUOUS
370
    -3
390
F
347
86E91
348
0
  0
LAYER
  5
22
102
{ACAD_XDICTIONARY
360
86EEE
102
}
330
2
100
AcDbSymbolTableRecord
100
AcDbLayerTableRecord
  2
SIZE
 70
     0
 62
    30
  6
CONTINUOUS
370
    -3
390
F
347
86E91
348
0
  0
LAYER
  5
33
102
{ACAD_XDICTIONARY
360
86EF4
102
}
330
2
100
AcDbSymbolTableRecord
100
AcDbLayerTableRecord
  2
BASIS
 70
     0
 62
     6
  6
CENTER
370
    -3
390
F
347
86E91
348
0
  0
LAYER
  5
35
102
{ACAD_XDICTIONARY
360
86EF8
102
}
330
2
100
AcDbSymbolTableRecord
100
AcDbLayerTableRecord
  2
ARRANGE
 70
     0
 62
     1
  6
CONTINUOUS
370
    -3
390
F
347
86E91
348
0
  0
LAYER
  5
37
102
{ACAD_XDICTIONARY
360
86EFA
102
}
330
2
100
AcDbSymbolTableRecord
100
AcDbLayerTableRecord
  2
ETC
 70
     0
 62
    61
  6
CONTINUOUS
370
    -3
390
F
347
86E91
348
0
  0
LAYER
  5
3A
330
2
100
AcDbSymbolTableRecord
100
AcDbLayerTableRecord
  2
DEFPOINTS
 70
     0
 62
     7
  6
CONTINUOUS
290
     0
370
    -3
390
F
347
86E91
348
0
  0
LAYER
  5
A5C22
102
{ACAD_XDICTIONARY
360
A5C23
102
}
330
2
100
AcDbSymbolTableRecord
100
AcDbLayerTableRecord
  2
DETAIL
 70
     0
 62
     5
  6
CONTINUOUS
370
    -3
390
F
347
86E91
348
0
  0
LAYER
  5
A5C24
102
{ACAD_XDICTIONARY
360
A5C25
102
}
330
2
100
AcDbSymbolTableRecord
100
AcDbLayerTableRecord
  2
OUTLINE
 70
     0
 62
     3
  6
CONTINUOUS
370
    -3
390
F
347
86E91
348
0
  0
LAYER
  5
A5C26
102
{ACAD_XDICTIONARY
360
A5C27
102
}
330
2
100
AcDbSymbolTableRecord
100
AcDbLayerTableRecord
  2
NOTE
 70
     0
 62
     4
  6
CONTINUOUS
370
    -3
390
F
347
86E91
348
0
  0
LAYER
  5
A5C28
102
{ACAD_XDICTIONARY
360
A5C29
102
}
330
2
100
AcDbSymbolTableRecord
100
AcDbLayerTableRecord
  2
SERVICE_SPACE
 70
     0
 62
     2
  6
CONTINUOUS
370
    18
390
F
347
86E91
348
0
  0
ENDTAB
  0
TABLE
  2
STYLE
  5
3
330
0
100
AcDbSymbolTable
 70
     4
  0
STYLE
  5
11
330
3
100
AcDbSymbolTableRecord
100
AcDbTextStyleTableRecord
  2
STANDARD
 70
     0
 40
45.0
 41
0.9
 50
0.0
 71
     0
 42
64.0
  3
SIMPLEX.shx
  4
BIGFONT.shx
  0
STYLE
  5
A7084
330
3
100
AcDbSymbolTableRecord
100
AcDbTextStyleTableRecord
  2

 70
     1
 40
0.0
 41
1.0
 50
0.0
 71
     0
 42
64.0
  3
genltshp.shx
  4

  0
STYLE
  5
A7098
330
3
100
AcDbSymbolTableRecord
100
AcDbTextStyleTableRecord
  2
ACANSTS
 70
     0
 40
0.0
 41
1.0
 50
0.0
 71
     0
 42
64.0
  3
romans.shx
  4

  0
STYLE
  5
A7099
330
3
100
AcDbSymbolTableRecord
100
AcDbTextStyleTableRecord
  2
ACANSGDT
 70
     0
 40
0.0
 41
1.0
 50
0.0
 71
     0
 42
64.0
  3
amgdt.shx
  4

  0
ENDTAB
  0
TABLE
  2
VIEW
  5
6
330
0
100
AcDbSymbolTable
 70
     1
  0
VIEW
  5
3C
330
6
100
AcDbSymbolTableRecord
100
AcDbViewTableRecord
  2
ALL
 70
     0
 40
4282.62
 10
0.0
 20
41.30990399999999
 41
5940.0
 11
0.0
 21
0.0
 31
1.0
 12
0.0
 22
0.0
 32
0.0
 42
50.0
 43
0.0
 44
0.0
 50
0.0
 71
     0
281
     0
 72
     0
 73
     0
348
86E9F
  0
ENDTAB
  0
TABLE
  2
UCS
  5
7
330
0
100
AcDbSymbolTable
 70
     0
  0
ENDTAB
  0
TABLE
  2
APPID
  5
9
330
0
100
AcDbSymbolTable
 70
    14
  0
APPID
  5
12
330
9
100
AcDbSymbolTableRecord
100
AcDbRegAppTableRecord
  2
ACAD
 70
     0
  0
APPID
  5
86ECF
330
9
100
AcDbSymbolTableRecord
100
AcDbRegAppTableRecord
  2
ACAD_NAV_VCDISPLAY
 70
     0
  0
APPID
  5
86EE4
330
9
100
AcDbSymbolTableRecord
100
AcDbRegAppTableRecord
  2
ACAD_EXEMPT_FROM_CAD_STANDARDS
 70
     0
  0
APPID
  5
8A3A7
330
9
100
AcDbSymbolTableRecord
100
AcDbRegAppTableRecord
  2
AcadAnnoMonitorAlertIconDisabled
 70
     0
  0
APPID
  5
8A621
330
9
100
AcDbSymbolTableRecord
100
AcDbRegAppTableRecord
  2
ACAD_MLEADERVER
 70
     0
  0
APPID
  5
A4DDD
330
9
100
AcDbSymbolTableRecord
100
AcDbRegAppTableRecord
  2
AcadAnnoPO
 70
     0
  0
APPID
  5
A4DDE
330
9
100
AcDbSymbolTableRecord
100
AcDbRegAppTableRecord
  2
ACAD_DSTYLE_DIMJAG
 70
     0
  0
APPID
  5
A4DDF
330
9
100
AcDbSymbolTableRecord
100
AcDbRegAppTableRecord
  2
ACAD_DSTYLE_DIMTALN
 70
     0
  0
APPID
  5
A625E
330
9
100
AcDbSymbolTableRecord
100
AcDbRegAppTableRecord
  2
ACAD_PSEXT
 70
     0
  0
APPID
  5
A703C
330
9
100
AcDbSymbolTableRecord
100
AcDbRegAppTableRecord
  2
MCAD_NO_VIS
 70
     0
  0
APPID
  5
A703D
330
9
100
AcDbSymbolTableRecord
100
AcDbRegAppTableRecord
  2
ACAD_TEMP_GRAPHIC
 70
     0
  0
APPID
  5
A7049
330
9
100
AcDbSymbolTableRecord
100
AcDbRegAppTableRecord
  2
ACATTRIBSERVICES
 70
     0
  0
APPID
  5
A7061
330
9
100
AcDbSymbolTableRecord
100
AcDbRegAppTableRecord
  2
DESIGNERASSEMBLIES
 70
     0
  0
APPID
  5
A707B
330
9
100
AcDbSymbolTableRecord
100
AcDbRegAppTableRecord
  2
ACAD_DSTYLE_DIMBREAK
 70
     0
  0
ENDTAB
  0
TABLE
  2
DIMSTYLE
  5
A
330
0
100
AcDbSymbolTable
 70
     8
100
AcDbDimStyleTable
 71
     1
340
213
  0
DIMSTYLE
105
213
102
{ACAD_REACTORS
330
A6D8E
330
A6D90
330
A6D92
330
A6D6D
330
A6D6E
330
A6D6F
330
A6D70
330
A6D71
330
A6D76
330
A6ED2
330
A6F4A
102
}
330
A
100
AcDbSymbolTableRecord
100
AcDbDimStyleTableRecord
  2
STANDARD
 70
     0
340
11
  0
DIMSTYLE
105
A707A
330
A
100
AcDbSymbolTableRecord
100
AcDbDimStyleTableRecord
  2
AM_ANSI
 70
     0
  4
mm
 41
0.12
 42
0.05
 43
0.5
 44
0.1
 47
0.1
 48
0.1
 78
     7
 79
     2
 90
        1
140
0.12
141
0.0
146
0.71
147
0.06
176
   256
177
   256
178
     2
274
     4
284
     7
340
11
345
13
346
13
347
13
371
    -1
372
    -1
1001
ACAD_DSTYLE_DIMJAG
1070
   388
1040
1.5
1001
ACAD_DSTYLE_DIMBREAK
1070
   391
1040
0.125
  0
DIMSTYLE
105
A7089
330
A
100
AcDbSymbolTableRecord
100
AcDbDimStyleTableRecord
  2
AM_ANSI$3
 70
     0
  4
mm
 41
0.12
 42
0.05
 43
0.5
 44
0.1
 47
0.1
 48
0.1
 78
     7
 79
     2
 90
        1
140
0.12
141
0.0
146
0.71
147
0.06
176
   256
177
   256
178
     2
274
     4
284
     7
288
     1
289
     0
340
11
345
13
346
13
347
13
371
    -1
372
    -1
1001
ACAD_DSTYLE_DIMBREAK
1070
   391
1040
0.125
1001
ACAD_DSTYLE_DIMJAG
1070
   388
1040
1.5
  0
DIMSTYLE
105
A708A
330
A
100
AcDbSymbolTableRecord
100
AcDbDimStyleTableRecord
  2
AM_ANSI$4
 70
     0
  4
mm
 41
0.12
 42
0.05
 43
0.5
 44
0.1
 47
0.1
 48
0.1
 78
     7
 79
     2
 90
        1
140
0.12
141
0.0
146
0.71
147
0.06
176
   256
177
   256
178
     2
274
     4
284
     7
288
     1
289
     0
340
11
345
13
346
13
347
13
371
    -1
372
    -1
1001
ACAD_DSTYLE_DIMBREAK
1070
   391
1040
0.125
1001
ACAD_DSTYLE_DIMJAG
1070
   388
1040
1.5
  0
DIMSTYLE
105
A708B
330
A
100
AcDbSymbolTableRecord
100
AcDbDimStyleTableRecord
  2
AM_ANSI$7
 70
     0
  4
mm
 41
0.12
 42
0.05
 43
0.5
 44
0.1
 47
0.1
 48
0.1
 78
     7
 79
     2
 90
        1
140
0.12
141
0.0
146
0.71
147
0.06
176
   256
177
   256
178
     2
274
     4
284
     7
340
11
345
13
346
13
347
13
371
    -1
372
    -1
1001
ACAD_DSTYLE_DIMBREAK
1070
   391
1040
0.125
1001
ACAD_DSTYLE_DIMJAG
1070
   388
1040
1.5
  0
DIMSTYLE
105
A708C
330
A
100
AcDbSymbolTableRecord
100
AcDbDimStyleTableRecord
  2
AM_ANSI$SF
 70
     0
  4
mm
 41
0.12
 42
0.05
 43
0.5
 44
0.1
 47
0.1
 48
0.1
 75
     1
 76
     1
 78
     7
 79
     2
 90
        1
140
0.12
141
0.0
146
0.71
147
0.06
176
   256
177
   256
178
     2
274
     4
284
     7
340
11
345
13
346
13
347
13
371
    -1
372
    -1
1001
ACAD_DSTYLE_DIMBREAK
1070
   391
1040
0.125
1001
ACAD_DSTYLE_DIMJAG
1070
   388
1040
1.5
  0
DIMSTYLE
105
A7091
330
A
100
AcDbSymbolTableRecord
100
AcDbDimStyleTableRecord
  2
AM_ANSI$SH
 70
     0
  4
mm
 41
0.12
 42
0.05
 43
0.5
 44
0.1
 47
0.1
 48
0.1
 75
     1
 76
     1
 78
     7
 79
     2
 90
        1
140
0.12
141
0.0
146
0.71
147
0.06
173
     1
176
   256
177
   256
178
     2
274
     4
284
     7
340
11
343
A708D
345
13
346
13
347
13
371
    -1
372
    -1
1001
ACAD_DSTYLE_DIMBREAK
1070
   391
1040
0.125
1001
ACAD_DSTYLE_DIMJAG
1070
   388
1040
1.5
  0
ENDTAB
  0
TABLE
  2
BLOCK_RECORD
  5
1
330
0
100
AcDbSymbolTable
 70
    20
  0
BLOCK_RECORD
  5
1E
102
{ACAD_XDICTIONARY
360
66E76
102
}
330
1
100
AcDbSymbolTableRecord
100
AcDbBlockTableRecord
  2
*MODEL_SPACE
340
851A5
 70
     0
280
     1
281
     0
  0
BLOCK_RECORD
  5
1A
102
{ACAD_XDICTIONARY
360
66E74
102
}
330
1
100
AcDbSymbolTableRecord
100
AcDbBlockTableRecord
  2
*PAPER_SPACE
340
851A6
 70
     0
280
     1
281
     0
  0
BLOCK_RECORD
  5
46
330
1
100
AcDbSymbolTableRecord
100
AcDbBlockTableRecord
  2
_ORIGIN
340
0
102
{BLKREFS
331
A721B
331
A721C
331
A7224
331
A7225
331
A722D
331
A722E
331
A7281
331
A7282
331
A6F8C
331
A6F8D
331
A6F95
331
A6F96
331
A6F33
331
A6F34
331
A6F3D
331
A6F3E
331
A71E2
331
A71E3
331
A71EB
331
A71EC
331
A71F4
331
A71F5
331
A7208
331
A7209
331
A7212
331
A7213
331
A7112
331
A7113
331
A72B9
331
A72BA
102
}
 70
     0
280
     1
281
     0
  0
BLOCK_RECORD
  5
A6250
330
1
100
AcDbSymbolTableRecord
100
AcDbBlockTableRecord
  2
_Open30
340
0
 70
     0
280
     1
281
     0
  0
BLOCK_RECORD
  5
A6D94
330
1
100
AcDbSymbolTableRecord
100
AcDbBlockTableRecord
  2
*D2
340
0
 70
     0
280
     1
281
     0
  0
BLOCK_RECORD
  5
A6DA0
330
1
100
AcDbSymbolTableRecord
100
AcDbBlockTableRecord
  2
*D3
340
0
 70
     0
280
     1
281
     0
  0
BLOCK_RECORD
  5
A6DAD
330
1
100
AcDbSymbolTableRecord
100
AcDbBlockTableRecord
  2
*D4
340
0
 70
     0
280
     1
281
     0
  0
BLOCK_RECORD
  5
A6DBB
330
1
100
AcDbSymbolTableRecord
100
AcDbBlockTableRecord
  2
*D5
340
0
 70
     0
280
     1
281
     0
  0
BLOCK_RECORD
  5
A6DC8
330
1
100
AcDbSymbolTableRecord
100
AcDbBlockTableRecord
  2
*D6
340
0
 70
     0
280
     1
281
     0
  0
BLOCK_RECORD
  5
A6DD4
330
1
100
AcDbSymbolTableRecord
100
AcDbBlockTableRecord
  2
*D7
340
0
 70
     0
280
     1
281
     0
  0
BLOCK_RECORD
  5
A6DE1
330
1
100
AcDbSymbolTableRecord
100
AcDbBlockTableRecord
  2
*D8
340
0
 70
     0
280
     1
281
     0
  0
BLOCK_RECORD
  5
A6DEE
330
1
100
AcDbSymbolTableRecord
100
AcDbBlockTableRecord
  2
*D9
340
0
 70
     0
280
     1
281
     0
  0
BLOCK_RECORD
  5
A6DFA
330
1
100
AcDbSymbolTableRecord
100
AcDbBlockTableRecord
  2
*D10
340
0
 70
     0
280
     1
281
     0
  0
BLOCK_RECORD
  5
A6E06
330
1
100
AcDbSymbolTableRecord
100
AcDbBlockTableRecord
  2
*D11
340
0
 70
     0
280
     1
281
     0
  0
BLOCK_RECORD
  5
A6E13
330
1
100
AcDbSymbolTableRecord
100
AcDbBlockTableRecord
  2
*D12
340
0
 70
     0
280
     1
281
     0
  0
BLOCK_RECORD
  5
A6E1F
330
1
100
AcDbSymbolTableRecord
100
AcDbBlockTableRecord
  2
*D13
340
0
 70
     0
280
     1
281
     0
  0
BLOCK_RECORD
  5
A6E2C
330
1
100
AcDbSymbolTableRecord
100
AcDbBlockTableRecord
  2
*D14
340
0
 70
     0
280
     1
281
     0
  0
BLOCK_RECORD
  5
A6ED3
330
1
100
AcDbSymbolTableRecord
100
AcDbBlockTableRecord
  2
*D15
340
0
 70
     0
280
     1
281
     0
  0
BLOCK_RECORD
  5
A6F4B
330
1
100
AcDbSymbolTableRecord
100
AcDbBlockTableRecord
  2
*D16
340
0
 70
     0
280
     1
281
     0
  0
BLOCK_RECORD
  5
A708D
330
1
100
AcDbSymbolTableRecord
100
AcDbBlockTableRecord
  2
GENAXEH
340
0
 70
     0
280
     1
281
     0
  0
BLOCK_RECORD
  5
A709D
330
1
100
AcDbSymbolTableRecord
100
AcDbBlockTableRecord
  2
_ACMFILLEDHALF
340
0
 70
     0
280
     1
281
     0
  0
ENDTAB
  0
ENDSEC
  0
SECTION
  2
BLOCKS
  0
BLOCK
  5
1F
330
1E
100
AcDbEntity
  8
0
100
AcDbBlockBegin
  2
*MODEL_SPACE
 70
     0
 10
0.0
 20
0.0
 30
0.0
  3
*MODEL_SPACE
  1

  0
ENDBLK
  5
20
330
1E
100
AcDbEntity
  8
0
100
AcDbBlockEnd
  0
BLOCK
  5
1B
330
1A
100
AcDbEntity
 67
     1
  8
0
100
AcDbBlockBegin
  2
*PAPER_SPACE
 70
     0
 10
0.0
 20
0.0
 30
0.0
  3
*PAPER_SPACE
  1

  0
ENDBLK
  5
1C
330
1A
100
AcDbEntity
 67
     1
  8
0
100
AcDbBlockEnd
  0
BLOCK
  5
47
330
46
100
AcDbEntity
  8
0
100
AcDbBlockBegin
  2
_ORIGIN
 70
     0
 10
0.0
 20
0.0
 30
0.0
  3
_ORIGIN
  1

  0
CIRCLE
  5
48
330
46
100
AcDbEntity
  8
0
  6
ByBlock
 62
     0
100
AcDbCircle
 10
0.0
 20
0.0
 30
0.0
 40
0.5
  0
LINE
  5
49
330
46
100
AcDbEntity
  8
0
  6
ByBlock
 62
     0
100
AcDbLine
 10
0.0
 20
0.0
 30
0.0
 11
-1.0
 21
0.0
 31
0.0
  0
ENDBLK
  5
4A
330
46
100
AcDbEntity
  8
0
100
AcDbBlockEnd
  0
BLOCK
  5
A6254
330
A6250
100
AcDbEntity
  8
0
100
AcDbBlockBegin
  2
_Open30
 70
     0
 10
0.0
 20
0.0
 30
0.0
  3
_Open30
  1

  0
LINE
  5
A6251
330
A6250
100
AcDbEntity
  8
0
  6
ByBlock
 62
     0
370
    -2
100
AcDbLine
 10
-1.0
 20
0.26794919
 30
0.0
 11
0.0
 21
0.0
 31
0.0
  0
LINE
  5
A6252
330
A6250
100
AcDbEntity
  8
0
  6
ByBlock
 62
     0
370
    -2
100
AcDbLine
 10
0.0
 20
0.0
 30
0.0
 11
-1.0
 21
-0.26794919
 31
0.0
  0
LINE
  5
A6253
330
A6250
100
AcDbEntity
  8
0
  6
ByBlock
 62
     0
370
    -2
100
AcDbLine
 10
0.0
 20
0.0
 30
0.0
 11
-1.0
 21
0.0
 31
0.0
  0
ENDBLK
  5
A6255
330
A6250
100
AcDbEntity
  8
0
100
AcDbBlockEnd
  0
BLOCK
  5
A6D95
330
A6D94
100
AcDbEntity
  8
0
100
AcDbBlockBegin
  2
*D2
 70
     1
 10
0.0
 20
0.0
 30
0.0
  3
*D2
  1

  0
LINE
  5
A7218
330
A6D94
100
AcDbEntity
  8
SIZE
440
 16777216
100
AcDbLine
 10
264.9999999999728
 20
-198.1001953130003
 30
0.0
 11
886.4364782789627
 21
-198.1001953130002
 31
0.0
  0
LINE
  5
A7219
330
A6D94
100
AcDbEntity
  8
SIZE
440
 16777216
100
AcDbLine
 10
277.4999999999728
 20
192.1998046869999
 30
0.0
 11
886.4364782789627
 21
192.199804687
 31
0.0
  0
LINE
  5
A721A
330
A6D94
100
AcDbEntity
  8
SIZE
440
 16777216
100
AcDbLine
 10
876.4364782789627
 20
-188.1001953130001
 30
0.0
 11
876.4364782789627
 21
182.199804687
 31
0.0
  0
INSERT
  5
A721B
330
A6D94
100
AcDbEntity
  8
SIZE
440
 16777216
100
AcDbBlockReference
  2
_ORIGIN
 10
876.4364782789627
 20
-198.1001953130002
 30
0.0
 41
10.0
 42
10.0
 43
10.0
 50
270.0
  0
INSERT
  5
A721C
330
A6D94
100
AcDbEntity
  8
SIZE
440
 16777216
100
AcDbBlockReference
  2
_ORIGIN
 10
876.4364782789627
 20
192.199804687
 30
0.0
 41
10.0
 42
10.0
 43
10.0
 50
90.0
  0
MTEXT
  5
A721D
330
A6D94
100
AcDbEntity
  8
SIZE
440
 16777216
100
AcDbMText
 10
843.9364782789626
 20
-2.950195313000314
 30
0.0
 40
45.0
 41
0.0
 46
0.0
 71
     5
 72
     1
  1
\A1;390
 11
0.0000000000000001
 21
1.0
 31
0.0
 73
     1
 44
1.0
  0
POINT
  5
A721E
330
A6D94
100
AcDbEntity
  8
DEFPOINTS
 62
     0
440
 16777216
100
AcDbPoint
 10
254.9999999999728
 20
-198.1001953130003
 30
0.0
  0
POINT
  5
A721F
330
A6D94
100
AcDbEntity
  8
DEFPOINTS
 62
     0
440
 16777216
100
AcDbPoint
 10
267.4999999999728
 20
192.1998046869999
 30
0.0
  0
POINT
  5
A7220
330
A6D94
100
AcDbEntity
  8
DEFPOINTS
 62
     0
440
 16777216
100
AcDbPoint
 10
876.4364782789627
 20
192.199804687
 30
0.0
  0
ENDBLK
  5
A6D96
330
A6D94
100
AcDbEntity
  8
0
100
AcDbBlockEnd
  0
BLOCK
  5
A6DA1
330
A6DA0
100
AcDbEntity
  8
0
100
AcDbBlockBegin
  2
*D3
 70
     1
 10
0.0
 20
0.0
 30
0.0
  3
*D3
  1

  0
LINE
  5
A7221
330
A6DA0
100
AcDbEntity
  8
SIZE
440
 16777216
100
AcDbLine
 10
420.0000000000277
 20
162.9
 30
0.0
 11
420.0000000000277
 21
647.3739528685326
 31
0.0
  0
LINE
  5
A7222
330
A6DA0
100
AcDbEntity
  8
SIZE
440
 16777216
100
AcDbLine
 10
501.0000000000273
 20
25.41281533599039
 30
0.0
 11
501.0000000000273
 21
647.3739528685326
 31
0.0
  0
LINE
  5
A7223
330
A6DA0
100
AcDbEntity
  8
SIZE
440
 16777216
100
AcDbLine
 10
430.0000000000276
 20
637.3739528685327
 30
0.0
 11
491.0000000000272
 21
637.3739528685327
 31
0.0
  0
INSERT
  5
A7224
330
A6DA0
100
AcDbEntity
  8
SIZE
440
 16777216
100
AcDbBlockReference
  2
_ORIGIN
 10
420.0000000000277
 20
637.3739528685327
 30
0.0
 41
10.0
 42
10.0
 43
10.0
 50
180.0
  0
INSERT
  5
A7225
330
A6DA0
100
AcDbEntity
  8
SIZE
440
 16777216
100
AcDbBlockReference
  2
_ORIGIN
 10
501.0000000000273
 20
637.3739528685327
 30
0.0
 41
10.0
 42
10.0
 43
10.0
  0
MTEXT
  5
A7226
330
A6DA0
100
AcDbEntity
  8
SIZE
440
 16777216
100
AcDbMText
 10
460.5000000000273
 20
669.8739528685327
 30
0.0
 40
45.0
 41
0.0
 46
0.0
 71
     5
 72
     1
  1
\A1;81
 73
     1
 44
1.0
  0
POINT
  5
A7227
330
A6DA0
100
AcDbEntity
  8
DEFPOINTS
 62
     0
440
 16777216
100
AcDbPoint
 10
420.0000000000277
 20
152.9
 30
0.0
  0
POINT
  5
A7228
330
A6DA0
100
AcDbEntity
  8
DEFPOINTS
 62
     0
440
 16777216
100
AcDbPoint
 10
501.0000000000273
 20
15.41281533599039
 30
0.0
  0
POINT
  5
A7229
330
A6DA0
100
AcDbEntity
  8
DEFPOINTS
 62
     0
440
 16777216
100
AcDbPoint
 10
501.0000000000273
 20
637.3739528685327
 30
0.0
  0
ENDBLK
  5
A6DA2
330
A6DA0
100
AcDbEntity
  8
0
100
AcDbBlockEnd
  0
BLOCK
  5
A6DAE
330
A6DAD
100
AcDbEntity
  8
0
100
AcDbBlockBegin
  2
*D4
 70
     1
 10
0.0
 20
0.0
 30
0.0
  3
*D4
  1

  0
LINE
  5
A7203
330
A6DAD
100
AcDbEntity
  8
SIZE
440
 16777216
100
AcDbLine
 10
269.9999999999728
 20
-180.6001953130001
 30
0.0
 11
743.8543235586645
 21
-180.6001953130001
 31
0.0
  0
LINE
  5
A7204
330
A6DAD
100
AcDbEntity
  8
SIZE
440
 16777216
100
AcDbLine
 10
264.9999999999728
 20
-198.1001953130001
 30
0.0
 11
743.8543235586645
 21
-198.100195313
 31
0.0
  0
LINE
  5
A7205
330
A6DAD
100
AcDbEntity
  8
SIZE
440
 16777216
100
AcDbLine
 10
733.8543235586645
 20
-170.6001953130001
 30
0.0
 11
733.8543235586645
 21
-160.6001953130001
 31
0.0
  0
LINE
  5
A7206
330
A6DAD
100
AcDbEntity
  8
SIZE
440
 16777216
100
AcDbLine
 10
733.8543235586645
 20
-208.100195313
 30
0.0
 11
733.8543235586645
 21
-340.9573381701429
 31
0.0
  0
LINE
  5
A7207
330
A6DAD
100
AcDbEntity
  8
SIZE
440
 16777216
100
AcDbLine
 10
733.8543235586645
 20
-180.6001953130001
 30
0.0
 11
733.8543235586645
 21
-198.100195313
 31
0.0
  0
INSERT
  5
A7208
330
A6DAD
100
AcDbEntity
  8
SIZE
440
 16777216
100
AcDbBlockReference
  2
_ORIGIN
 10
733.8543235586645
 20
-180.6001953130001
 30
0.0
 41
10.0
 42
10.0
 43
10.0
 50
270.0
  0
INSERT
  5
A7209
330
A6DAD
100
AcDbEntity
  8
SIZE
440
 16777216
100
AcDbBlockReference
  2
_ORIGIN
 10
733.8543235586645
 20
-198.100195313
 30
0.0
 41
10.0
 42
10.0
 43
10.0
 50
90.0
  0
MTEXT
  5
A720A
330
A6DAD
100
AcDbEntity
  8
SIZE
440
 16777216
100
AcDbMText
 10
701.3543235586644
 20
-279.5287667415716
 30
0.0
 40
45.0
 41
0.0
 46
0.0
 71
     5
 72
     1
  1
\A1;17.5
 11
0.0000000000000001
 21
1.0
 31
0.0
 73
     1
 44
1.0
  0
POINT
  5
A720B
330
A6DAD
100
AcDbEntity
  8
DEFPOINTS
 62
     0
440
 16777216
100
AcDbPoint
 10
259.9999999999728
 20
-180.6001953130001
 30
0.0
  0
POINT
  5
A720C
330
A6DAD
100
AcDbEntity
  8
DEFPOINTS
 62
     0
440
 16777216
100
AcDbPoint
 10
254.9999999999728
 20
-198.1001953130001
 30
0.0
  0
POINT
  5
A720D
330
A6DAD
100
AcDbEntity
  8
DEFPOINTS
 62
     0
440
 16777216
100
AcDbPoint
 10
733.8543235586645
 20
-198.100195313
 30
0.0
  0
ENDBLK
  5
A6DAF
330
A6DAD
100
AcDbEntity
  8
0
100
AcDbBlockEnd
  0
BLOCK
  5
A6DBC
330
A6DBB
100
AcDbEntity
  8
0
100
AcDbBlockBegin
  2
*D5
 70
     1
 10
0.0
 20
0.0
 30
0.0
  3
*D5
  1

  0
LINE
  5
A71E8
330
A6DBB
100
AcDbEntity
  8
SIZE
440
 16777216
100
AcDbLine
 10
-420.0000000000267
 20
-152.9999999999999
 30
0.0
 11
-420.0000000000267
 21
-549.9811046754074
 31
0.0
  0
LINE
  5
A71E9
330
A6DBB
100
AcDbEntity
  8
SIZE
440
 16777216
100
AcDbLine
 10
-245.0000000000273
 20
-211.5999999999992
 30
0.0
 11
-245.0000000000273
 21
-549.9811046754074
 31
0.0
  0
LINE
  5
A71EA
330
A6DBB
100
AcDbEntity
  8
SIZE
440
 16777216
100
AcDbLine
 10
-410.0000000000266
 20
-539.9811046754074
 30
0.0
 11
-255.0000000000273
 21
-539.9811046754074
 31
0.0
  0
INSERT
  5
A71EB
330
A6DBB
100
AcDbEntity
  8
SIZE
440
 16777216
100
AcDbBlockReference
  2
_ORIGIN
 10
-420.0000000000267
 20
-539.9811046754074
 30
0.0
 41
10.0
 42
10.0
 43
10.0
 50
180.0
  0
INSERT
  5
A71EC
330
A6DBB
100
AcDbEntity
  8
SIZE
440
 16777216
100
AcDbBlockReference
  2
_ORIGIN
 10
-245.0000000000273
 20
-539.9811046754074
 30
0.0
 41
10.0
 42
10.0
 43
10.0
  0
MTEXT
  5
A71ED
330
A6DBB
100
AcDbEntity
  8
SIZE
440
 16777216
100
AcDbMText
 10
-332.5000000000271
 20
-507.4811046754074
 30
0.0
 40
45.0
 41
0.0
 46
0.0
 71
     5
 72
     1
  1
\A1;175
 73
     1
 44
1.0
  0
POINT
  5
A71EE
330
A6DBB
100
AcDbEntity
  8
DEFPOINTS
 62
     0
440
 16777216
100
AcDbPoint
 10
-420.0000000000267
 20
-142.9999999999999
 30
0.0
  0
POINT
  5
A71EF
330
A6DBB
100
AcDbEntity
  8
DEFPOINTS
 62
     0
440
 16777216
100
AcDbPoint
 10
-245.0000000000273
 20
-201.5999999999992
 30
0.0
  0
POINT
  5
A71F0
330
A6DBB
100
AcDbEntity
  8
DEFPOINTS
 62
     0
440
 16777216
100
AcDbPoint
 10
-245.0000000000273
 20
-539.9811046754074
 30
0.0
  0
ENDBLK
  5
A6DBD
330
A6DBB
100
AcDbEntity
  8
0
100
AcDbBlockEnd
  0
BLOCK
  5
A6DC9
330
A6DC8
100
AcDbEntity
  8
0
100
AcDbBlockBegin
  2
*D6
 70
     1
 10
0.0
 20
0.0
 30
0.0
  3
*D6
  1

  0
LINE
  5
A71F1
330
A6DC8
100
AcDbEntity
  8
SIZE
440
 16777216
100
AcDbLine
 10
-245.0000000000273
 20
-211.5999999999992
 30
0.0
 11
-245.0000000000273
 21
-549.9811046754074
 31
0.0
  0
LINE
  5
A71F2
330
A6DC8
100
AcDbEntity
  8
SIZE
440
 16777216
100
AcDbLine
 10
254.9999999999727
 20
-211.6001953129991
 30
0.0
 11
254.9999999999727
 21
-549.9811046754074
 31
0.0
  0
LINE
  5
A71F3
330
A6DC8
100
AcDbEntity
  8
SIZE
440
 16777216
100
AcDbLine
 10
-235.0000000000274
 20
-539.9811046754074
 30
0.0
 11
244.9999999999727
 21
-539.9811046754074
 31
0.0
  0
INSERT
  5
A71F4
330
A6DC8
100
AcDbEntity
  8
SIZE
440
 16777216
100
AcDbBlockReference
  2
_ORIGIN
 10
-245.0000000000273
 20
-539.9811046754074
 30
0.0
 41
10.0
 42
10.0
 43
10.0
 50
180.0
  0
INSERT
  5
A71F5
330
A6DC8
100
AcDbEntity
  8
SIZE
440
 16777216
100
AcDbBlockReference
  2
_ORIGIN
 10
254.9999999999727
 20
-539.9811046754074
 30
0.0
 41
10.0
 42
10.0
 43
10.0
  0
MTEXT
  5
A71F6
330
A6DC8
100
AcDbEntity
  8
SIZE
440
 16777216
100
AcDbMText
 10
4.99999999997266
 20
-507.4811046754074
 30
0.0
 40
45.0
 41
0.0
 46
0.0
 71
     5
 72
     1
  1
\A1;500
 73
     1
 44
1.0
  0
POINT
  5
A71F7
330
A6DC8
100
AcDbEntity
  8
DEFPOINTS
 62
     0
440
 16777216
100
AcDbPoint
 10
-245.0000000000273
 20
-201.5999999999992
 30
0.0
  0
POINT
  5
A71F8
330
A6DC8
100
AcDbEntity
  8
DEFPOINTS
 62
     0
440
 16777216
100
AcDbPoint
 10
254.9999999999727
 20
-201.6001953129991
 30
0.0
  0
POINT
  5
A71F9
330
A6DC8
100
AcDbEntity
  8
DEFPOINTS
 62
     0
440
 16777216
100
AcDbPoint
 10
254.9999999999727
 20
-539.9811046754074
 30
0.0
  0
ENDBLK
  5
A6DCA
330
A6DC8
100
AcDbEntity
  8
0
100
AcDbBlockEnd
  0
BLOCK
  5
A6DD5
330
A6DD4
100
AcDbEntity
  8
0
100
AcDbBlockBegin
  2
*D7
 70
     1
 10
0.0
 20
0.0
 30
0.0
  3
*D7
  1

  0
LINE
  5
A720E
330
A6DD4
100
AcDbEntity
  8
SIZE
440
 16777216
100
AcDbLine
 10
273.9999999999764
 20
-180.600195313
 30
0.0
 11
743.8543235586637
 21
-180.600195313
 31
0.0
  0
LINE
  5
A720F
330
A6DD4
100
AcDbEntity
  8
SIZE
440
 16777216
100
AcDbLine
 10
273.9999999999747
 20
179.3998046869999
 30
0.0
 11
743.8543235586637
 21
179.3998046869999
 31
0.0
  0
LINE
  5
A7210
330
A6DD4
100
AcDbEntity
  8
SIZE
440
 16777216
100
AcDbLine
 10
733.8543235586637
 20
-170.6001953129999
 30
0.0
 11
733.8543235586637
 21
169.3998046869999
 31
0.0
  0
LINE
  5
A7211
330
A6DD4
100
AcDbEntity
  8
SIZE
440
 16777216
100
AcDbLine
 10
733.8543235586637
 20
179.3998046869999
 30
0.0
 11
733.8543235586637
 21
528.2283761155715
 31
0.0
  0
INSERT
  5
A7212
330
A6DD4
100
AcDbEntity
  8
SIZE
440
 16777216
100
AcDbBlockReference
  2
_ORIGIN
 10
733.8543235586637
 20
-180.600195313
 30
0.0
 41
10.0
 42
10.0
 43
10.0
 50
270.0
  0
INSERT
  5
A7213
330
A6DD4
100
AcDbEntity
  8
SIZE
440
 16777216
100
AcDbBlockReference
  2
_ORIGIN
 10
733.8543235586637
 20
179.3998046869999
 30
0.0
 41
10.0
 42
10.0
 43
10.0
 50
90.0
  0
MTEXT
  5
A7214
330
A6DD4
100
AcDbEntity
  8
SIZE
440
 16777216
100
AcDbMText
 10
701.3543235586637
 20
406.6283761155712
 30
0.0
 40
45.0
 41
602.5173262384781
 46
0.0
 71
     5
 72
     1
  1
\A1;349～371
 11
0.0000000000000001
 21
1.0
 31
0.0
 73
     1
 44
1.0
  0
POINT
  5
A7215
330
A6DD4
100
AcDbEntity
  8
DEFPOINTS
 62
     0
440
 16777216
100
AcDbPoint
 10
263.9999999999764
 20
-180.600195313
 30
0.0
  0
POINT
  5
A7216
330
A6DD4
100
AcDbEntity
  8
DEFPOINTS
 62
     0
440
 16777216
100
AcDbPoint
 10
263.9999999999746
 20
179.3998046869999
 30
0.0
  0
POINT
  5
A7217
330
A6DD4
100
AcDbEntity
  8
DEFPOINTS
 62
     0
440
 16777216
100
AcDbPoint
 10
733.8543235586637
 20
179.3998046869999
 30
0.0
  0
ENDBLK
  5
A6DD6
330
A6DD4
100
AcDbEntity
  8
0
100
AcDbBlockEnd
  0
BLOCK
  5
A6DE2
330
A6DE1
100
AcDbEntity
  8
0
100
AcDbBlockBegin
  2
*D8
 70
     1
 10
0.0
 20
0.0
 30
0.0
  3
*D8
  1

  0
LINE
  5
A71DE
330
A6DE1
100
AcDbEntity
  8
SIZE
440
 16777216
100
AcDbLine
 10
234.9999999999727
 20
-196.3844665605
 30
0.0
 11
234.9999999999726
 21
-422.876497837159
 31
0.0
  0
LINE
  5
A71DF
330
A6DE1
100
AcDbEntity
  8
SIZE
440
 16777216
100
AcDbLine
 10
274.9999999999727
 20
-196.3844665605
 30
0.0
 11
274.9999999999727
 21
-422.876497837159
 31
0.0
  0
LINE
  5
A71E0
330
A6DE1
100
AcDbEntity
  8
SIZE
440
 16777216
100
AcDbLine
 10
244.9999999999727
 20
-412.8764978371591
 30
0.0
 11
264.9999999999727
 21
-412.8764978371591
 31
0.0
  0
LINE
  5
A71E1
330
A6DE1
100
AcDbEntity
  8
SIZE
440
 16777216
100
AcDbLine
 10
274.9999999999727
 20
-412.8764978371591
 30
0.0
 11
389.8757195885605
 21
-412.8764978371591
 31
0.0
  0
INSERT
  5
A71E2
330
A6DE1
100
AcDbEntity
  8
SIZE
440
 16777216
100
AcDbBlockReference
  2
_ORIGIN
 10
234.9999999999727
 20
-412.8764978371591
 30
0.0
 41
10.0
 42
10.0
 43
10.0
 50
180.0
  0
INSERT
  5
A71E3
330
A6DE1
100
AcDbEntity
  8
SIZE
440
 16777216
100
AcDbBlockReference
  2
_ORIGIN
 10
274.9999999999727
 20
-412.8764978371591
 30
0.0
 41
10.0
 42
10.0
 43
10.0
  0
MTEXT
  5
A71E4
330
A6DE1
100
AcDbEntity
  8
SIZE
440
 16777216
100
AcDbMText
 10
350.7328624457033
 20
-380.3764978371591
 30
0.0
 40
45.0
 41
0.0
 46
0.0
 71
     5
 72
     1
  1
\A1;40
 73
     1
 44
1.0
  0
POINT
  5
A71E5
330
A6DE1
100
AcDbEntity
  8
DEFPOINTS
 62
     0
440
 16777216
100
AcDbPoint
 10
234.9999999999727
 20
-186.3844665605
 30
0.0
  0
POINT
  5
A71E6
330
A6DE1
100
AcDbEntity
  8
DEFPOINTS
 62
     0
440
 16777216
100
AcDbPoint
 10
274.9999999999727
 20
-186.3844665605
 30
0.0
  0
POINT
  5
A71E7
330
A6DE1
100
AcDbEntity
  8
DEFPOINTS
 62
     0
440
 16777216
100
AcDbPoint
 10
274.9999999999727
 20
-412.8764978371591
 30
0.0
  0
ENDBLK
  5
A6DE3
330
A6DE1
100
AcDbEntity
  8
0
100
AcDbBlockEnd
  0
BLOCK
  5
A6DEF
330
A6DEE
100
AcDbEntity
  8
0
100
AcDbBlockBegin
  2
*D9
 70
     1
 10
0.0
 20
0.0
 30
0.0
  3
*D9
  1

  0
LINE
  5
A722A
330
A6DEE
100
AcDbEntity
  8
SIZE
440
 16777216
100
AcDbLine
 10
-420.0000000000267
 20
159.0999999999998
 30
0.0
 11
-420.0000000000265
 21
647.3739528685326
 31
0.0
  0
LINE
  5
A722B
330
A6DEE
100
AcDbEntity
  8
SIZE
440
 16777216
100
AcDbLine
 10
420.0000000000271
 20
162.9
 30
0.0
 11
420.0000000000271
 21
647.3739528685326
 31
0.0
  0
LINE
  5
A722C
330
A6DEE
100
AcDbEntity
  8
SIZE
440
 16777216
100
AcDbLine
 10
-410.0000000000266
 20
637.3739528685327
 30
0.0
 11
410.0000000000271
 21
637.3739528685327
 31
0.0
  0
INSERT
  5
A722D
330
A6DEE
100
AcDbEntity
  8
SIZE
440
 16777216
100
AcDbBlockReference
  2
_ORIGIN
 10
-420.0000000000265
 20
637.3739528685327
 30
0.0
 41
10.0
 42
10.0
 43
10.0
 50
180.0
  0
INSERT
  5
A722E
330
A6DEE
100
AcDbEntity
  8
SIZE
440
 16777216
100
AcDbBlockReference
  2
_ORIGIN
 10
420.0000000000271
 20
637.3739528685327
 30
0.0
 41
10.0
 42
10.0
 43
10.0
  0
MTEXT
  5
A722F
330
A6DEE
100
AcDbEntity
  8
SIZE
440
 16777216
100
AcDbMText
 10
0.0000000000000162
 20
669.8739528685327
 30
0.0
 40
45.0
 41
0.0
 46
0.0
 71
     5
 72
     1
  1
\A1;840
 73
     1
 44
1.0
  0
POINT
  5
A7230
330
A6DEE
100
AcDbEntity
  8
DEFPOINTS
 62
     0
440
 16777216
100
AcDbPoint
 10
-420.0000000000267
 20
149.0999999999998
 30
0.0
  0
POINT
  5
A7231
330
A6DEE
100
AcDbEntity
  8
DEFPOINTS
 62
     0
440
 16777216
100
AcDbPoint
 10
420.0000000000271
 20
152.9
 30
0.0
  0
POINT
  5
A7232
330
A6DEE
100
AcDbEntity
  8
DEFPOINTS
 62
     0
440
 16777216
100
AcDbPoint
 10
420.0000000000271
 20
637.3739528685327
 30
0.0
  0
ENDBLK
  5
A6DF0
330
A6DEE
100
AcDbEntity
  8
0
100
AcDbBlockEnd
  0
BLOCK
  5
A6DFB
330
A6DFA
100
AcDbEntity
  8
0
100
AcDbBlockBegin
  2
*D10
 70
     1
 10
0.0
 20
0.0
 30
0.0
  3
*D10
  1

  0
LINE
  5
A6F30
330
A6DFA
100
AcDbEntity
  8
SIZE
440
 16777216
100
AcDbLine
 10
420.0000000000271
 20
162.9
 30
0.0
 11
420.0000000000271
 21
707.3374380892355
 31
0.0
  0
LINE
  5
A6F31
330
A6DFA
100
AcDbEntity
  8
SIZE
440
 16777216
100
AcDbLine
 10
770.0000000000673
 20
275.0
 30
0.0
 11
770.0000000000673
 21
707.3374380892355
 31
0.0
  0
LINE
  5
A6F32
330
A6DFA
100
AcDbEntity
  8
SIZE
440
 16777216
100
AcDbLine
 10
430.0000000000273
 20
697.3374380892355
 30
0.0
 11
760.0000000000672
 21
697.3374380892355
 31
0.0
  0
INSERT
  5
A6F33
330
A6DFA
100
AcDbEntity
  8
SIZE
440
 16777216
100
AcDbBlockReference
  2
_ORIGIN
 10
420.0000000000271
 20
697.3374380892355
 30
0.0
 41
10.0
 42
10.0
 43
10.0
 50
180.0
  0
INSERT
  5
A6F34
330
A6DFA
100
AcDbEntity
  8
SIZE
440
 16777216
100
AcDbBlockReference
  2
_ORIGIN
 10
770.0000000000673
 20
697.3374380892355
 30
0.0
 41
10.0
 42
10.0
 43
10.0
  0
MTEXT
  5
A6F35
330
A6DFA
100
AcDbEntity
  8
SIZE
440
 16777216
100
AcDbMText
 10
595.0000000000471
 20
729.8374380892355
 30
0.0
 40
45.0
 41
0.0
 46
0.0
 71
     5
 72
     1
  1
\A1;{\W0.8;<350 or more>}
 73
     1
 44
1.0
  0
POINT
  5
A6F36
330
A6DFA
100
AcDbEntity
  8
DEFPOINTS
 62
     0
440
 16777216
100
AcDbPoint
 10
420.0000000000271
 20
152.9
 30
0.0
  0
POINT
  5
A6F37
330
A6DFA
100
AcDbEntity
  8
DEFPOINTS
 62
     0
440
 16777216
100
AcDbPoint
 10
770.0000000000673
 20
264.9999999999999
 30
0.0
  0
POINT
  5
A6F38
330
A6DFA
100
AcDbEntity
  8
DEFPOINTS
 62
     0
440
 16777216
100
AcDbPoint
 10
770.0000000000673
 20
697.3374380892355
 30
0.0
  0
ENDBLK
  5
A6DFC
330
A6DFA
100
AcDbEntity
  8
0
100
AcDbBlockEnd
  0
BLOCK
  5
A6E07
330
A6E06
100
AcDbEntity
  8
0
100
AcDbBlockBegin
  2
*D11
 70
     1
 10
0.0
 20
0.0
 30
0.0
  3
*D11
  1

  0
LINE
  5
A6F39
330
A6E06
100
AcDbEntity
  8
SIZE
440
 16777216
100
AcDbLine
 10
-420.0000000000267
 20
159.0999999999998
 30
0.0
 11
-420.0000000000267
 21
707.3374380892355
 31
0.0
  0
LINE
  5
A6F3A
330
A6E06
100
AcDbEntity
  8
SIZE
440
 16777216
100
AcDbLine
 10
-520.0000000000268
 20
275.0
 30
0.0
 11
-520.0000000000268
 21
707.3374380892355
 31
0.0
  0
LINE
  5
A6F3B
330
A6E06
100
AcDbEntity
  8
SIZE
440
 16777216
100
AcDbLine
 10
-430.0000000000268
 20
697.3374380892355
 30
0.0
 11
-510.0000000000266
 21
697.3374380892355
 31
0.0
  0
LINE
  5
A6F3C
330
A6E06
100
AcDbEntity
  8
SIZE
440
 16777216
100
AcDbLine
 10
-520.0000000000268
 20
697.3374380892355
 30
0.0
 11
-967.4714285714557
 21
697.3374380892355
 31
0.0
  0
INSERT
  5
A6F3D
330
A6E06
100
AcDbEntity
  8
SIZE
440
 16777216
100
AcDbBlockReference
  2
_ORIGIN
 10
-420.0000000000267
 20
697.3374380892355
 30
0.0
 41
10.0
 42
10.0
 43
10.0
  0
INSERT
  5
A6F3E
330
A6E06
100
AcDbEntity
  8
SIZE
440
 16777216
100
AcDbBlockReference
  2
_ORIGIN
 10
-520.0000000000268
 20
697.3374380892355
 30
0.0
 41
10.0
 42
10.0
 43
10.0
 50
180.0
  0
MTEXT
  5
A6F3F
330
A6E06
100
AcDbEntity
  8
SIZE
440
 16777216
100
AcDbMText
 10
-761.0142857143127
 20
729.8374380892355
 30
0.0
 40
45.0
 41
0.0
 46
0.0
 71
     5
 72
     1
  1
\A1;<100 or more>
 73
     1
 44
1.0
  0
POINT
  5
A6F40
330
A6E06
100
AcDbEntity
  8
DEFPOINTS
 62
     0
440
 16777216
100
AcDbPoint
 10
-420.0000000000267
 20
149.0999999999998
 30
0.0
  0
POINT
  5
A6F41
330
A6E06
100
AcDbEntity
  8
DEFPOINTS
 62
     0
440
 16777216
100
AcDbPoint
 10
-520.0000000000268
 20
264.9999999999999
 30
0.0
  0
POINT
  5
A6F42
330
A6E06
100
AcDbEntity
  8
DEFPOINTS
 62
     0
440
 16777216
100
AcDbPoint
 10
-520.0000000000268
 20
697.3374380892355
 30
0.0
  0
ENDBLK
  5
A6E08
330
A6E06
100
AcDbEntity
  8
0
100
AcDbBlockEnd
  0
BLOCK
  5
A6E14
330
A6E13
100
AcDbEntity
  8
0
100
AcDbBlockBegin
  2
*D12
 70
     1
 10
0.0
 20
0.0
 30
0.0
  3
*D12
  1

  0
LINE
  5
A72B6
330
A6E13
100
AcDbEntity
  8
SIZE
440
 16777216
100
AcDbLine
 10
-412.000000000127
 20
165.0000000000001
 30
0.0
 11
-777.5516257108177
 21
165.0000000000001
 31
0.0
  0
LINE
  5
A72B7
330
A6E13
100
AcDbEntity
  8
SIZE
440
 16777216
100
AcDbLine
 10
-402.9600000000275
 20
-165.0
 30
0.0
 11
-777.5516257108177
 21
-165.0000000000001
 31
0.0
  0
LINE
  5
A72B8
330
A6E13
100
AcDbEntity
  8
SIZE
440
 16777216
100
AcDbLine
 10
-767.5516257108175
 20
155.0000000000001
 30
0.0
 11
-767.5516257108175
 21
-155.0000000000001
 31
0.0
  0
INSERT
  5
A72B9
330
A6E13
100
AcDbEntity
  8
SIZE
440
 16777216
100
AcDbBlockReference
  2
_ORIGIN
 10
-767.5516257108175
 20
165.0000000000001
 30
0.0
 41
10.0
 42
10.0
 43
10.0
 50
90.0
  0
INSERT
  5
A72BA
330
A6E13
100
AcDbEntity
  8
SIZE
440
 16777216
100
AcDbBlockReference
  2
_ORIGIN
 10
-767.5516257108175
 20
-165.0000000000001
 30
0.0
 41
10.0
 42
10.0
 43
10.0
 50
270.0
  0
MTEXT
  5
A72BB
330
A6E13
100
AcDbEntity
  8
SIZE
440
 16777216
100
AcDbMText
 10
-800.0516257108174
 20
0.0000000000002882
 30
0.0
 40
45.0
 41
0.0
 46
0.0
 71
     5
 72
     1
  1
\A1;330
 11
0.0000000000000001
 21
1.0
 31
0.0
 73
     1
 44
1.0
  0
POINT
  5
A72BC
330
A6E13
100
AcDbEntity
  8
DEFPOINTS
 62
     0
440
 16777216
100
AcDbPoint
 10
-407.000000000127
 20
165.0000000000001
 30
0.0
  0
POINT
  5
A72BD
330
A6E13
100
AcDbEntity
  8
DEFPOINTS
 62
     0
440
 16777216
100
AcDbPoint
 10
-397.9600000000275
 20
-165.0
 30
0.0
  0
POINT
  5
A72BE
330
A6E13
100
AcDbEntity
  8
DEFPOINTS
 62
     0
440
 16777216
100
AcDbPoint
 10
-767.5516257108175
 20
-165.0000000000001
 30
0.0
  0
ENDBLK
  5
A6E15
330
A6E13
100
AcDbEntity
  8
0
100
AcDbBlockEnd
  0
BLOCK
  5
A6E20
330
A6E1F
100
AcDbEntity
  8
0
100
AcDbBlockBegin
  2
*D13
 70
     1
 10
0.0
 20
0.0
 30
0.0
  3
*D13
  1

  0
LINE
  5
A6F88
330
A6E1F
100
AcDbEntity
  8
SIZE
440
 16777216
100
AcDbLine
 10
-417.000000000127
 20
165.0000000000002
 30
0.0
 11
-1009.602951369028
 21
165.0000000000001
 31
0.0
  0
LINE
  5
A6F89
330
A6E1F
100
AcDbEntity
  8
SIZE
440
 16777216
100
AcDbLine
 10
-530.000000000027
 20
265.0000000000001
 30
0.0
 11
-1009.602951369028
 21
265.0
 31
0.0
  0
LINE
  5
A6F8A
330
A6E1F
100
AcDbEntity
  8
SIZE
440
 16777216
100
AcDbLine
 10
-999.6029513690279
 20
175.0000000000001
 30
0.0
 11
-999.6029513690279
 21
255.0
 31
0.0
  0
LINE
  5
A6F8B
330
A6E1F
100
AcDbEntity
  8
SIZE
440
 16777216
100
AcDbLine
 10
-999.6029513690283
 20
265.0
 30
0.0
 11
-999.6029513690283
 21
687.9142857142857
 31
0.0
  0
INSERT
  5
A6F8C
330
A6E1F
100
AcDbEntity
  8
SIZE
440
 16777216
100
AcDbBlockReference
  2
_ORIGIN
 10
-999.6029513690279
 20
165.0000000000001
 30
0.0
 41
10.0
 42
10.0
 43
10.0
 50
270.0
  0
INSERT
  5
A6F8D
330
A6E1F
100
AcDbEntity
  8
SIZE
440
 16777216
100
AcDbBlockReference
  2
_ORIGIN
 10
-999.6029513690283
 20
265.0
 30
0.0
 41
10.0
 42
10.0
 43
10.0
 50
90.0
  0
MTEXT
  5
A6F8E
330
A6E1F
100
AcDbEntity
  8
SIZE
440
 16777216
100
AcDbMText
 10
-1032.102951369028
 20
481.457142857143
 30
0.0
 40
45.0
 41
0.0
 46
0.0
 71
     5
 72
     1
  1
\A1;<100 or more>
 11
0.0000000000000001
 21
1.0
 31
0.0
 73
     1
 44
1.0
  0
POINT
  5
A6F8F
330
A6E1F
100
AcDbEntity
  8
DEFPOINTS
 62
     0
440
 16777216
100
AcDbPoint
 10
-407.0000000001271
 20
165.0000000000002
 30
0.0
  0
POINT
  5
A6F90
330
A6E1F
100
AcDbEntity
  8
DEFPOINTS
 62
     0
440
 16777216
100
AcDbPoint
 10
-520.0000000000271
 20
265.0000000000001
 30
0.0
  0
POINT
  5
A6F91
330
A6E1F
100
AcDbEntity
  8
DEFPOINTS
 62
     0
440
 16777216
100
AcDbPoint
 10
-999.6029513690283
 20
265.0
 30
0.0
  0
ENDBLK
  5
A6E21
330
A6E1F
100
AcDbEntity
  8
0
100
AcDbBlockEnd
  0
BLOCK
  5
A6E2D
330
A6E2C
100
AcDbEntity
  8
0
100
AcDbBlockBegin
  2
*D14
 70
     1
 10
0.0
 20
0.0
 30
0.0
  3
*D14
  1

  0
LINE
  5
A6F92
330
A6E2C
100
AcDbEntity
  8
SIZE
440
 16777216
100
AcDbLine
 10
-407.9600000003622
 20
-165.0000000000001
 30
0.0
 11
-1009.602951369029
 21
-165.0000000000002
 31
0.0
  0
LINE
  5
A6F93
330
A6E2C
100
AcDbEntity
  8
SIZE
440
 16777216
100
AcDbLine
 10
-530.0000000000275
 20
-665.0000000000002
 30
0.0
 11
-1009.602951369029
 21
-665.0000000000002
 31
0.0
  0
LINE
  5
A6F94
330
A6E2C
100
AcDbEntity
  8
SIZE
440
 16777216
100
AcDbLine
 10
-999.6029513690288
 20
-175.0000000000002
 30
0.0
 11
-999.6029513690288
 21
-655.0000000000002
 31
0.0
  0
INSERT
  5
A6F95
330
A6E2C
100
AcDbEntity
  8
SIZE
440
 16777216
100
AcDbBlockReference
  2
_ORIGIN
 10
-999.6029513690288
 20
-165.0000000000002
 30
0.0
 41
10.0
 42
10.0
 43
10.0
 50
90.0
  0
INSERT
  5
A6F96
330
A6E2C
100
AcDbEntity
  8
SIZE
440
 16777216
100
AcDbBlockReference
  2
_ORIGIN
 10
-999.6029513690288
 20
-665.0000000000002
 30
0.0
 41
10.0
 42
10.0
 43
10.0
 50
270.0
  0
MTEXT
  5
A6F97
330
A6E2C
100
AcDbEntity
  8
SIZE
440
 16777216
100
AcDbMText
 10
-1032.102951369028
 20
-414.9999999999998
 30
0.0
 40
45.0
 41
0.0
 46
0.0
 71
     5
 72
     1
  1
\A1;<500 or more>
 11
0.0000000000000001
 21
1.0
 31
0.0
 73
     1
 44
1.0
  0
POINT
  5
A6F98
330
A6E2C
100
AcDbEntity
  8
DEFPOINTS
 62
     0
440
 16777216
100
AcDbPoint
 10
-397.9600000003622
 20
-165.0000000000001
 30
0.0
  0
POINT
  5
A6F99
330
A6E2C
100
AcDbEntity
  8
DEFPOINTS
 62
     0
440
 16777216
100
AcDbPoint
 10
-520.0000000000275
 20
-665.0000000000002
 30
0.0
  0
POINT
  5
A6F9A
330
A6E2C
100
AcDbEntity
  8
DEFPOINTS
 62
     0
440
 16777216
100
AcDbPoint
 10
-999.6029513690288
 20
-665.0000000000002
 30
0.0
  0
ENDBLK
  5
A6E2E
330
A6E2C
100
AcDbEntity
  8
0
100
AcDbBlockEnd
  0
BLOCK
  5
A6ED4
330
A6ED3
100
AcDbEntity
  8
0
100
AcDbBlockBegin
  2
*D15
 70
     1
 10
0.0
 20
0.0
 30
0.0
  3
*D15
  1

  0
LINE
  5
A710F
330
A6ED3
100
AcDbEntity
  8
SIZE
440
 16777216
100
AcDbLine
 10
-420.0000000000271
 20
159.0999999999996
 30
0.0
 11
-420.0000000000271
 21
510.5168674214763
 31
0.0
  0
LINE
  5
A7110
330
A6ED3
100
AcDbEntity
  8
SIZE
440
 16777216
100
AcDbLine
 10
-2.499630266963363
 20
155.0552829854329
 30
0.0
 11
-2.499630266963341
 21
510.5168674214763
 31
0.0
  0
LINE
  5
A7111
330
A6ED3
100
AcDbEntity
  8
SIZE
440
 16777216
100
AcDbLine
 10
-410.0000000000273
 20
500.5168674214765
 30
0.0
 11
-12.49963026696334
 21
500.5168674214765
 31
0.0
  0
INSERT
  5
A7112
330
A6ED3
100
AcDbEntity
  8
SIZE
440
 16777216
100
AcDbBlockReference
  2
_ORIGIN
 10
-420.0000000000271
 20
500.5168674214765
 30
0.0
 41
10.0
 42
10.0
 43
10.0
 50
180.0
  0
INSERT
  5
A7113
330
A6ED3
100
AcDbEntity
  8
SIZE
440
 16777216
100
AcDbBlockReference
  2
_ORIGIN
 10
-2.499630266963341
 20
500.5168674214765
 30
0.0
 41
10.0
 42
10.0
 43
10.0
  0
MTEXT
  5
A7114
330
A6ED3
100
AcDbEntity
  8
SIZE
440
 16777216
100
AcDbMText
 10
-211.2498151334953
 20
533.0168674214765
 30
0.0
 40
45.0
 41
0.0
 46
0.0
 71
     5
 72
     1
  1
\A1;417.5
 73
     1
 44
1.0
  0
POINT
  5
A7115
330
A6ED3
100
AcDbEntity
  8
DEFPOINTS
 62
     0
440
 16777216
100
AcDbPoint
 10
-420.0000000000271
 20
149.0999999999996
 30
0.0
  0
POINT
  5
A7116
330
A6ED3
100
AcDbEntity
  8
DEFPOINTS
 62
     0
440
 16777216
100
AcDbPoint
 10
-2.499630266963364
 20
145.0552829854329
 30
0.0
  0
POINT
  5
A7117
330
A6ED3
100
AcDbEntity
  8
DEFPOINTS
 62
     0
440
 16777216
100
AcDbPoint
 10
-2.499630266963341
 20
500.5168674214765
 30
0.0
  0
ENDBLK
  5
A6ED5
330
A6ED3
100
AcDbEntity
  8
0
100
AcDbBlockEnd
  0
BLOCK
  5
A6F4C
330
A6F4B
100
AcDbEntity
  8
0
100
AcDbBlockBegin
  2
*D16
 70
     1
 10
0.0
 20
0.0
 30
0.0
  3
*D16
  1

  0
LINE
  5
A727D
330
A6F4B
100
AcDbEntity
  8
SIZE
440
 16777216
100
AcDbLine
 10
-417.0000000001275
 20
165.0
 30
0.0
 11
-653.7435388994748
 21
165.0
 31
0.0
  0
LINE
  5
A727E
330
A6F4B
100
AcDbEntity
  8
SIZE
440
 16777216
100
AcDbLine
 10
-41.52892218157145
 20
115.0
 30
0.0
 11
-653.7435388994748
 21
114.9999999999999
 31
0.0
  0
LINE
  5
A727F
330
A6F4B
100
AcDbEntity
  8
SIZE
440
 16777216
100
AcDbLine
 10
-643.7435388994749
 20
155.0
 30
0.0
 11
-643.7435388994749
 21
124.9999999999999
 31
0.0
  0
MTEXT
  5
A7280
330
A6F4B
100
AcDbEntity
  8
SIZE
440
 16777216
100
AcDbMText
 10
-681.7961887355541
 20
129.0655982857561
 30
0.0
 40
45.0
 41
0.0
 46
0.0
 71
     5
 72
     1
  1
\A1;50
 11
0.0000000000000001
 21
1.0
 31
0.0
 73
     1
 44
1.0
  0
INSERT
  5
A7281
330
A6F4B
100
AcDbEntity
  8
SIZE
440
 16777216
100
AcDbBlockReference
  2
_ORIGIN
 10
-643.7435388994749
 20
165.0
 30
0.0
 41
10.0
 42
10.0
 43
10.0
 50
90.0
  0
INSERT
  5
A7282
330
A6F4B
100
AcDbEntity
  8
SIZE
440
 16777216
100
AcDbBlockReference
  2
_ORIGIN
 10
-643.7435388994749
 20
114.9999999999999
 30
0.0
 41
10.0
 42
10.0
 43
10.0
 50
270.0
  0
POINT
  5
A7283
330
A6F4B
100
AcDbEntity
  8
DEFPOINTS
 62
     0
440
 16777216
100
AcDbPoint
 10
-407.0000000001274
 20
165.0
 30
0.0
  0
POINT
  5
A7284
330
A6F4B
100
AcDbEntity
  8
DEFPOINTS
 62
     0
440
 16777216
100
AcDbPoint
 10
-31.52892218157145
 20
115.0
 30
0.0
  0
POINT
  5
A7285
330
A6F4B
100
AcDbEntity
  8
DEFPOINTS
 62
     0
440
 16777216
100
AcDbPoint
 10
-643.7435388994749
 20
114.9999999999999
 30
0.0
  0
ENDBLK
  5
A6F4D
330
A6F4B
100
AcDbEntity
  8
0
100
AcDbBlockEnd
  0
BLOCK
  5
A708F
330
A708D
100
AcDbEntity
  8
0
100
AcDbBlockBegin
  2
GENAXEH
 70
     0
 10
0.0
 20
0.0
 30
0.0
  3
GENAXEH
  1

  0
LINE
  5
A708E
330
A708D
100
AcDbEntity
  8
0
100
AcDbLine
 10
-1.0
 20
0.0
 30
0.0
 11
1.0
 21
0.0
 31
0.0
  0
ENDBLK
  5
A7090
330
A708D
100
AcDbEntity
  8
0
100
AcDbBlockEnd
  0
BLOCK
  5
A709E
330
A709D
100
AcDbEntity
  8
0
100
AcDbBlockBegin
  2
_ACMFILLEDHALF
 70
     0
 10
0.0
 20
0.0
 30
0.0
  3
_ACMFILLEDHALF
  1

  0
TRACE
  5
A70A0
330
A709D
100
AcDbEntity
  8
SIZE
 62
     0
100
AcDbTrace
 10
-0.8
 20
0.0
 30
0.0
 11
-1.0
 21
0.166666666
 31
0.0
 12
0.0
 22
0.0
 32
0.0
 13
0.0
 23
0.0
 33
0.0
  0
LINE
  5
A70A1
330
A709D
100
AcDbEntity
  8
SIZE
 62
     0
100
AcDbLine
 10
-1.0
 20
0.0
 30
0.0
 11
-0.8
 21
0.0
 31
0.0
  0
ENDBLK
  5
A709F
330
A709D
100
AcDbEntity
  8
0
100
AcDbBlockEnd
  0
ENDSEC
  0
SECTION
  2
ENTITIES
  0
MTEXT
  5
38341
330
1E
100
AcDbEntity
  8
0
  6
Continuous
100
AcDbMText
 10
383.9605305094082
 20
4023.330445893031
 30
0.0
 40
64.0
 41
187.9848
 46
0.0
 71
     1
 72
     5
  1

 73
     1
 44
1.0
  0
LINE
  5
A4AF4
330
1E
100
AcDbEntity
  8
NOTE
  6
CENTER
100
AcDbLine
 10
-2.499630266963364
 20
145.0552829854329
 30
0.0
 11
-2.499630266963364
 21
84.99207747811144
 31
0.0
  0
LINE
  5
A4AF5
330
1E
100
AcDbEntity
  8
NOTE
  6
CENTER
100
AcDbLine
 10
26.5296616476447
 20
115.0
 30
0.0
 11
-31.52892218157143
 21
115.0
 31
0.0
  0
CIRCLE
  5
A5786
330
1E
100
AcDbEntity
  8
ARRANGE
100
AcDbCircle
 10
0.0
 20
0.0
 30
0.0
 40
40.0
  0
POINT
  5
A5787
330
1E
100
AcDbEntity
  8
ARRANGE
100
AcDbPoint
 10
0.0
 20
0.0
 30
0.0
  0
LINE
  5
A5E2E
330
1E
100
AcDbEntity
  8
BASIS
  6
CENTER
100
AcDbLine
 10
254.9999999999723
 20
-159.6001953130009
 30
0.0
 11
254.9999999999723
 21
-201.6001953129991
 31
0.0
  0
LINE
  5
A5E2F
330
1E
100
AcDbEntity
  8
BASIS
  6
CENTER
100
AcDbLine
 10
263.9999999999759
 20
-180.600195313
 30
0.0
 11
245.9999999999723
 21
-180.600195313
 31
0.0
  0
LINE
  5
A5E30
330
1E
100
AcDbEntity
  8
BASIS
  6
CENTER
100
AcDbLine
 10
-245.0000000000277
 20
-159.600000000001
 30
0.0
 11
-245.0000000000277
 21
-201.5999999999992
 31
0.0
  0
LINE
  5
A5E31
330
1E
100
AcDbEntity
  8
BASIS
  6
CENTER
100
AcDbLine
 10
263.9999999999741
 20
179.3998046869999
 30
0.0
 11
245.9999999999705
 21
179.3998046869999
 31
0.0
  0
LINE
  5
A5E32
330
1E
100
AcDbEntity
  8
BASIS
  6
CENTER
100
AcDbLine
 10
-245.0000000000277
 20
200.6998046869995
 30
0.0
 11
-245.0000000000277
 21
158.699804687001
 31
0.0
  0
LINE
  5
A5E33
330
1E
100
AcDbEntity
  8
BASIS
  6
CENTER
100
AcDbLine
 10
-236.0000000000241
 20
179.3998046870001
 30
0.0
 11
-254.0000000000278
 21
179.3998046870001
 31
0.0
  0
LINE
  5
A5E34
330
1E
100
AcDbEntity
  8
BASIS
  6
CENTERX2
100
AcDbLine
 10
0.0
 20
200.7681711286489
 30
0.0
 11
0.0
 21
-200.7681711286489
 31
0.0
  0
LINE
  5
A5E35
330
1E
100
AcDbEntity
  8
BASIS
  6
CENTERX2
100
AcDbLine
 10
523.3207918094704
 20
0.0000000000000568
 30
0.0
 11
-447.0457389333364
 21
0.0000000000000568
 31
0.0
  0
LINE
  5
A5E5A
330
1E
100
AcDbEntity
  8
DETAIL
100
AcDbLine
 10
-432.895444126395
 20
126.5149337007775
 30
0.0
 11
-432.8954440256602
 21
45.38597637453213
 31
0.0
  0
ARC
  5
A5E5B
330
1E
100
AcDbEntity
  8
DETAIL
100
AcDbCircle
 10
-429.8954441263949
 20
126.5149337045025
 30
0.0
 40
3.0
100
AcDbArc
 50
105.0001221530121
 51
180.0000000711434
  0
LINE
  5
A5E5C
330
1E
100
AcDbEntity
  8
DETAIL
100
AcDbLine
 10
-424.0000000000271
 20
39.85206852460004
 30
0.0
 11
-424.0000000000271
 21
132.2004747526001
 31
0.0
  0
LINE
  5
A5E5D
330
1E
100
AcDbEntity
  8
DETAIL
100
AcDbLine
 10
-423.0000000000273
 20
33.09751325900009
 30
0.0
 11
-423.0000000000273
 21
138.8034007092999
 31
0.0
  0
LINE
  5
A5E5E
330
1E
100
AcDbEntity
  8
DETAIL
100
AcDbLine
 10
-420.0000000000271
 20
149.0999999999996
 30
0.0
 11
-420.0000000000271
 21
-119.1905989232997
 31
0.0
  0
LINE
  5
A5E5F
330
1E
100
AcDbEntity
  8
DETAIL
100
AcDbLine
 10
-420.0000000000271
 20
-142.9999999999999
 30
0.0
 11
-420.0000000000271
 21
-134.2863070659997
 31
0.0
  0
LINE
  5
A5E60
330
1E
100
AcDbEntity
  8
DETAIL
100
AcDbLine
 10
-418.3000000000275
 20
-144.8000000000001
 30
0.0
 11
-418.3000000000275
 21
152.7999999999997
 31
0.0
  0
LINE
  5
A5E61
330
1E
100
AcDbEntity
  8
DETAIL
100
AcDbLine
 10
-407.0000000001273
 20
165.0
 30
0.0
 11
-407.0000000001273
 21
163.3
 31
0.0
  0
LINE
  5
A5E62
330
1E
100
AcDbEntity
  8
DETAIL
100
AcDbLine
 10
-403.2432647714276
 20
163.2999999998999
 30
0.0
 11
-403.2433702965271
 21
163.2913207274999
 31
0.0
  0
LINE
  5
A5E63
330
1E
100
AcDbEntity
  8
DETAIL
100
AcDbLine
 10
-384.8892624825276
 20
171.7814167994998
 30
0.0
 11
-386.0850092316478
 21
165.0
 31
0.0
  0
LINE
  5
A5E64
330
1E
100
AcDbEntity
  8
DETAIL
100
AcDbLine
 10
-381.8981090305279
 20
171.2604722664999
 30
0.0
 11
-383.001999203047
 21
165.0
 31
0.0
  0
LINE
  5
A5E66
330
1E
100
AcDbEntity
  8
DETAIL
100
AcDbLine
 10
-380.457627593928
 20
175.4987173533998
 30
0.0
 11
-380.457627593928
 21
175.5
 31
0.0
  0
LINE
  5
A5E68
330
1E
100
AcDbEntity
  8
DETAIL
100
AcDbLine
 10
-422.6485281374278
 20
139.6519288467
 30
0.0
 11
-420.1757359313273
 21
142.1247210528
 31
0.0
  0
LINE
  5
A5E69
330
1E
100
AcDbEntity
  8
DETAIL
100
AcDbLine
 10
-386.4600000000278
 20
-166.5
 30
0.0
 11
-387.9600000000278
 21
-165.0
 31
0.0
  0
LINE
  5
A5E6A
330
1E
100
AcDbEntity
  8
DETAIL
100
AcDbLine
 10
-364.5741266222281
 20
-178.5
 30
0.0
 11
-364.5741266222281
 21
-165.0
 31
0.0
  0
LINE
  5
A5E6B
330
1E
100
AcDbEntity
  8
DETAIL
100
AcDbLine
 10
-360.3741266222278
 20
-178.6000000000001
 30
0.0
 11
-360.3741266222278
 21
-165.0
 31
0.0
  0
LINE
  5
A5E6E
330
1E
100
AcDbEntity
  8
DETAIL
100
AcDbLine
 10
-318.4079124808277
 20
177.0
 30
0.0
 11
-318.4079124808277
 21
165.0
 31
0.0
  0
LINE
  5
A5E6F
330
1E
100
AcDbEntity
  8
DETAIL
100
AcDbLine
 10
-315.4079124808277
 20
177.0
 30
0.0
 11
-315.4079124808277
 21
165.0
 31
0.0
  0
LINE
  5
A5E70
330
1E
100
AcDbEntity
  8
DETAIL
100
AcDbLine
 10
-290.6115223479278
 20
-176.3999999999999
 30
0.0
 11
-290.6115223479278
 21
-172.0999999999998
 31
0.0
  0
LINE
  5
A5E71
330
1E
100
AcDbEntity
  8
DETAIL
100
AcDbLine
 10
-290.6115223479278
 20
-167.8999999999999
 30
0.0
 11
-290.6115223479278
 21
-166.5
 31
0.0
  0
LINE
  5
A5E72
330
1E
100
AcDbEntity
  8
DETAIL
100
AcDbLine
 10
-419.4000000000277
 20
-120.2298294078
 30
0.0
 11
-418.3000000000275
 21
-120.8649147038999
 31
0.0
  0
LINE
  5
A5E77
330
1E
100
AcDbEntity
  8
DETAIL
100
AcDbLine
 10
-265.0000000000277
 20
184.6998046870001
 30
0.0
 11
-265.0000000000277
 21
-186.3844665605
 31
0.0
  0
LINE
  5
A5E78
330
1E
100
AcDbEntity
  8
DETAIL
100
AcDbLine
 10
-250.0000000000277
 20
184.6998046870001
 30
0.0
 11
-250.0000000000277
 21
174.1998046870001
 31
0.0
  0
LINE
  5
A5E7D
330
1E
100
AcDbEntity
  8
DETAIL
100
AcDbLine
 10
-240.0000000000277
 20
174.1998046870001
 30
0.0
 11
-240.0000000000277
 21
184.6998046870001
 31
0.0
  0
LINE
  5
A5E7E
330
1E
100
AcDbEntity
  8
DETAIL
100
AcDbLine
 10
-420.1757359313273
 20
29.77619291540015
 30
0.0
 11
-422.6485281374278
 21
32.24898512150009
 31
0.0
  0
LINE
  5
A5E7F
330
1E
100
AcDbEntity
  8
DETAIL
100
AcDbLine
 10
-187.9500000003277
 20
-187.0
 30
0.0
 11
-189.9500000003277
 21
-184.9999999999998
 31
0.0
  0
LINE
  5
A5E82
330
1E
100
AcDbEntity
  8
DETAIL
100
AcDbLine
 10
-225.0000000000277
 20
-186.3844665605
 30
0.0
 11
-225.0000000000277
 21
184.6998046870001
 31
0.0
  0
LINE
  5
A5E85
330
1E
100
AcDbEntity
  8
DETAIL
100
AcDbLine
 10
-133.9144660941278
 20
164.3355339059001
 30
0.0
 11
-134.3642135624277
 21
163.8857864375998
 31
0.0
  0
LINE
  5
A5E86
330
1E
100
AcDbEntity
  8
DETAIL
100
AcDbLine
 10
-189.9500000003277
 20
-183.6000000000001
 30
0.0
 11
-189.9500000003277
 21
-184.9999999999998
 31
0.0
  0
LINE
  5
A5E87
330
1E
100
AcDbEntity
  8
DETAIL
100
AcDbLine
 10
-135.4079124808277
 20
177.0
 30
0.0
 11
-135.4079124808277
 21
165.0
 31
0.0
  0
LINE
  5
A5E88
330
1E
100
AcDbEntity
  8
DETAIL
100
AcDbLine
 10
-132.4079124808277
 20
177.0
 30
0.0
 11
-132.4079124808277
 21
165.3690469212
 31
0.0
  0
LINE
  5
A5E89
330
1E
100
AcDbEntity
  8
DETAIL
100
AcDbLine
 10
-187.9475207451278
 20
-187.0
 30
0.0
 11
-31.95014537442785
 21
-187.0
 31
0.0
  0
LINE
  5
A5E8A
330
1E
100
AcDbEntity
  8
DETAIL
100
AcDbLine
 10
-189.9500000003277
 20
-184.9999999999998
 30
0.0
 11
-29.95000000032769
 21
-184.9999999999998
 31
0.0
  0
LINE
  5
A5E8B
330
1E
100
AcDbEntity
  8
DETAIL
100
AcDbLine
 10
139.5741266215718
 20
-183.6000000000001
 30
0.0
 11
-225.0000000000277
 21
-183.6000000000001
 31
0.0
  0
LINE
  5
A5E8C
330
1E
100
AcDbEntity
  8
DETAIL
100
AcDbLine
 10
-358.3741266222278
 20
-180.6000000000001
 30
0.0
 11
-265.0000000000277
 21
-180.6
 31
0.0
  0
ARC
  5
A5E8D
330
1E
100
AcDbEntity
  8
DETAIL
100
AcDbCircle
 10
-358.3741266222278
 20
-178.6000000000001
 30
0.0
 40
2.0
100
AcDbArc
 50
180.0
 51
270.0
  0
LINE
  5
A5E8E
330
1E
100
AcDbEntity
  8
DETAIL
100
AcDbLine
 10
-107.8500000003278
 20
-180.6000000000001
 30
0.0
 11
138.4741266215719
 21
-180.6000000000001
 31
0.0
  0
ARC
  5
A5E8F
330
1E
100
AcDbEntity
  8
DETAIL
100
AcDbCircle
 10
138.4741266215719
 20
-178.6000000000001
 30
0.0
 40
2.0
100
AcDbArc
 50
270.0
 51
0.0
  0
LINE
  5
A5E90
330
1E
100
AcDbEntity
  8
DETAIL
100
AcDbLine
 10
-360.3741266222278
 20
-176.3999999999999
 30
0.0
 11
-265.0000000000277
 21
-176.3999999999999
 31
0.0
  0
LINE
  5
A5E91
330
1E
100
AcDbEntity
  8
DETAIL
100
AcDbLine
 10
-107.8500000003278
 20
-176.3999999999999
 30
0.0
 11
140.4741266215719
 21
-176.3999999999999
 31
0.0
  0
LINE
  5
A5E92
330
1E
100
AcDbEntity
  8
DETAIL
100
AcDbLine
 10
140.4741266215719
 20
-172.0999999999999
 30
0.0
 11
-107.8500000003278
 21
-172.0999999999999
 31
0.0
  0
LINE
  5
A5E93
330
1E
100
AcDbEntity
  8
DETAIL
100
AcDbLine
 10
-112.0500000003276
 20
-172.0999999999999
 30
0.0
 11
-225.0000000000277
 21
-172.1
 31
0.0
  0
LINE
  5
A5E94
330
1E
100
AcDbEntity
  8
DETAIL
100
AcDbLine
 10
140.4741266215719
 20
-167.8999999999999
 30
0.0
 11
-107.8500000003278
 21
-167.8999999999999
 31
0.0
  0
LINE
  5
A5E95
330
1E
100
AcDbEntity
  8
DETAIL
100
AcDbLine
 10
-112.0500000003276
 20
-167.8999999999999
 30
0.0
 11
-225.0000000000277
 21
-167.8999999999999
 31
0.0
  0
LINE
  5
A5E96
330
1E
100
AcDbEntity
  8
DETAIL
100
AcDbLine
 10
-112.0500000003276
 20
-181.5
 30
0.0
 11
-112.0500000003276
 21
-165.0
 31
0.0
  0
LINE
  5
A5E97
330
1E
100
AcDbEntity
  8
DETAIL
100
AcDbLine
 10
-107.8500000003278
 20
-181.5
 30
0.0
 11
-107.8500000003278
 21
-165.0
 31
0.0
  0
LINE
  5
A5E98
330
1E
100
AcDbEntity
  8
DETAIL
100
AcDbLine
 10
384.8999765594722
 20
-166.5
 30
0.0
 11
274.9999999999722
 21
-166.5
 31
0.0
  0
LINE
  5
A5E99
330
1E
100
AcDbEntity
  8
DETAIL
100
AcDbLine
 10
140.4741266215719
 20
-166.5
 30
0.0
 11
-107.8500000003278
 21
-166.5
 31
0.0
  0
LINE
  5
A5E9A
330
1E
100
AcDbEntity
  8
DETAIL
100
AcDbLine
 10
-112.0500000003276
 20
-166.5
 30
0.0
 11
-225.0000000000277
 21
-166.5
 31
0.0
  0
LINE
  5
A5E9B
330
1E
100
AcDbEntity
  8
DETAIL
100
AcDbLine
 10
-364.5741266222281
 20
-166.5
 30
0.0
 11
-386.4599765595276
 21
-166.5
 31
0.0
  0
LINE
  5
A5E9C
330
1E
100
AcDbEntity
  8
DETAIL
100
AcDbLine
 10
397.8000000000275
 20
-165.0
 30
0.0
 11
274.9999999999722
 21
-165.0
 31
0.0
  0
LINE
  5
A5E9D
330
1E
100
AcDbEntity
  8
DETAIL
100
AcDbLine
 10
-399.8000000000275
 20
-163.3
 30
0.0
 11
-265.0000000000277
 21
-163.3
 31
0.0
  0
LINE
  5
A5E9E
330
1E
100
AcDbEntity
  8
DETAIL
100
AcDbLine
 10
-419.4000000000277
 20
-133.2470765814999
 30
0.0
 11
-418.3000000000275
 21
-132.6350852961001
 31
0.0
  0
LINE
  5
A5E9F
330
1E
100
AcDbEntity
  8
DETAIL
100
AcDbLine
 10
422.0000000000263
 20
-91.43015846000022
 30
0.0
 11
422.7174497488268
 21
-91.40510456270005
 31
0.0
  0
LINE
  5
A5EA2
330
1E
100
AcDbEntity
  8
DETAIL
100
AcDbLine
 10
-29.95000000032769
 20
-183.6000000000001
 30
0.0
 11
-29.95000000032769
 21
-184.9999999999998
 31
0.0
  0
LINE
  5
A5EA3
330
1E
100
AcDbEntity
  8
DETAIL
100
AcDbLine
 10
422.0000000005262
 20
-85.00000000029997
 30
0.0
 11
467.367253887427
 21
-84.2081116381002
 31
0.0
  0
LINE
  5
A5EA4
330
1E
100
AcDbEntity
  8
DETAIL
100
AcDbLine
 10
-423.6294108525274
 20
39.36910711360003
 30
0.0
 11
-423.0000000000273
 21
39.20045698400014
 31
0.0
  0
LINE
  5
A5EA5
330
1E
100
AcDbEntity
  8
DETAIL
100
AcDbLine
 10
-430.6719057754681
 20
42.48820013584547
 30
0.0
 11
-424.0000000000271
 21
40.70045698400014
 31
0.0
  0
ARC
  5
A5EA6
330
1E
100
AcDbEntity
  8
DETAIL
100
AcDbCircle
 10
-429.8954440256602
 20
45.38597637825711
 30
0.0
 40
3.0
100
AcDbArc
 50
180.0000000711434
 51
254.9999087606285
  0
LINE
  5
A5EA8
330
1E
100
AcDbEntity
  8
DETAIL
100
AcDbLine
 10
47.59208751917229
 20
177.0
 30
0.0
 11
47.59208751917229
 21
165.0
 31
0.0
  0
LINE
  5
A5EA9
330
1E
100
AcDbEntity
  8
DETAIL
100
AcDbLine
 10
50.59208751917232
 20
177.0
 30
0.0
 11
50.59208751917232
 21
165.0
 31
0.0
  0
LINE
  5
A5EAA
330
1E
100
AcDbEntity
  8
DETAIL
100
AcDbLine
 10
70.7039891364725
 20
-176.3999999999999
 30
0.0
 11
70.7039891364725
 21
-172.0999999999999
 31
0.0
  0
LINE
  5
A5EAB
330
1E
100
AcDbEntity
  8
DETAIL
100
AcDbLine
 10
70.7039891364725
 20
-167.8999999999999
 30
0.0
 11
70.7039891364725
 21
-166.5
 31
0.0
  0
LINE
  5
A5EAC
330
1E
100
AcDbEntity
  8
DETAIL
100
AcDbLine
 10
234.9999999999722
 20
164.0999999999999
 30
0.0
 11
234.7857864375724
 21
163.8857864375998
 31
0.0
  0
LINE
  5
A5EAD
330
1E
100
AcDbEntity
  8
DETAIL
100
AcDbLine
 10
422.0000000000263
 20
27.96508987015846
 30
0.0
 11
490.4775215518275
 21
26.76981028520009
 31
0.0
  0
LINE
  5
A5EAE
330
1E
100
AcDbEntity
  8
DETAIL
100
AcDbLine
 10
-85.53578643762783
 20
163.8857864375998
 30
0.0
 11
-85.98553390592769
 21
164.3355339059001
 31
0.0
  0
LINE
  5
A5EB1
330
1E
100
AcDbEntity
  8
DETAIL
100
AcDbLine
 10
467.3945276393268
 20
29.20759836070016
 30
0.0
 11
422.0000000005262
 21
29.99999999970004
 31
0.0
  0
LINE
  5
A5EB2
330
1E
100
AcDbEntity
  8
DETAIL
100
AcDbLine
 10
422.0000000000263
 20
22.9999999997771
 30
0.0
 11
496.1744974835323
 21
20.40976947108601
 31
0.0
  0
LINE
  5
A5EB3
330
1E
100
AcDbEntity
  8
DETAIL
100
AcDbLine
 10
422.0000000000263
 20
36.43015845940005
 30
0.0
 11
463.5174490261264
 21
34.98033719210007
 31
0.0
  0
LINE
  5
A5EB4
330
1E
100
AcDbEntity
  8
DETAIL
100
AcDbLine
 10
418.7055156455277
 20
-146.4692098631998
 30
0.0
 11
418.2466264034301
 21
-146.2042700357449
 31
0.0
  0
LINE
  5
A5EB5
330
1E
100
AcDbEntity
  8
DETAIL
100
AcDbLine
 10
-31.95000000032769
 20
-187.0
 30
0.0
 11
-29.95000000032769
 21
-184.9999999999998
 31
0.0
  0
LINE
  5
A5EB6
330
1E
100
AcDbEntity
  8
DETAIL
100
AcDbLine
 10
332.5656609248722
 20
168.5355339058999
 30
0.0
 11
330.4945931129723
 21
166.4644660940999
 31
0.0
  0
LINE
  5
A5EB7
330
1E
100
AcDbEntity
  8
DETAIL
100
AcDbLine
 10
140.4741266215719
 20
-178.6000000000001
 30
0.0
 11
140.4741266215719
 21
-165.0
 31
0.0
  0
LINE
  5
A5EB8
330
1E
100
AcDbEntity
  8
DETAIL
100
AcDbLine
 10
144.6741266215722
 20
-178.5
 30
0.0
 11
144.6741266215722
 21
-165.0
 31
0.0
  0
LINE
  5
A5EBC
330
1E
100
AcDbEntity
  8
DETAIL
100
AcDbLine
 10
-423.4999999525276
 20
132.7004569839999
 30
0.0
 11
-423.0000000000273
 21
132.7004569839999
 31
0.0
  0
LINE
  5
A5EBD
330
1E
100
AcDbEntity
  8
DETAIL
100
AcDbLine
 10
318.048631561272
 20
163.3
 30
0.0
 11
318.3084391823722
 21
163.75
 31
0.0
  0
LINE
  5
A5EBE
330
1E
100
AcDbEntity
  8
DETAIL
100
AcDbLine
 10
-418.3000000000275
 20
150.3
 30
0.0
 11
-418.8000000000275
 21
150.3
 31
0.0
  0
LINE
  5
A5EBF
330
1E
100
AcDbEntity
  8
DETAIL
100
AcDbLine
 10
233.3715728752721
 20
163.3
 30
0.0
 11
-84.12157287522768
 21
163.3
 31
0.0
  0
LINE
  5
A5EC0
330
1E
100
AcDbEntity
  8
DETAIL
100
AcDbLine
 10
-135.7784271247278
 20
163.3
 30
0.0
 11
-225.0000000000277
 21
163.3
 31
0.0
  0
LINE
  5
A5EC1
330
1E
100
AcDbEntity
  8
DETAIL
100
AcDbLine
 10
300.0284271246723
 20
163.3
 30
0.0
 11
407.800000000027
 21
163.3
 31
0.0
  0
LINE
  5
A5EC2
330
1E
100
AcDbEntity
  8
DETAIL
100
AcDbLine
 10
-407.0000000001273
 20
165.0
 30
0.0
 11
-265.0000000000277
 21
165.0
 31
0.0
  0
LINE
  5
A5EC3
330
1E
100
AcDbEntity
  8
DETAIL
100
AcDbLine
 10
-86.80813581867822
 20
165.0
 30
0.0
 11
234.9999999999722
 21
165.0
 31
0.0
  0
LINE
  5
A5EC4
330
1E
100
AcDbEntity
  8
DETAIL
100
AcDbLine
 10
297.3418641813219
 20
165.0
 30
0.0
 11
313.9999999999723
 21
165.0
 31
0.0
  0
LINE
  5
A5EC5
330
1E
100
AcDbEntity
  8
DETAIL
100
AcDbLine
 10
407.9000000000274
 20
165.0
 30
0.0
 11
320.473502691872
 21
165.0
 31
0.0
  0
LINE
  5
A5EC6
330
1E
100
AcDbEntity
  8
DETAIL
100
AcDbLine
 10
294.6289321880722
 20
165.7999999999998
 30
0.0
 11
274.9999999999722
 21
165.7999999999998
 31
0.0
  0
LINE
  5
A5EC7
330
1E
100
AcDbEntity
  8
DETAIL
100
AcDbLine
 10
-89.52106781192787
 20
165.7999999999998
 30
0.0
 11
-130.3789321881277
 21
165.7999999999998
 31
0.0
  0
LINE
  5
A5EC8
330
1E
100
AcDbEntity
  8
DETAIL
100
AcDbLine
 10
336.1011948307723
 20
170.0
 30
0.0
 11
386.9590592070722
 21
170.0
 31
0.0
  0
LINE
  5
A5EC9
330
1E
100
AcDbEntity
  8
DETAIL
100
AcDbLine
 10
418.3000000000275
 20
147.9433111695999
 30
0.0
 11
418.2913207176275
 21
147.9434150646
 31
0.0
  0
LINE
  5
A5ECA
330
1E
100
AcDbEntity
  8
DETAIL
100
AcDbLine
 10
230.5920875191723
 20
177.0
 30
0.0
 11
230.5920875191723
 21
165.0
 31
0.0
  0
LINE
  5
A5ECB
330
1E
100
AcDbEntity
  8
DETAIL
100
AcDbLine
 10
233.5920875191718
 20
177.0
 30
0.0
 11
233.5920875191718
 21
165.0
 31
0.0
  0
LINE
  5
A5ECE
330
1E
100
AcDbEntity
  8
DETAIL
100
AcDbLine
 10
234.9999999999722
 20
184.6998046870001
 30
0.0
 11
234.9999999999722
 21
-186.3844665605
 31
0.0
  0
LINE
  5
A5ECF
330
1E
100
AcDbEntity
  8
DETAIL
100
AcDbLine
 10
307.8554290938719
 20
172.5
 30
0.0
 11
274.9999999999722
 21
172.5000000000001
 31
0.0
  0
LINE
  5
A5ED0
330
1E
100
AcDbEntity
  8
DETAIL
100
AcDbLine
 10
230.5920875191723
 20
172.5
 30
0.0
 11
50.59208751917232
 21
172.5
 31
0.0
  0
LINE
  5
A5ED1
330
1E
100
AcDbEntity
  8
DETAIL
100
AcDbLine
 10
47.59208751917229
 20
172.5
 30
0.0
 11
-132.4079124808277
 21
172.5
 31
0.0
  0
LINE
  5
A5ED2
330
1E
100
AcDbEntity
  8
DETAIL
100
AcDbLine
 10
-135.4079124808277
 20
172.5
 30
0.0
 11
-225.0000000000277
 21
172.5
 31
0.0
  0
LINE
  5
A5ED3
330
1E
100
AcDbEntity
  8
DETAIL
100
AcDbLine
 10
-318.4079124808277
 20
172.5
 30
0.0
 11
-380.4208974010279
 21
172.5
 31
0.0
  0
LINE
  5
A5ED4
330
1E
100
AcDbEntity
  8
DETAIL
100
AcDbLine
 10
307.8554290938719
 20
175.5
 30
0.0
 11
274.9999999999723
 21
175.5
 31
0.0
  0
LINE
  5
A5ED5
330
1E
100
AcDbEntity
  8
DETAIL
100
AcDbLine
 10
230.5920875191723
 20
175.5
 30
0.0
 11
50.59208751917232
 21
175.5
 31
0.0
  0
LINE
  5
A5ED6
330
1E
100
AcDbEntity
  8
DETAIL
100
AcDbLine
 10
47.59208751917229
 20
175.5
 30
0.0
 11
-132.4079124808277
 21
175.5
 31
0.0
  0
LINE
  5
A5ED7
330
1E
100
AcDbEntity
  8
DETAIL
100
AcDbLine
 10
-135.4079124808277
 20
175.5
 30
0.0
 11
-225.0000000000277
 21
175.5
 31
0.0
  0
LINE
  5
A5ED8
330
1E
100
AcDbEntity
  8
DETAIL
100
AcDbLine
 10
-318.4079124808277
 20
175.5
 30
0.0
 11
-380.457627593928
 21
175.5
 31
0.0
  0
LINE
  5
A5ED9
330
1E
100
AcDbEntity
  8
DETAIL
100
AcDbLine
 10
249.9999999999722
 20
184.6998046870001
 30
0.0
 11
249.9999999999722
 21
174.1998046870001
 31
0.0
  0
LINE
  5
A5EDA
330
1E
100
AcDbEntity
  8
DETAIL
100
AcDbLine
 10
249.9999999999722
 20
-175.1001953130001
 30
0.0
 11
249.9999999999722
 21
-186.100195313
 31
0.0
  0
LINE
  5
A5EDB
330
1E
100
AcDbEntity
  8
DETAIL
100
AcDbLine
 10
259.9999999999722
 20
-186.100195313
 30
0.0
 11
259.9999999999722
 21
-175.1001953130001
 31
0.0
  0
LINE
  5
A5EDC
330
1E
100
AcDbEntity
  8
DETAIL
100
AcDbLine
 10
259.9999999999722
 20
174.1998046870001
 30
0.0
 11
259.9999999999722
 21
184.6998046870001
 31
0.0
  0
LINE
  5
A5EDE
330
1E
100
AcDbEntity
  8
DETAIL
100
AcDbLine
 10
274.9999999999722
 20
-186.3844665605
 30
0.0
 11
274.9999999999722
 21
184.6998046870001
 31
0.0
  0
LINE
  5
A5EDF
330
1E
100
AcDbEntity
  8
DETAIL
100
AcDbLine
 10
-430.6719074396823
 20
129.412709527978
 30
0.0
 11
-424.0000000000271
 21
131.2004569840001
 31
0.0
  0
LINE
  5
A5EE0
330
1E
100
AcDbEntity
  8
DETAIL
100
AcDbLine
 10
458.6895646935261
 20
26.85035759130011
 30
0.0
 11
458.6849913792271
 21
26.85351537130003
 31
0.0
  0
LINE
  5
A5EE1
330
1E
100
AcDbEntity
  8
DETAIL
100
AcDbLine
 10
313.9999999999723
 20
165.0
 30
0.0
 11
313.9999999999723
 21
163.3
 31
0.0
  0
LINE
  5
A5EE2
330
1E
100
AcDbEntity
  8
DETAIL
100
AcDbLine
 10
458.6890787891266
 20
-81.85069354479987
 30
0.0
 11
458.6859826584268
 21
-81.85283171059991
 31
0.0
  0
LINE
  5
A5EE3
330
1E
100
AcDbEntity
  8
DETAIL
100
AcDbLine
 10
458.6843323395274
 20
-81.85396965209992
 30
0.0
 11
458.6847711739274
 21
-81.85366718250014
 31
0.0
  0
LINE
  5
A5EE4
330
1E
100
AcDbEntity
  8
DETAIL
100
AcDbLine
 10
418.3000000000275
 20
-134.7649147039001
 30
0.0
 11
419.4000000000273
 21
-134.1298294078
 31
0.0
  0
LINE
  5
A5EE5
330
1E
100
AcDbEntity
  8
DETAIL
100
AcDbLine
 10
298.6142135623722
 20
163.8857864375998
 30
0.0
 11
298.1644660940724
 21
164.3355339059001
 31
0.0
  0
LINE
  5
A5EE6
330
1E
100
AcDbEntity
  8
DETAIL
100
AcDbLine
 10
313.4828107315925
 20
165.0
 30
0.0
 11
312.2870639824719
 21
171.7814167994998
 31
0.0
  0
LINE
  5
A5EE7
330
1E
100
AcDbEntity
  8
DETAIL
100
AcDbLine
 10
310.43653089594
 20
165.0
 30
0.0
 11
309.3326407234308
 21
171.2604722665247
 31
0.0
  0
LINE
  5
A5EEC
330
1E
100
AcDbEntity
  8
DETAIL
100
AcDbLine
 10
384.8999999999719
 20
-166.5
 30
0.0
 11
386.3999999999724
 21
-165.0
 31
0.0
  0
LINE
  5
A5EED
330
1E
100
AcDbEntity
  8
DETAIL
100
AcDbLine
 10
392.5656609248727
 20
166.4644660940999
 30
0.0
 11
390.4945931129723
 21
168.5355339058999
 31
0.0
  0
LINE
  5
A5EEE
330
1E
100
AcDbEntity
  8
DETAIL
100
AcDbLine
 10
418.3000000000275
 20
-144.8000000000001
 30
0.0
 11
418.3000000000275
 21
152.7999999999997
 31
0.0
  0
LINE
  5
A5EEF
330
1E
100
AcDbEntity
  8
DETAIL
100
AcDbLine
 10
420.0000000000263
 20
-133.0905989232999
 30
0.0
 11
420.0000000000267
 21
152.9000000000001
 31
0.0
  0
LINE
  5
A5EF0
330
1E
100
AcDbEntity
  8
DETAIL
100
AcDbLine
 10
422.0000000000263
 20
-94.50000000000006
 30
0.0
 11
422.0000000000263
 21
39.50000000000006
 31
0.0
  0
LINE
  5
A5EF1
330
1E
100
AcDbEntity
  8
DETAIL
100
AcDbLine
 10
423.2000000005266
 20
-84.97905392239983
 30
0.0
 11
423.2000000005266
 21
-90.90540914919987
 31
0.0
  0
LINE
  5
A5EF2
330
1E
100
AcDbEntity
  8
DETAIL
100
AcDbLine
 10
464.0000000004262
 20
29.2668872727001
 30
0.0
 11
464.0000000004262
 21
34.48064178890007
 31
0.0
  0
LINE
  5
A5EFB
330
1E
100
AcDbEntity
  8
DETAIL
100
AcDbLine
 10
501.0000000000263
 20
15.41281533599039
 30
0.0
 11
501.0000000000263
 21
-25.46566439910004
 31
0.0
  0
ARC
  5
A5EFC
330
1E
100
AcDbEntity
  8
DETAIL
100
AcDbCircle
 10
496.0000000000261
 20
15.41281533599039
 30
0.0
 40
5.0
100
AcDbArc
 50
0.0
 51
88.0000000000745
  0
LINE
  5
A5EFD
330
1E
100
AcDbEntity
  8
DETAIL
100
AcDbLine
 10
490.9687144634272
 20
26.26089317880013
 30
0.0
 11
490.8703273716269
 21
20.79173136130004
 31
0.0
  0
ARC
  5
A5EFE
330
1E
100
AcDbEntity
  8
DETAIL
100
AcDbCircle
 10
-359.4741266222277
 20
-178.5
 30
0.0
 40
5.099999999999996
100
AcDbArc
 50
180.0
 51
270.0
  0
ARC
  5
A5EFF
330
1E
100
AcDbEntity
  8
DETAIL
100
AcDbCircle
 10
-397.9658533247875
 20
-142.9658276035319
 30
0.0
 40
22.03417317392876
100
AcDbArc
 50
180.0888590128993
 51
270.0152204852935
  0
ARC
  5
A5F00
330
1E
100
AcDbEntity
  8
DETAIL
100
AcDbCircle
 10
-399.8000000000275
 20
-144.8000000000001
 30
0.0
 40
18.5
100
AcDbArc
 50
180.0
 51
270.0
  0
ARC
  5
A5F03
330
1E
100
AcDbEntity
  8
DETAIL
100
AcDbCircle
 10
-418.8000000000275
 20
-134.2863070659997
 30
0.0
 40
1.199999999999999
100
AcDbArc
 50
119.9999999999989
 51
180.0
  0
ARC
  5
A5F04
330
1E
100
AcDbEntity
  8
DETAIL
100
AcDbCircle
 10
-418.8000000000275
 20
-119.1905989233
 30
0.0
 40
1.199999999999999
100
AcDbArc
 50
180.0
 51
240.0000000000011
  0
ARC
  5
A5F05
330
1E
100
AcDbEntity
  8
DETAIL
100
AcDbCircle
 10
-245.0000000000277
 20
-158.100195313
 30
0.0
 40
40.0
100
AcDbArc
 50
250.5287793654998
 51
289.4712206345002
  0
ARC
  5
A5F06
330
1E
100
AcDbEntity
  8
DETAIL
100
AcDbCircle
 10
-235.0000000000278
 20
-186.3844665605
 30
0.0
 40
10.0
100
AcDbArc
 50
289.4712206345002
 51
0.0
  0
ARC
  5
A5F07
330
1E
100
AcDbEntity
  8
DETAIL
100
AcDbCircle
 10
-255.0000000000277
 20
-186.3844665605
 30
0.0
 40
10.0
100
AcDbArc
 50
180.0
 51
250.5287793654998
  0
ARC
  5
A5F0C
330
1E
100
AcDbEntity
  8
DETAIL
100
AcDbCircle
 10
-109.9500000003277
 20
-181.5
 30
0.0
 40
2.1
100
AcDbArc
 50
180.0
 51
0.0
  0
ARC
  5
A5F0F
330
1E
100
AcDbEntity
  8
DETAIL
100
AcDbCircle
 10
-421.8000000000274
 20
33.09751325900009
 30
0.0
 40
1.199999999999999
100
AcDbArc
 50
180.0
 51
225.0000000000184
  0
ARC
  5
A5F10
330
1E
100
AcDbEntity
  8
DETAIL
100
AcDbCircle
 10
-420.6000000000273
 20
29.35192884669988
 30
0.0
 40
0.6
100
AcDbArc
 50
0.0
 51
45.00000000001842
  0
ARC
  5
A5F11
330
1E
100
AcDbEntity
  8
DETAIL
100
AcDbCircle
 10
-423.5000024874278
 20
39.85206776180013
 30
0.0
 40
0.4999975126
100
AcDbArc
 50
180.0001007332007
 51
255.000100778612
  0
ARC
  5
A5F15
330
1E
100
AcDbEntity
  8
DETAIL
100
AcDbCircle
 10
-423.5000118033276
 20
132.2004687873
 30
0.0
 40
0.4999881968000003
100
AcDbArc
 50
89.99865945609498
 51
179.9986588651001
  0
ARC
  5
A5F16
330
1E
100
AcDbEntity
  8
DETAIL
100
AcDbCircle
 10
-407.8000000000272
 20
152.7999999999997
 30
0.0
 40
10.5
100
AcDbArc
 50
90.0
 51
180.0
  0
ARC
  5
A5F17
330
1E
100
AcDbEntity
  8
DETAIL
100
AcDbCircle
 10
-380.457627593928
 20
171.0
 30
0.0
 40
4.5
100
AcDbArc
 50
90.0
 51
170.0000000000089
  0
ARC
  5
A5F18
330
1E
100
AcDbEntity
  8
DETAIL
100
AcDbCircle
 10
-380.4208974010279
 20
171.0
 30
0.0
 40
1.5
100
AcDbArc
 50
90.0
 51
170.0000000000089
  0
ARC
  5
A5F19
330
1E
100
AcDbEntity
  8
DETAIL
100
AcDbCircle
 10
-418.8000000000275
 20
149.0999999999996
 30
0.0
 40
1.199999999999999
100
AcDbArc
 50
90.0
 51
180.0
  0
ARC
  5
A5F1A
330
1E
100
AcDbEntity
  8
DETAIL
100
AcDbCircle
 10
-421.8000000000274
 20
138.8034007092999
 30
0.0
 40
1.199999999999999
100
AcDbArc
 50
134.9999999999816
 51
180.0
  0
ARC
  5
A5F1B
330
1E
100
AcDbEntity
  8
DETAIL
100
AcDbCircle
 10
-420.6000000000273
 20
142.5489851215
 30
0.0
 40
0.6
100
AcDbArc
 50
314.9999999999816
 51
0.0
  0
ARC
  5
A5F1C
330
1E
100
AcDbEntity
  8
DETAIL
100
AcDbCircle
 10
-257.5000000000277
 20
184.6998046870001
 30
0.0
 40
7.5
100
AcDbArc
 50
0.0
 51
180.0
  0
ARC
  5
A5F1D
330
1E
100
AcDbEntity
  8
DETAIL
100
AcDbCircle
 10
-232.5000000000277
 20
184.6998046870001
 30
0.0
 40
7.5
100
AcDbArc
 50
0.0
 51
180.0
  0
ARC
  5
A5F1E
330
1E
100
AcDbEntity
  8
DETAIL
100
AcDbCircle
 10
-245.0000000000277
 20
174.1998046870001
 30
0.0
 40
5.0
100
AcDbArc
 50
180.0
 51
0.0
  0
CIRCLE
  5
A5F1F
330
1E
100
AcDbEntity
  8
DETAIL
100
AcDbCircle
 10
-257.5000000000277
 20
184.6998046870001
 30
0.0
 40
2.25
  0
CIRCLE
  5
A5F20
330
1E
100
AcDbEntity
  8
DETAIL
100
AcDbCircle
 10
-232.5000000000277
 20
184.6998046870001
 30
0.0
 40
2.25
  0
ARC
  5
A5F21
330
1E
100
AcDbEntity
  8
DETAIL
100
AcDbCircle
 10
-316.9079124808277
 20
177.0
 30
0.0
 40
1.5
100
AcDbArc
 50
0.0
 51
180.0
  0
ARC
  5
A5F22
330
1E
100
AcDbEntity
  8
DETAIL
100
AcDbCircle
 10
-89.52106781192787
 20
160.7999999999998
 30
0.0
 40
5.0
100
AcDbArc
 50
45.00000000001842
 51
90.0
  0
ARC
  5
A5F23
330
1E
100
AcDbEntity
  8
DETAIL
100
AcDbCircle
 10
-130.3789321881277
 20
160.7999999999998
 30
0.0
 40
5.0
100
AcDbArc
 50
90.0
 51
134.9999999999816
  0
ARC
  5
A5F24
330
1E
100
AcDbEntity
  8
DETAIL
100
AcDbCircle
 10
-135.7784271247278
 20
165.2999999999997
 30
0.0
 40
2.0
100
AcDbArc
 50
270.0
 51
314.9999999999816
  0
ARC
  5
A5F25
330
1E
100
AcDbEntity
  8
DETAIL
100
AcDbCircle
 10
-84.12157287522768
 20
165.2999999999997
 30
0.0
 40
2.0
100
AcDbArc
 50
225.0000000000184
 51
270.0
  0
ARC
  5
A5F26
330
1E
100
AcDbEntity
  8
DETAIL
100
AcDbCircle
 10
-133.9079124808277
 20
177.0
 30
0.0
 40
1.5
100
AcDbArc
 50
0.0
 51
180.0
  0
ARC
  5
A5F27
330
1E
100
AcDbEntity
  8
DETAIL
100
AcDbCircle
 10
254.9999999999723
 20
-158.100195313
 30
0.0
 40
40.0
100
AcDbArc
 50
250.5287793654998
 51
289.4712206345002
  0
ARC
  5
A5F28
330
1E
100
AcDbEntity
  8
DETAIL
100
AcDbCircle
 10
244.9999999999723
 20
-186.3844665605
 30
0.0
 40
10.0
100
AcDbArc
 50
180.0
 51
250.5287793654998
  0
ARC
  5
A5F29
330
1E
100
AcDbEntity
  8
DETAIL
100
AcDbCircle
 10
139.5741266215718
 20
-178.5
 30
0.0
 40
5.099999999999996
100
AcDbArc
 50
270.0
 51
0.0
  0
ARC
  5
A5F2A
330
1E
100
AcDbEntity
  8
DETAIL
100
AcDbCircle
 10
254.9999999999723
 20
-186.100195313
 30
0.0
 40
5.0
100
AcDbArc
 50
180.0
 51
0.0
  0
ARC
  5
A5F2B
330
1E
100
AcDbEntity
  8
DETAIL
100
AcDbCircle
 10
254.9999999999723
 20
-175.1001953130001
 30
0.0
 40
5.0
100
AcDbArc
 50
0.0
 51
180.0
  0
CIRCLE
  5
A5F2C
330
1E
100
AcDbEntity
  8
DETAIL
100
AcDbCircle
 10
242.4999999999723
 20
-184.600195313
 30
0.0
 40
2.25
  0
ARC
  5
A5F2D
330
1E
100
AcDbEntity
  8
DETAIL
100
AcDbCircle
 10
264.9999999999723
 20
-186.3844665605
 30
0.0
 40
10.0
100
AcDbArc
 50
289.4712206345002
 51
0.0
  0
CIRCLE
  5
A5F2E
330
1E
100
AcDbEntity
  8
DETAIL
100
AcDbCircle
 10
267.4999999999723
 20
-184.600195313
 30
0.0
 40
2.25
  0
ARC
  5
A5F2F
330
1E
100
AcDbEntity
  8
DETAIL
100
AcDbCircle
 10
397.8000000000275
 20
-142.9999999999999
 30
0.0
 40
22.0
100
AcDbArc
 50
270.0
 51
347.4816699153992
  0
ARC
  5
A5F30
330
1E
100
AcDbEntity
  8
DETAIL
100
AcDbCircle
 10
399.8000000000275
 20
-144.8000000000001
 30
0.0
 40
18.5
100
AcDbArc
 50
270.0
 51
0.0
  0
ARC
  5
A5F34
330
1E
100
AcDbEntity
  8
DETAIL
100
AcDbCircle
 10
418.1055156455268
 20
-147.5084403476999
 30
0.0
 40
1.199999999999999
100
AcDbArc
 50
347.4816699153992
 51
60.00000000000109
  0
ARC
  5
A5F35
330
1E
100
AcDbEntity
  8
DETAIL
100
AcDbCircle
 10
418.8000000000265
 20
-133.0905989232999
 30
0.0
 40
1.199999999999999
100
AcDbArc
 50
299.9999999999989
 51
0.0
  0
ARC
  5
A5F36
330
1E
100
AcDbEntity
  8
DETAIL
100
AcDbCircle
 10
420.0000000000267
 20
-94.50000000000006
 30
0.0
 40
2.0
100
AcDbArc
 50
269.9999999974466
 51
0.0
  0
ARC
  5
A5F37
330
1E
100
AcDbEntity
  8
DETAIL
100
AcDbCircle
 10
422.7000000005268
 20
-90.90540914919987
 30
0.0
 40
0.5
100
AcDbArc
 50
272.0000000000036
 51
0.0
  0
ARC
  5
A5F38
330
1E
100
AcDbEntity
  8
DETAIL
100
AcDbCircle
 10
467.1927298231266
 20
-74.20963468649991
 30
0.0
 40
10.0
100
AcDbArc
 50
271.0000000000018
 51
353.1212696345976
  0
ARC
  5
A5F39
330
1E
100
AcDbEntity
  8
DETAIL
100
AcDbCircle
 10
450.1679562838271
 20
-69.50604157380002
 30
0.0
 40
15.0
100
AcDbArc
 50
271.0000000000018
 51
344.2434190086296
  0
ARC
  5
A5F3A
330
1E
100
AcDbEntity
  8
DETAIL
100
AcDbCircle
 10
80.00000000042746
 20
-27.50000000030008
 30
0.0
 40
400.0
100
AcDbArc
 50
353.1212696345976
 51
354.2528059785985
  0
ARC
  5
A5F3C
330
1E
100
AcDbEntity
  8
DETAIL
100
AcDbCircle
 10
49.09208751917232
 20
177.0
 30
0.0
 40
1.5
100
AcDbArc
 50
0.0
 51
180.0
  0
ARC
  5
A5F3E
330
1E
100
AcDbEntity
  8
DETAIL
100
AcDbCircle
 10
233.3715728752721
 20
165.2999999999997
 30
0.0
 40
2.0
100
AcDbArc
 50
270.0
 51
314.9999999999816
  0
ARC
  5
A5F3F
330
1E
100
AcDbEntity
  8
DETAIL
100
AcDbCircle
 10
242.4999999999723
 20
184.6998046870001
 30
0.0
 40
7.5
100
AcDbArc
 50
0.0
 51
180.0
  0
ARC
  5
A5F40
330
1E
100
AcDbEntity
  8
DETAIL
100
AcDbCircle
 10
267.4999999999723
 20
184.6998046870001
 30
0.0
 40
7.5
100
AcDbArc
 50
0.0
 51
180.0
  0
ARC
  5
A5F41
330
1E
100
AcDbEntity
  8
DETAIL
100
AcDbCircle
 10
254.9999999999723
 20
174.1998046870001
 30
0.0
 40
5.0
100
AcDbArc
 50
180.0
 51
0.0
  0
CIRCLE
  5
A5F42
330
1E
100
AcDbEntity
  8
DETAIL
100
AcDbCircle
 10
242.4999999999723
 20
184.6998046870001
 30
0.0
 40
2.25
  0
CIRCLE
  5
A5F43
330
1E
100
AcDbEntity
  8
DETAIL
100
AcDbCircle
 10
267.4999999999723
 20
184.6998046870001
 30
0.0
 40
2.25
  0
ARC
  5
A5F44
330
1E
100
AcDbEntity
  8
DETAIL
100
AcDbCircle
 10
232.0920875191724
 20
177.0
 30
0.0
 40
1.5
100
AcDbArc
 50
0.0
 51
180.0
  0
ARC
  5
A5F47
330
1E
100
AcDbEntity
  8
DETAIL
100
AcDbCircle
 10
451.0000000000263
 20
-25.46566439910008
 30
0.0
 40
49.99999999999993
100
AcDbArc
 50
281.2789117282238
 51
0.0000000000000489
  0
ARC
  5
A5F50
330
1E
100
AcDbEntity
  8
DETAIL
100
AcDbCircle
 10
491.0704816778275
 20
20.78911648449986
 30
0.0
 40
0.2009883966
100
AcDbArc
 50
257.0158558419043
 51
267.9579786423992
  0
ARC
  5
A5F51
330
1E
100
AcDbEntity
  8
DETAIL
100
AcDbCircle
 10
491.0702951430266
 20
20.78813417680016
 30
0.0
 40
0.2000001233
100
AcDbArc
 50
178.9695853929015
 51
268.0046112413943
  0
ARC
  5
A5F52
330
1E
100
AcDbEntity
  8
DETAIL
100
AcDbCircle
 10
420.0000000000267
 20
39.50000000000006
 30
0.0
 40
2.0
100
AcDbArc
 50
0.0
 51
90.0
  0
ARC
  5
A5F53
330
1E
100
AcDbEntity
  8
DETAIL
100
AcDbCircle
 10
490.4688331566271
 20
26.26995178170006
 30
0.0
 40
0.4999303076
100
AcDbArc
 50
358.9694490747036
 51
89.00354236231683
  0
ARC
  5
A5F54
330
1E
100
AcDbEntity
  8
DETAIL
100
AcDbCircle
 10
463.4997933972271
 20
34.48098199600014
 30
0.0
 40
0.4996672229
100
AcDbArc
 50
0.000275111999487
 51
87.97491668241582
  0
ARC
  5
A5F55
330
1E
100
AcDbEntity
  8
DETAIL
100
AcDbCircle
 10
326.9590592070722
 20
170.0
 30
0.0
 40
5.0
100
AcDbArc
 50
270.0
 51
314.9999999999816
  0
ARC
  5
A5F56
330
1E
100
AcDbEntity
  8
DETAIL
100
AcDbCircle
 10
336.1011948307723
 20
165.0
 30
0.0
 40
5.0
100
AcDbArc
 50
90.0
 51
134.9999999999816
  0
ARC
  5
A5F57
330
1E
100
AcDbEntity
  8
DETAIL
100
AcDbCircle
 10
294.6289321880722
 20
160.7999999999998
 30
0.0
 40
5.0
100
AcDbArc
 50
45.00000000001842
 51
90.0
  0
ARC
  5
A5F58
330
1E
100
AcDbEntity
  8
DETAIL
100
AcDbCircle
 10
307.8554290938719
 20
171.0
 30
0.0
 40
4.5
100
AcDbArc
 50
9.999999999991064
 51
90.0
  0
ARC
  5
A5F59
330
1E
100
AcDbEntity
  8
DETAIL
100
AcDbCircle
 10
307.8554290938719
 20
171.0
 30
0.0
 40
1.5
100
AcDbArc
 50
9.999999999991064
 51
90.0
  0
ARC
  5
A5F5A
330
1E
100
AcDbEntity
  8
DETAIL
100
AcDbCircle
 10
320.473502691872
 20
162.5
 30
0.0
 40
2.5
100
AcDbArc
 50
90.0
 51
150.0000000000055
  0
ARC
  5
A5F5B
330
1E
100
AcDbEntity
  8
DETAIL
100
AcDbCircle
 10
300.0284271246723
 20
165.2999999999997
 30
0.0
 40
2.0
100
AcDbArc
 50
225.0000000000184
 51
270.0
  0
ARC
  5
A5F5F
330
1E
100
AcDbEntity
  8
DETAIL
100
AcDbCircle
 10
407.9000000000274
 20
152.9000000000001
 30
0.0
 40
12.1
100
AcDbArc
 50
0.0
 51
90.0
  0
ARC
  5
A5F60
330
1E
100
AcDbEntity
  8
DETAIL
100
AcDbCircle
 10
407.800000000027
 20
152.7999999999997
 30
0.0
 40
10.5
100
AcDbArc
 50
0.0
 51
90.0
  0
ARC
  5
A5F61
330
1E
100
AcDbEntity
  8
DETAIL
100
AcDbCircle
 10
396.1011948307719
 20
170.0
 30
0.0
 40
5.0
100
AcDbArc
 50
225.0000000000184
 51
270.0
  0
ARC
  5
A5F62
330
1E
100
AcDbEntity
  8
DETAIL
100
AcDbCircle
 10
386.9590592070722
 20
165.0
 30
0.0
 40
5.0
100
AcDbArc
 50
45.00000000001842
 51
90.0
  0
SPLINE
  5
A5F63
330
1E
100
AcDbEntity
  8
DETAIL
100
AcDbSpline
210
0.0
220
0.0
230
1.0
 70
     8
 71
     3
 72
     8
 73
     4
 74
     0
 42
0.0000001
 43
0.0000000001
 40
0.0
 40
0.0
 40
0.0
 40
0.0
 40
1.0
 40
1.0
 40
1.0
 40
1.0
 10
467.3672541706273
 20
29.20811163260015
 30
0.0
 10
467.4361049359267
 20
29.20690983760011
 30
0.0
 10
467.505211606227
 20
29.19760587510012
 30
0.0
 10
467.5720632211269
 20
29.1810912217
 30
0.0
  0
LINE
  5
A5F66
330
1E
100
AcDbEntity
  8
BASIS
  6
CENTER
100
AcDbLine
 10
254.9999999999723
 20
200.6998046869995
 30
0.0
 11
254.9999999999723
 21
158.699804687001
 31
0.0
  0
LINE
  5
A5F69
330
1E
100
AcDbEntity
  8
OUTLINE
100
AcDbLine
 10
-420.0000000000271
 20
149.0999999999999
 30
0.0
 11
-420.0000000000271
 21
-119.1905989233
 31
0.0
  0
LINE
  5
A5F6A
330
1E
100
AcDbEntity
  8
OUTLINE
100
AcDbLine
 10
-420.0000000000271
 20
-142.9999999999999
 30
0.0
 11
-420.0000000000271
 21
-134.2863070659995
 31
0.0
  0
LINE
  5
A5F6B
330
1E
100
AcDbEntity
  8
OUTLINE
100
AcDbLine
 10
-418.3000000000275
 20
-132.6350852961004
 30
0.0
 11
-418.3000000000275
 21
-120.8649147038999
 31
0.0
  0
LINE
  5
A5F6C
330
1E
100
AcDbEntity
  8
OUTLINE
100
AcDbLine
 10
-407.0000000001273
 20
165.0
 30
0.0
 11
-407.0000000001273
 21
163.3
 31
0.0
  0
LINE
  5
A5F6D
330
1E
100
AcDbEntity
  8
OUTLINE
100
AcDbLine
 10
-419.4000000000277
 20
-120.2298294078
 30
0.0
 11
-418.3000000000275
 21
-120.8649147038999
 31
0.0
  0
LINE
  5
A5F6F
330
1E
100
AcDbEntity
  8
OUTLINE
100
AcDbLine
 10
-250.0000000000277
 20
184.6998046869999
 30
0.0
 11
-250.0000000000277
 21
174.1998046870001
 31
0.0
  0
LINE
  5
A5F70
330
1E
100
AcDbEntity
  8
OUTLINE
100
AcDbLine
 10
-240.0000000000277
 20
174.1998046870001
 30
0.0
 11
-240.0000000000277
 21
184.6998046869999
 31
0.0
  0
LINE
  5
A5F72
330
1E
100
AcDbEntity
  8
OUTLINE
100
AcDbLine
 10
397.8000000000275
 20
-164.9999999999999
 30
0.0
 11
274.9999999999722
 21
-164.9999999999999
 31
0.0
  0
LINE
  5
A5F73
330
1E
100
AcDbEntity
  8
OUTLINE
100
AcDbLine
 10
-419.4000000000277
 20
-133.2470765815
 30
0.0
 11
-418.3000000000275
 21
-132.6350852961004
 31
0.0
  0
LINE
  5
A5F74
330
1E
100
AcDbEntity
  8
OUTLINE
100
AcDbLine
 10
422.0000000000263
 20
-91.43015846000022
 30
0.0
 11
422.7174497488268
 21
-91.40510456270016
 31
0.0
  0
LINE
  5
A5F75
330
1E
100
AcDbEntity
  8
OUTLINE
100
AcDbLine
 10
423.2000000005266
 20
-84.9790539223863
 30
0.0
 11
467.367253887427
 21
-84.20811163809998
 31
0.0
  0
LINE
  5
A5F76
330
1E
100
AcDbEntity
  8
OUTLINE
100
AcDbLine
 10
473.3766829930114
 20
27.06830653260823
 30
0.0
 11
490.4775215518275
 21
26.76981028520009
 31
0.0
  0
LINE
  5
A5F77
330
1E
100
AcDbEntity
  8
OUTLINE
100
AcDbLine
 10
467.3945276393268
 20
29.20759836070016
 30
0.0
 11
464.0000000004262
 21
29.26685284366552
 31
0.0
  0
LINE
  5
A5F78
330
1E
100
AcDbEntity
  8
OUTLINE
100
AcDbLine
 10
491.0633152393793
 20
20.58825588805786
 30
0.0
 11
496.1744974835323
 21
20.40976947108612
 31
0.0
  0
ARC
  5
A5F79
330
1E
100
AcDbEntity
  8
OUTLINE
100
AcDbCircle
 10
496.0000000000261
 20
15.41281533599039
 30
0.0
 40
5.0
100
AcDbArc
 50
0.0
 51
88.0000000000745
  0
LINE
  5
A5F7A
330
1E
100
AcDbEntity
  8
OUTLINE
100
AcDbLine
 10
422.0000000000263
 20
36.43015845940005
 30
0.0
 11
463.5174490261264
 21
34.98033719210007
 31
0.0
  0
LINE
  5
A5F7B
330
1E
100
AcDbEntity
  8
OUTLINE
100
AcDbLine
 10
407.9000000000274
 20
165.0
 30
0.0
 11
396.1011948307719
 21
165.0
 31
0.0
  0
LINE
  5
A5F7E
330
1E
100
AcDbEntity
  8
OUTLINE
100
AcDbLine
 10
420.0000000000263
 20
-133.0905989232999
 30
0.0
 11
420.0000000000267
 21
152.9000000000001
 31
0.0
  0
LINE
  5
A5F7F
330
1E
100
AcDbEntity
  8
OUTLINE
100
AcDbLine
 10
423.2000000005266
 20
-84.9790539223863
 30
0.0
 11
423.2000000005266
 21
-90.90540914919976
 31
0.0
  0
LINE
  5
A5F80
330
1E
100
AcDbEntity
  8
OUTLINE
100
AcDbLine
 10
464.0000000004262
 20
29.26685284366552
 30
0.0
 11
464.0000000004262
 21
34.48064178889996
 31
0.0
  0
LINE
  5
A5F81
330
1E
100
AcDbEntity
  8
OUTLINE
100
AcDbLine
 10
501.0000000000263
 20
15.41281533599039
 30
0.0
 11
501.0000000000263
 21
-25.46566439910014
 31
0.0
  0
LINE
  5
A5F82
330
1E
100
AcDbEntity
  8
OUTLINE
100
AcDbLine
 10
490.9687144634272
 20
26.26089317880002
 30
0.0
 11
490.8703273716269
 21
20.79173136130004
 31
0.0
  0
ARC
  5
A5F83
330
1E
100
AcDbEntity
  8
OUTLINE
100
AcDbCircle
 10
-397.9658533247875
 20
-142.9658276035319
 30
0.0
 40
22.03417317392876
100
AcDbArc
 50
180.0888590128993
 51
270.0152204852935
  0
ARC
  5
A5F84
330
1E
100
AcDbEntity
  8
OUTLINE
100
AcDbCircle
 10
-418.8000000000275
 20
-134.2863070659995
 30
0.0
 40
1.199999999999999
100
AcDbArc
 50
119.9999999999989
 51
180.0
  0
ARC
  5
A5F85
330
1E
100
AcDbEntity
  8
OUTLINE
100
AcDbCircle
 10
-418.8000000000275
 20
-119.1905989233
 30
0.0
 40
1.199999999999999
100
AcDbArc
 50
180.0
 51
240.0000000000011
  0
ARC
  5
A5F86
330
1E
100
AcDbEntity
  8
OUTLINE
100
AcDbCircle
 10
-407.8000000000272
 20
152.7999999999997
 30
0.0
 40
10.5
100
AcDbArc
 50
90.0
 51
180.0
  0
ARC
  5
A5F87
330
1E
100
AcDbEntity
  8
OUTLINE
100
AcDbCircle
 10
-257.5000000000277
 20
184.6998046869999
 30
0.0
 40
7.5
100
AcDbArc
 50
0.0
 51
180.0
  0
ARC
  5
A5F88
330
1E
100
AcDbEntity
  8
OUTLINE
100
AcDbCircle
 10
-232.5000000000277
 20
184.6998046869999
 30
0.0
 40
7.5
100
AcDbArc
 50
0.0
 51
180.0
  0
ARC
  5
A5F89
330
1E
100
AcDbEntity
  8
OUTLINE
100
AcDbCircle
 10
-245.0000000000277
 20
174.1998046869999
 30
0.0
 40
5.0
100
AcDbArc
 50
180.0
 51
0.0
  0
ARC
  5
A5F8A
330
1E
100
AcDbEntity
  8
OUTLINE
100
AcDbCircle
 10
254.9999999999723
 20
-158.1001953130001
 30
0.0
 40
40.0
100
AcDbArc
 50
250.5287793654998
 51
289.4712206345002
  0
ARC
  5
A5F8B
330
1E
100
AcDbEntity
  8
OUTLINE
100
AcDbCircle
 10
244.9999999999723
 20
-186.3844665605001
 30
0.0
 40
10.0
100
AcDbArc
 50
180.0
 51
250.5287793654998
  0
ARC
  5
A5F8C
330
1E
100
AcDbEntity
  8
OUTLINE
100
AcDbCircle
 10
264.9999999999723
 20
-186.3844665605001
 30
0.0
 40
10.0
100
AcDbArc
 50
289.4712206345002
 51
0.0
  0
ARC
  5
A5F8D
330
1E
100
AcDbEntity
  8
OUTLINE
100
AcDbCircle
 10
397.8000000000275
 20
-142.9999999999999
 30
0.0
 40
22.0
100
AcDbArc
 50
270.0
 51
347.4816699153992
  0
ARC
  5
A5F8E
330
1E
100
AcDbEntity
  8
OUTLINE
100
AcDbCircle
 10
420.0000000000267
 20
-94.49999999999993
 30
0.0
 40
2.0
100
AcDbArc
 50
269.9999999974466
 51
0.0
  0
ARC
  5
A5F8F
330
1E
100
AcDbEntity
  8
OUTLINE
100
AcDbCircle
 10
422.7000000005268
 20
-90.90540914919976
 30
0.0
 40
0.5
100
AcDbArc
 50
272.0000000000036
 51
0.0
  0
ARC
  5
A5F90
330
1E
100
AcDbEntity
  8
OUTLINE
100
AcDbCircle
 10
467.1927298231266
 20
-74.20963468650001
 30
0.0
 40
10.0
100
AcDbArc
 50
271.0000000000018
 51
353.1212696345976
  0
ARC
  5
A5F91
330
1E
100
AcDbEntity
  8
OUTLINE
100
AcDbCircle
 10
451.0000000000263
 20
-25.46566439910014
 30
0.0
 40
50.0
100
AcDbArc
 50
302.6697766346067
 51
0.0
  0
ARC
  5
A5F92
330
1E
100
AcDbEntity
  8
OUTLINE
100
AcDbCircle
 10
467.1927298231266
 20
19.20963468600013
 30
0.0
 40
10.0
100
AcDbArc
 50
51.80095352023386
 51
88.84377960499573
  0
ARC
  5
A5F93
330
1E
100
AcDbEntity
  8
OUTLINE
100
AcDbCircle
 10
491.0702951430266
 20
20.78813417680004
 30
0.0
 40
0.2000001233
100
AcDbArc
 50
178.9695853929015
 51
268.0000000000745
  0
ARC
  5
A5F94
330
1E
100
AcDbEntity
  8
OUTLINE
100
AcDbCircle
 10
420.0000000000267
 20
39.50000000000006
 30
0.0
 40
2.0
100
AcDbArc
 50
0.0
 51
90.0
  0
ARC
  5
A5F95
330
1E
100
AcDbEntity
  8
OUTLINE
100
AcDbCircle
 10
490.4688331566271
 20
26.26995178170006
 30
0.0
 40
0.4999303076
100
AcDbArc
 50
358.9694490746906
 51
89.00354236231683
  0
ARC
  5
A5F96
330
1E
100
AcDbEntity
  8
OUTLINE
100
AcDbCircle
 10
463.4997933972271
 20
34.48098199600014
 30
0.0
 40
0.4996672229
100
AcDbArc
 50
0.000275111999487
 51
87.97491668241582
  0
ARC
  5
A5F97
330
1E
100
AcDbEntity
  8
OUTLINE
100
AcDbCircle
 10
407.9000000000274
 20
152.9000000000001
 30
0.0
 40
12.1
100
AcDbArc
 50
0.0
 51
90.0
  0
LINE
  5
A5F98
330
1E
100
AcDbEntity
  8
OUTLINE
100
AcDbLine
 10
422.0000000000267
 20
-94.49999999999993
 30
0.0
 11
422.0000000000267
 21
-91.43015846000022
 31
0.0
  0
LINE
  5
A5F99
330
1E
100
AcDbEntity
  8
OUTLINE
100
AcDbLine
 10
422.0000000000267
 20
39.50000000000006
 30
0.0
 11
422.0000000000263
 21
36.43015845940005
 31
0.0
  0
LINE
  5
A5F9A
330
1E
100
AcDbEntity
  8
OUTLINE
100
AcDbLine
 10
-418.3000000000275
 20
150.3
 30
0.0
 11
-418.3000000000275
 21
152.7999999999997
 31
0.0
  0
LINE
  5
A5F9B
330
1E
100
AcDbEntity
  8
OUTLINE
100
AcDbLine
 10
234.9999999999722
 20
184.6998046869999
 30
0.0
 11
234.9999999999722
 21
-186.3844665605001
 31
0.0
  0
LINE
  5
A5F9C
330
1E
100
AcDbEntity
  8
OUTLINE
100
AcDbLine
 10
249.9999999999722
 20
184.6998046869999
 30
0.0
 11
249.9999999999722
 21
174.1998046870001
 31
0.0
  0
LINE
  5
A5F9D
330
1E
100
AcDbEntity
  8
OUTLINE
100
AcDbLine
 10
259.9999999999722
 20
174.1998046870001
 30
0.0
 11
259.9999999999722
 21
184.6998046869999
 31
0.0
  0
LINE
  5
A5F9E
330
1E
100
AcDbEntity
  8
OUTLINE
100
AcDbLine
 10
274.9999999999722
 20
184.6998046869999
 30
0.0
 11
274.9999999999722
 21
-186.3844665605001
 31
0.0
  0
ARC
  5
A5F9F
330
1E
100
AcDbEntity
  8
OUTLINE
100
AcDbCircle
 10
242.4999999999723
 20
184.6998046869999
 30
0.0
 40
7.5
100
AcDbArc
 50
0.0
 51
180.0
  0
ARC
  5
A5FA0
330
1E
100
AcDbEntity
  8
OUTLINE
100
AcDbCircle
 10
267.4999999999723
 20
184.6998046869999
 30
0.0
 40
7.5
100
AcDbArc
 50
0.0
 51
180.0
  0
ARC
  5
A5FA1
330
1E
100
AcDbEntity
  8
OUTLINE
100
AcDbCircle
 10
254.9999999999723
 20
174.1998046869999
 30
0.0
 40
5.0
100
AcDbArc
 50
180.0
 51
0.0
  0
LINE
  5
A5FA2
330
1E
100
AcDbEntity
  8
OUTLINE
100
AcDbLine
 10
-265.0000000000277
 20
184.6998046870001
 30
0.0
 11
-265.0000000000277
 21
-186.3844665605001
 31
0.0
  0
LINE
  5
A5FA3
330
1E
100
AcDbEntity
  8
OUTLINE
100
AcDbLine
 10
-225.0000000000277
 20
-186.3844665605001
 30
0.0
 11
-225.0000000000277
 21
184.6998046870001
 31
0.0
  0
ARC
  5
A5FA4
330
1E
100
AcDbEntity
  8
OUTLINE
100
AcDbCircle
 10
-245.0000000000277
 20
-158.1001953130001
 30
0.0
 40
40.0
100
AcDbArc
 50
250.5287793654998
 51
289.4712206345002
  0
ARC
  5
A5FA5
330
1E
100
AcDbEntity
  8
OUTLINE
100
AcDbCircle
 10
-255.0000000000277
 20
-186.3844665605001
 30
0.0
 40
10.0
100
AcDbArc
 50
180.0
 51
250.5287793654998
  0
ARC
  5
A5FA6
330
1E
100
AcDbEntity
  8
OUTLINE
100
AcDbCircle
 10
-235.0000000000278
 20
-186.3844665605001
 30
0.0
 40
10.0
100
AcDbArc
 50
289.4712206345002
 51
0.0
  0
LINE
  5
A5FA7
330
1E
100
AcDbEntity
  8
OUTLINE
100
AcDbLine
 10
477.1207485365266
 20
-75.40731762717626
 30
0.0
 11
477.9898175362206
 21
-67.55544640569809
 31
0.0
  0
LINE
  5
A5FC1
330
1E
100
AcDbEntity
  8
DETAIL
100
AcDbLine
 10
66.50398913647221
 20
-176.3999999999999
 30
0.0
 11
66.50398913647221
 21
-172.0999999999999
 31
0.0
  0
LINE
  5
A5FC2
330
1E
100
AcDbEntity
  8
DETAIL
100
AcDbLine
 10
66.50398913647221
 20
-167.8999999999999
 30
0.0
 11
66.50398913647221
 21
-166.4614188940176
 31
0.0
  0
LINE
  5
A5FC3
330
1E
100
AcDbEntity
  8
DETAIL
100
AcDbLine
 10
-286.4115223479275
 20
-176.3999999999999
 30
0.0
 11
-286.4115223479275
 21
-172.0999999999999
 31
0.0
  0
LINE
  5
A5FC4
330
1E
100
AcDbEntity
  8
DETAIL
100
AcDbLine
 10
-286.4115223479275
 20
-167.8999999999999
 30
0.0
 11
-286.4115223479275
 21
-166.4959059303655
 31
0.0
  0
LINE
  5
A5FC5
330
1E
100
AcDbEntity
  8
BASIS
  6
CENTER
100
AcDbLine
 10
-236.0000000000259
 20
-180.6000000000001
 30
0.0
 11
-254.0000000000296
 21
-180.6000000000001
 31
0.0
  0
LINE
  5
A5FC6
330
1E
100
AcDbEntity
  8
OUTLINE
100
AcDbLine
 10
-418.3000000000275
 20
150.3
 30
0.0
 11
-418.8000000000275
 21
150.3
 31
0.0
  0
ARC
  5
A5FC7
330
1E
100
AcDbEntity
  8
OUTLINE
100
AcDbCircle
 10
-418.8000000000275
 20
149.0999999999996
 30
0.0
 40
1.199999999999999
100
AcDbArc
 50
90.0
 51
180.0
  0
LINE
  5
A5FC8
330
1E
100
AcDbEntity
  8
OUTLINE
100
AcDbLine
 10
-432.895444126395
 20
126.5149337007775
 30
0.0
 11
-432.8954440256602
 21
45.38597637453213
 31
0.0
  0
ARC
  5
A5FC9
330
1E
100
AcDbEntity
  8
OUTLINE
100
AcDbCircle
 10
-429.8954440256602
 20
45.38597637825711
 30
0.0
 40
3.0
100
AcDbArc
 50
180.0000000711434
 51
254.9999087606285
  0
ARC
  5
A5FCA
330
1E
100
AcDbEntity
  8
OUTLINE
100
AcDbCircle
 10
-429.8954441263949
 20
126.5149337045025
 30
0.0
 40
3.0
100
AcDbArc
 50
105.0001221530121
 51
180.0000000711434
  0
LINE
  5
A5FCB
330
1E
100
AcDbEntity
  8
OUTLINE
100
AcDbLine
 10
-424.0000000000271
 20
131.2004569840001
 30
0.0
 11
-424.0000000000271
 21
132.2004747526001
 31
0.0
  0
LINE
  5
A5FCC
330
1E
100
AcDbEntity
  8
OUTLINE
100
AcDbLine
 10
-423.0000000000273
 20
33.09751325900009
 30
0.0
 11
-423.0000000000273
 21
39.20045698400014
 31
0.0
  0
LINE
  5
A5FCD
330
1E
100
AcDbEntity
  8
OUTLINE
100
AcDbLine
 10
-422.6485281374278
 20
139.6519288467
 30
0.0
 11
-420.1757359313273
 21
142.1247210528
 31
0.0
  0
LINE
  5
A5FCE
330
1E
100
AcDbEntity
  8
OUTLINE
100
AcDbLine
 10
-420.1757359313273
 20
29.77619291540015
 30
0.0
 11
-422.6485281374278
 21
32.24898512150009
 31
0.0
  0
LINE
  5
A5FCF
330
1E
100
AcDbEntity
  8
OUTLINE
100
AcDbLine
 10
-423.6294108525274
 20
39.36910711360003
 30
0.0
 11
-423.0000000000273
 21
39.20045698400014
 31
0.0
  0
LINE
  5
A5FD0
330
1E
100
AcDbEntity
  8
OUTLINE
100
AcDbLine
 10
-430.6719057754681
 20
42.48820013584547
 30
0.0
 11
-424.0000000000271
 21
40.70045698400014
 31
0.0
  0
LINE
  5
A5FD1
330
1E
100
AcDbEntity
  8
OUTLINE
100
AcDbLine
 10
-423.4999999525276
 20
132.7004569839999
 30
0.0
 11
-423.0000000000273
 21
132.7004569839999
 31
0.0
  0
LINE
  5
A5FD2
330
1E
100
AcDbEntity
  8
OUTLINE
100
AcDbLine
 10
-430.6719074396823
 20
129.412709527978
 30
0.0
 11
-424.0000000000271
 21
131.2004569840001
 31
0.0
  0
ARC
  5
A5FD3
330
1E
100
AcDbEntity
  8
OUTLINE
100
AcDbCircle
 10
-421.8000000000278
 20
33.09751325900009
 30
0.0
 40
1.199999999999999
100
AcDbArc
 50
180.0
 51
225.0000000000184
  0
ARC
  5
A5FD4
330
1E
100
AcDbEntity
  8
OUTLINE
100
AcDbCircle
 10
-420.6000000000273
 20
29.35192884669988
 30
0.0
 40
0.6
100
AcDbArc
 50
0.0
 51
45.00000000001842
  0
ARC
  5
A5FD5
330
1E
100
AcDbEntity
  8
OUTLINE
100
AcDbCircle
 10
-423.5000024874278
 20
39.85206776180013
 30
0.0
 40
0.4999975126
100
AcDbArc
 50
180.0001007332007
 51
255.000100778612
  0
ARC
  5
A5FD6
330
1E
100
AcDbEntity
  8
OUTLINE
100
AcDbCircle
 10
-423.5000118033276
 20
132.2004687873
 30
0.0
 40
0.4999881968000003
100
AcDbArc
 50
89.99865945609498
 51
179.9986588651001
  0
ARC
  5
A5FD7
330
1E
100
AcDbEntity
  8
OUTLINE
100
AcDbCircle
 10
-421.8000000000278
 20
138.8034007092999
 30
0.0
 40
1.199999999999999
100
AcDbArc
 50
134.9999999999816
 51
180.0
  0
ARC
  5
A5FD8
330
1E
100
AcDbEntity
  8
OUTLINE
100
AcDbCircle
 10
-420.6000000000273
 20
142.5489851215
 30
0.0
 40
0.6
100
AcDbArc
 50
314.9999999999816
 51
0.0
  0
LINE
  5
A5FD9
330
1E
100
AcDbEntity
  8
OUTLINE
100
AcDbLine
 10
-423.0000000000273
 20
138.8034007092999
 30
0.0
 11
-423.0000000000273
 21
132.7004569839999
 31
0.0
  0
LINE
  5
A5FDA
330
1E
100
AcDbEntity
  8
OUTLINE
100
AcDbLine
 10
-424.0000000000271
 20
40.70045698400014
 30
0.0
 11
-424.0000000000267
 21
39.85206688274144
 31
0.0
  0
LINE
  5
A5FDB
330
1E
100
AcDbEntity
  8
OUTLINE
100
AcDbLine
 10
-386.4600000000282
 20
-166.4999999999999
 30
0.0
 11
-387.9600000000282
 21
-164.9999999999999
 31
0.0
  0
LINE
  5
A5FDC
330
1E
100
AcDbEntity
  8
OUTLINE
100
AcDbLine
 10
-364.5741266222284
 20
-178.4999999999999
 30
0.0
 11
-364.5741266222284
 21
-166.5000000000001
 31
0.0
  0
LINE
  5
A5FDD
330
1E
100
AcDbEntity
  8
OUTLINE
100
AcDbLine
 10
-187.9500000003281
 20
-186.9999999999999
 30
0.0
 11
-189.9500000003281
 21
-184.9999999999997
 31
0.0
  0
LINE
  5
A5FDE
330
1E
100
AcDbEntity
  8
OUTLINE
100
AcDbLine
 10
-189.9500000003281
 20
-183.6000000000001
 30
0.0
 11
-189.9500000003281
 21
-184.9999999999997
 31
0.0
  0
LINE
  5
A5FDF
330
1E
100
AcDbEntity
  8
OUTLINE
100
AcDbLine
 10
-187.9475207451278
 20
-186.9999999999999
 30
0.0
 11
-31.95014537442785
 21
-186.9999999999999
 31
0.0
  0
LINE
  5
A5FE0
330
1E
100
AcDbEntity
  8
OUTLINE
100
AcDbLine
 10
139.5741266215718
 20
-183.6000000000001
 30
0.0
 11
-29.95000000032815
 21
-183.6000000000003
 31
0.0
  0
LINE
  5
A5FE1
330
1E
100
AcDbEntity
  8
OUTLINE
100
AcDbLine
 10
-189.9500000003281
 20
-183.5999999999998
 30
0.0
 11
-225.0000000000277
 21
-183.5999999999998
 31
0.0
  0
LINE
  5
A5FE2
330
1E
100
AcDbEntity
  8
OUTLINE
100
AcDbLine
 10
384.8999765594717
 20
-166.4999999999999
 30
0.0
 11
274.9999999999722
 21
-166.4999999999999
 31
0.0
  0
LINE
  5
A5FE3
330
1E
100
AcDbEntity
  8
OUTLINE
100
AcDbLine
 10
-364.5741266222284
 20
-166.4999999999999
 30
0.0
 11
-386.4599765595285
 21
-166.4999999999999
 31
0.0
  0
LINE
  5
A5FE4
330
1E
100
AcDbEntity
  8
OUTLINE
100
AcDbLine
 10
-29.95000000032815
 20
-183.6000000000001
 30
0.0
 11
-29.95000000032815
 21
-184.9999999999997
 31
0.0
  0
LINE
  5
A5FE5
330
1E
100
AcDbEntity
  8
OUTLINE
100
AcDbLine
 10
-31.95000000032815
 20
-186.9999999999999
 30
0.0
 11
-29.95000000032815
 21
-184.9999999999997
 31
0.0
  0
LINE
  5
A5FE6
330
1E
100
AcDbEntity
  8
OUTLINE
100
AcDbLine
 10
144.6741266215717
 20
-178.4999999999999
 30
0.0
 11
144.6741266215717
 21
-166.4999999999999
 31
0.0
  0
LINE
  5
A5FE7
330
1E
100
AcDbEntity
  8
OUTLINE
100
AcDbLine
 10
384.8999999999715
 20
-166.4999999999999
 30
0.0
 11
386.3999999999724
 21
-164.9999999999999
 31
0.0
  0
ARC
  5
A5FE8
330
1E
100
AcDbEntity
  8
OUTLINE
100
AcDbCircle
 10
-359.4741266222281
 20
-178.4999999999999
 30
0.0
 40
5.099999999999996
100
AcDbArc
 50
180.0
 51
270.0
  0
ARC
  5
A5FE9
330
1E
100
AcDbEntity
  8
OUTLINE
100
AcDbCircle
 10
139.5741266215718
 20
-178.4999999999999
 30
0.0
 40
5.099999999999996
100
AcDbArc
 50
270.0
 51
0.0
  0
LINE
  5
A5FEA
330
1E
100
AcDbEntity
  8
OUTLINE
100
AcDbLine
 10
418.7055156455277
 20
-146.4692098631998
 30
0.0
 11
418.2466264034301
 21
-146.2042700357449
 31
0.0
  0
LINE
  5
A5FEB
330
1E
100
AcDbEntity
  8
OUTLINE
100
AcDbLine
 10
418.3000000000275
 20
-134.7649147039001
 30
0.0
 11
419.4000000000273
 21
-134.1298294078
 31
0.0
  0
ARC
  5
A5FEC
330
1E
100
AcDbEntity
  8
OUTLINE
100
AcDbCircle
 10
418.1055156455268
 20
-147.5084403476999
 30
0.0
 40
1.199999999999999
100
AcDbArc
 50
347.4816699153992
 51
60.00000000000109
  0
ARC
  5
A5FED
330
1E
100
AcDbEntity
  8
OUTLINE
100
AcDbCircle
 10
418.8000000000265
 20
-133.0905989232999
 30
0.0
 40
1.199999999999999
100
AcDbArc
 50
299.9999999999989
 51
0.0
  0
LINE
  5
A5FEE
330
1E
100
AcDbEntity
  8
OUTLINE
100
AcDbLine
 10
418.3000000000275
 20
-144.8
 30
0.0
 11
418.3000000000275
 21
-134.7649147039003
 31
0.0
  0
ARC
  5
A5FEF
330
1E
100
AcDbEntity
  8
OUTLINE
100
AcDbCircle
 10
399.8000000000275
 20
-144.8
 30
0.0
 40
18.5
100
AcDbArc
 50
355.6466912522448
 51
0.0
  0
LINE
  5
A5FF0
330
1E
100
AcDbEntity
  8
OUTLINE
100
AcDbLine
 10
-384.889262482528
 20
171.7814167994998
 30
0.0
 11
-386.0850092316482
 21
165.0
 31
0.0
  0
LINE
  5
A5FF1
330
1E
100
AcDbEntity
  8
OUTLINE
100
AcDbLine
 10
-380.457627593928
 20
175.4987173533995
 30
0.0
 11
-380.457627593928
 21
175.4999999999998
 31
0.0
  0
LINE
  5
A5FF2
330
1E
100
AcDbEntity
  8
OUTLINE
100
AcDbLine
 10
-318.4079124808277
 20
176.9999999999998
 30
0.0
 11
-318.4079124808277
 21
175.4999999999998
 31
0.0
  0
LINE
  5
A5FF3
330
1E
100
AcDbEntity
  8
OUTLINE
100
AcDbLine
 10
-315.4079124808277
 20
176.9999999999998
 30
0.0
 11
-315.4079124808277
 21
175.4999999999998
 31
0.0
  0
LINE
  5
A5FF4
330
1E
100
AcDbEntity
  8
OUTLINE
100
AcDbLine
 10
-135.4079124808277
 20
176.9999999999998
 30
0.0
 11
-135.4079124808277
 21
175.4999999999998
 31
0.0
  0
LINE
  5
A5FF5
330
1E
100
AcDbEntity
  8
OUTLINE
100
AcDbLine
 10
-132.4079124808277
 20
176.9999999999998
 30
0.0
 11
-132.4079124808277
 21
175.4999999999998
 31
0.0
  0
LINE
  5
A5FF6
330
1E
100
AcDbEntity
  8
OUTLINE
100
AcDbLine
 10
47.59208751917229
 20
176.9999999999998
 30
0.0
 11
47.59208751917229
 21
175.4999999999998
 31
0.0
  0
LINE
  5
A5FF7
330
1E
100
AcDbEntity
  8
OUTLINE
100
AcDbLine
 10
50.59208751917232
 20
176.9999999999998
 30
0.0
 11
50.59208751917232
 21
175.4999999999998
 31
0.0
  0
LINE
  5
A5FF8
330
1E
100
AcDbEntity
  8
OUTLINE
100
AcDbLine
 10
332.5656609248722
 20
168.5355339058999
 30
0.0
 11
330.4945931129723
 21
166.4644660941001
 31
0.0
  0
LINE
  5
A5FF9
330
1E
100
AcDbEntity
  8
OUTLINE
100
AcDbLine
 10
313.4828107315925
 20
165.0
 30
0.0
 11
313.9999999999723
 21
165.0
 31
0.0
  0
LINE
  5
A5FFA
330
1E
100
AcDbEntity
  8
OUTLINE
100
AcDbLine
 10
336.1011948307723
 20
170.0
 30
0.0
 11
386.9590592070722
 21
170.0
 31
0.0
  0
LINE
  5
A5FFB
330
1E
100
AcDbEntity
  8
OUTLINE
100
AcDbLine
 10
230.5920875191723
 20
176.9999999999998
 30
0.0
 11
230.5920875191723
 21
175.4999999999998
 31
0.0
  0
LINE
  5
A5FFC
330
1E
100
AcDbEntity
  8
OUTLINE
100
AcDbLine
 10
233.5920875191718
 20
176.9999999999998
 30
0.0
 11
233.5920875191718
 21
175.5
 31
0.0
  0
LINE
  5
A5FFD
330
1E
100
AcDbEntity
  8
OUTLINE
100
AcDbLine
 10
307.8554290938719
 20
175.4999999999998
 30
0.0
 11
274.9999999999722
 21
175.4999999999999
 31
0.0
  0
LINE
  5
A5FFE
330
1E
100
AcDbEntity
  8
OUTLINE
100
AcDbLine
 10
230.5920875191723
 20
175.4999999999998
 30
0.0
 11
50.59208751917232
 21
175.4999999999998
 31
0.0
  0
LINE
  5
A5FFF
330
1E
100
AcDbEntity
  8
OUTLINE
100
AcDbLine
 10
47.59208751917229
 20
175.4999999999998
 30
0.0
 11
-132.4079124808277
 21
175.4999999999998
 31
0.0
  0
LINE
  5
A6000
330
1E
100
AcDbEntity
  8
OUTLINE
100
AcDbLine
 10
-135.4079124808277
 20
175.4999999999998
 30
0.0
 11
-225.0000000000277
 21
175.4999999999998
 31
0.0
  0
LINE
  5
A6001
330
1E
100
AcDbEntity
  8
OUTLINE
100
AcDbLine
 10
-318.4079124808277
 20
175.4999999999998
 30
0.0
 11
-380.457627593928
 21
175.4999999999998
 31
0.0
  0
LINE
  5
A6002
330
1E
100
AcDbEntity
  8
OUTLINE
100
AcDbLine
 10
313.9999999999723
 20
165.0
 30
0.0
 11
313.9999999999723
 21
163.2999999999998
 31
0.0
  0
LINE
  5
A6003
330
1E
100
AcDbEntity
  8
OUTLINE
100
AcDbLine
 10
313.4828107315925
 20
165.0
 30
0.0
 11
312.2870639824719
 21
171.7814167994998
 31
0.0
  0
LINE
  5
A6004
330
1E
100
AcDbEntity
  8
OUTLINE
100
AcDbLine
 10
392.5656609248722
 20
166.4644660941001
 30
0.0
 11
390.4945931129719
 21
168.5355339058999
 31
0.0
  0
ARC
  5
A6005
330
1E
100
AcDbEntity
  8
OUTLINE
100
AcDbCircle
 10
-380.457627593928
 20
170.9999999999998
 30
0.0
 40
4.5
100
AcDbArc
 50
90.0
 51
170.0000000000089
  0
ARC
  5
A6006
330
1E
100
AcDbEntity
  8
OUTLINE
100
AcDbCircle
 10
-316.9079124808277
 20
176.9999999999998
 30
0.0
 40
1.5
100
AcDbArc
 50
0.0
 51
180.0
  0
ARC
  5
A6007
330
1E
100
AcDbEntity
  8
OUTLINE
100
AcDbCircle
 10
-133.9079124808277
 20
176.9999999999998
 30
0.0
 40
1.5
100
AcDbArc
 50
0.0
 51
180.0
  0
ARC
  5
A6008
330
1E
100
AcDbEntity
  8
OUTLINE
100
AcDbCircle
 10
49.09208751917184
 20
176.9999999999998
 30
0.0
 40
1.5
100
AcDbArc
 50
0.0
 51
180.0
  0
ARC
  5
A6009
330
1E
100
AcDbEntity
  8
OUTLINE
100
AcDbCircle
 10
232.0920875191719
 20
176.9999999999998
 30
0.0
 40
1.5
100
AcDbArc
 50
0.0
 51
180.0
  0
ARC
  5
A600A
330
1E
100
AcDbEntity
  8
OUTLINE
100
AcDbCircle
 10
326.9590592070722
 20
170.0
 30
0.0
 40
5.0
100
AcDbArc
 50
270.0
 51
314.9999999999724
  0
ARC
  5
A600B
330
1E
100
AcDbEntity
  8
OUTLINE
100
AcDbCircle
 10
336.1011948307723
 20
165.0
 30
0.0
 40
5.0
100
AcDbArc
 50
90.0
 51
135.0000000000092
  0
ARC
  5
A600C
330
1E
100
AcDbEntity
  8
OUTLINE
100
AcDbCircle
 10
307.8554290938719
 20
170.9999999999998
 30
0.0
 40
4.5
100
AcDbArc
 50
9.999999999991064
 51
90.0
  0
ARC
  5
A600D
330
1E
100
AcDbEntity
  8
OUTLINE
100
AcDbCircle
 10
396.1011948307719
 20
170.0
 30
0.0
 40
5.0
100
AcDbArc
 50
224.9999999999908
 51
270.0
  0
ARC
  5
A600E
330
1E
100
AcDbEntity
  8
OUTLINE
100
AcDbCircle
 10
386.9590592070722
 20
165.0
 30
0.0
 40
5.0
100
AcDbArc
 50
44.99999999999078
 51
90.0
  0
LINE
  5
A600F
330
1E
100
AcDbEntity
  8
OUTLINE
100
AcDbLine
 10
-133.9144660941274
 20
164.3355339058999
 30
0.0
 11
-134.3642135624277
 21
163.8857864375998
 31
0.0
  0
LINE
  5
A6010
330
1E
100
AcDbEntity
  8
OUTLINE
100
AcDbLine
 10
234.9999999999722
 20
164.0999999999998
 30
0.0
 11
234.7857864375724
 21
163.8857864375998
 31
0.0
  0
LINE
  5
A6011
330
1E
100
AcDbEntity
  8
OUTLINE
100
AcDbLine
 10
-85.53578643762783
 20
163.8857864375998
 30
0.0
 11
-85.98553390592769
 21
164.3355339058999
 31
0.0
  0
LINE
  5
A6012
330
1E
100
AcDbEntity
  8
OUTLINE
100
AcDbLine
 10
233.3715728752721
 20
163.2999999999998
 30
0.0
 11
-84.12157287522768
 21
163.2999999999998
 31
0.0
  0
LINE
  5
A6013
330
1E
100
AcDbEntity
  8
OUTLINE
100
AcDbLine
 10
-135.7784271247278
 20
163.2999999999998
 30
0.0
 11
-225.0000000000277
 21
163.2999999999998
 31
0.0
  0
LINE
  5
A6014
330
1E
100
AcDbEntity
  8
OUTLINE
100
AcDbLine
 10
300.0284271246723
 20
163.2999999999998
 30
0.0
 11
318.048631561272
 21
163.3
 31
0.0
  0
LINE
  5
A6015
330
1E
100
AcDbEntity
  8
OUTLINE
100
AcDbLine
 10
294.6289321880722
 20
165.7999999999995
 30
0.0
 11
274.9999999999722
 21
165.7999999999995
 31
0.0
  0
LINE
  5
A6016
330
1E
100
AcDbEntity
  8
OUTLINE
100
AcDbLine
 10
-89.52106781192787
 20
165.7999999999995
 30
0.0
 11
-130.3789321881277
 21
165.7999999999995
 31
0.0
  0
ARC
  5
A6017
330
1E
100
AcDbEntity
  8
OUTLINE
100
AcDbCircle
 10
-89.52106781192787
 20
160.7999999999995
 30
0.0
 40
5.0
100
AcDbArc
 50
45.00000000001842
 51
90.0
  0
ARC
  5
A6018
330
1E
100
AcDbEntity
  8
OUTLINE
100
AcDbCircle
 10
-130.3789321881277
 20
160.7999999999995
 30
0.0
 40
5.0
100
AcDbArc
 50
90.0
 51
134.9999999999816
  0
ARC
  5
A6019
330
1E
100
AcDbEntity
  8
OUTLINE
100
AcDbCircle
 10
-135.7784271247278
 20
165.2999999999995
 30
0.0
 40
2.0
100
AcDbArc
 50
270.0
 51
314.9999999999816
  0
ARC
  5
A601A
330
1E
100
AcDbEntity
  8
OUTLINE
100
AcDbCircle
 10
-84.12157287522768
 20
165.2999999999995
 30
0.0
 40
2.0
100
AcDbArc
 50
225.0000000000184
 51
270.0
  0
ARC
  5
A601C
330
1E
100
AcDbEntity
  8
OUTLINE
100
AcDbCircle
 10
233.3715728752721
 20
165.2999999999995
 30
0.0
 40
2.0
100
AcDbArc
 50
270.0
 51
314.9999999999816
  0
ARC
  5
A601D
330
1E
100
AcDbEntity
  8
OUTLINE
100
AcDbCircle
 10
294.6289321880722
 20
160.7999999999995
 30
0.0
 40
5.0
100
AcDbArc
 50
45.00000000001842
 51
90.0
  0
ARC
  5
A601E
330
1E
100
AcDbEntity
  8
OUTLINE
100
AcDbCircle
 10
300.0284271246723
 20
165.2999999999995
 30
0.0
 40
2.0
100
AcDbArc
 50
225.0000000000184
 51
270.0
  0
LINE
  5
A601F
330
1E
100
AcDbEntity
  8
OUTLINE
100
AcDbLine
 10
298.1644660940052
 20
164.3355339059324
 30
0.0
 11
298.6142135622995
 21
163.8857864376264
 31
0.0
  0
LINE
  5
A6020
330
1E
100
AcDbEntity
  8
OUTLINE
100
AcDbLine
 10
318.048631561272
 20
163.3
 30
0.0
 11
318.3084391823722
 21
163.75
 31
0.0
  0
LINE
  5
A6021
330
1E
100
AcDbEntity
  8
OUTLINE
100
AcDbLine
 10
326.9590592070722
 20
165.0
 30
0.0
 11
320.473502691872
 21
165.0
 31
0.0
  0
ARC
  5
A6022
330
1E
100
AcDbEntity
  8
OUTLINE
100
AcDbCircle
 10
320.473502691872
 20
162.5
 30
0.0
 40
2.5
100
AcDbArc
 50
90.0
 51
150.0000000000055
  0
CIRCLE
  5
A6177
330
1E
100
AcDbEntity
  8
DETAIL
100
AcDbCircle
 10
-2.499630266963364
 20
115.0
 30
0.0
 40
21.0
  0
LINE
  5
A618D
330
1E
100
AcDbEntity
  8
DETAIL
100
AcDbLine
 10
234.9999999999722
 20
172.5
 30
0.0
 11
233.5920875191718
 21
172.5
 31
0.0
  0
LINE
  5
A618E
330
1E
100
AcDbEntity
  8
DETAIL
100
AcDbLine
 10
234.9999999999722
 20
175.5
 30
0.0
 11
233.5920875191718
 21
175.5
 31
0.0
  0
LINE
  5
A618F
330
1E
100
AcDbEntity
  8
DETAIL
100
AcDbLine
 10
259.702197786758
 20
172.5000000000001
 30
0.0
 11
250.2978022131865
 21
172.5
 31
0.0
  0
LINE
  5
A6190
330
1E
100
AcDbEntity
  8
DETAIL
100
AcDbLine
 10
259.9999999999722
 20
175.5
 30
0.0
 11
249.9999999999722
 21
175.5
 31
0.0
  0
LINE
  5
A6192
330
1E
100
AcDbEntity
  8
DETAIL
100
AcDbLine
 10
274.9999999999722
 20
-166.4999999999999
 30
0.0
 11
144.6741266215722
 21
-166.5
 31
0.0
  0
LINE
  5
A6193
330
1E
100
AcDbEntity
  8
DETAIL
100
AcDbLine
 10
234.9999999999722
 20
-165.0
 30
0.0
 11
-225.0000000000277
 21
-165.0
 31
0.0
  0
LINE
  5
A6194
330
1E
100
AcDbEntity
  8
DETAIL
100
AcDbLine
 10
274.9999999999722
 20
-163.3
 30
0.0
 11
399.8000000000275
 21
-163.3
 31
0.0
  0
LINE
  5
A6195
330
1E
100
AcDbEntity
  8
DETAIL
100
AcDbLine
 10
-265.0000000000277
 20
163.3
 30
0.0
 11
-407.8000000000272
 21
163.3
 31
0.0
  0
LINE
  5
A6196
330
1E
100
AcDbEntity
  8
DETAIL
100
AcDbLine
 10
-225.0000000000277
 20
165.0000000000001
 30
0.0
 11
-133.0918641813769
 21
165.0
 31
0.0
  0
LINE
  5
A6197
330
1E
100
AcDbEntity
  8
DETAIL
100
AcDbLine
 10
-265.0000000000277
 20
172.5000000000001
 30
0.0
 11
-315.4079124808277
 21
172.5
 31
0.0
  0
LINE
  5
A6198
330
1E
100
AcDbEntity
  8
DETAIL
100
AcDbLine
 10
-265.0000000000277
 20
175.5
 30
0.0
 11
-315.4079124808277
 21
175.5
 31
0.0
  0
LINE
  5
A6199
330
1E
100
AcDbEntity
  8
DETAIL
100
AcDbLine
 10
-240.297802213242
 20
172.5
 30
0.0
 11
-249.7021977868135
 21
172.5
 31
0.0
  0
LINE
  5
A619A
330
1E
100
AcDbEntity
  8
DETAIL
100
AcDbLine
 10
-240.0000000000277
 20
175.5
 30
0.0
 11
-250.0000000000277
 21
175.5
 31
0.0
  0
LINE
  5
A619B
330
1E
100
AcDbEntity
  8
DETAIL
100
AcDbLine
 10
-265.0000000000277
 20
-183.6000000000001
 30
0.0
 11
-359.4741266222277
 21
-183.6000000000001
 31
0.0
  0
LINE
  5
A619D
330
1E
100
AcDbEntity
  8
DETAIL
100
AcDbLine
 10
-250.0000000000277
 20
-176.3999999999999
 30
0.0
 11
-240.0000000000277
 21
-176.3999999999999
 31
0.0
  0
LINE
  5
A619E
330
1E
100
AcDbEntity
  8
DETAIL
100
AcDbLine
 10
-265.0000000000277
 20
-172.1
 30
0.0
 11
-360.3741266222278
 21
-172.0999999999999
 31
0.0
  0
LINE
  5
A619F
330
1E
100
AcDbEntity
  8
DETAIL
100
AcDbLine
 10
-265.0000000000277
 20
-167.8999999999999
 30
0.0
 11
-360.3741266222278
 21
-167.8999999999999
 31
0.0
  0
LINE
  5
A61A0
330
1E
100
AcDbEntity
  8
DETAIL
100
AcDbLine
 10
-265.0000000000277
 20
-166.5
 30
0.0
 11
-360.3741266222278
 21
-166.5
 31
0.0
  0
LINE
  5
A61A1
330
1E
100
AcDbEntity
  8
DETAIL
100
AcDbLine
 10
-265.0000000000277
 20
-165.0
 30
0.0
 11
-397.9600000000278
 21
-165.0
 31
0.0
  0
LINE
  5
A61A2
330
1E
100
AcDbEntity
  8
DETAIL
100
AcDbLine
 10
-225.0000000000277
 20
-163.3
 30
0.0
 11
234.9999999999722
 21
-163.3
 31
0.0
  0
LINE
  5
A61A3
330
1E
100
AcDbEntity
  8
DETAIL
100
AcDbLine
 10
-240.0000000000277
 20
-183.6000000000001
 30
0.0
 11
-250.0000000000277
 21
-183.6000000000001
 31
0.0
  0
LINE
  5
A61A4
330
1E
100
AcDbEntity
  8
DETAIL
100
AcDbLine
 10
-225.0000000000277
 20
-180.6000000000001
 30
0.0
 11
-112.0500000003276
 21
-180.6000000000001
 31
0.0
  0
LINE
  5
A61A5
330
1E
100
AcDbEntity
  8
DETAIL
100
AcDbLine
 10
-225.0000000000277
 20
-176.3999999999999
 30
0.0
 11
-112.0500000003276
 21
-176.3999999999999
 31
0.0
  0
LINE
  5
A61A6
330
1E
100
AcDbEntity
  8
DETAIL
100
AcDbLine
 10
-250.0000000000277
 20
-175.1000000000002
 30
0.0
 11
-250.0000000000277
 21
-186.1000000000001
 31
0.0
  0
LINE
  5
A61A7
330
1E
100
AcDbEntity
  8
DETAIL
100
AcDbLine
 10
-240.0000000000277
 20
-186.1000000000001
 30
0.0
 11
-240.0000000000277
 21
-175.1000000000002
 31
0.0
  0
ARC
  5
A61A8
330
1E
100
AcDbEntity
  8
DETAIL
100
AcDbCircle
 10
-245.0000000000277
 20
-186.1000000000001
 30
0.0
 40
5.0
100
AcDbArc
 50
180.0
 51
0.0
  0
ARC
  5
A61A9
330
1E
100
AcDbEntity
  8
DETAIL
100
AcDbCircle
 10
-245.0000000000277
 20
-175.1000000000002
 30
0.0
 40
5.0
100
AcDbArc
 50
0.0
 51
180.0
  0
LINE
  5
A61AC
330
1E
100
AcDbEntity
  8
DETAIL
100
AcDbLine
 10
460.7792603083681
 20
-74.50000000000007
 30
0.0
 11
422.0000000000263
 21
-82.23401895779451
 31
0.0
  0
ARC
  5
A61B0
330
1E
100
AcDbEntity
  8
DETAIL
100
AcDbCircle
 10
467.1927298231266
 20
19.20963468600013
 30
0.0
 40
10.0
100
AcDbArc
 50
51.80095352022774
 51
88.84377960499573
  0
ARC
  5
A61B1
330
1E
100
AcDbEntity
  8
DETAIL
100
AcDbCircle
 10
450.1679562838271
 20
14.50604157319998
 30
0.0
 40
15.0
100
AcDbArc
 50
58.8097042346599
 51
88.99999999999822
  0
CIRCLE
  5
A61B2
330
1E
100
AcDbEntity
  8
DETAIL
100
AcDbCircle
 10
-257.5000000000295
 20
-184.6
 30
0.0
 40
2.25
  0
CIRCLE
  5
A61B3
330
1E
100
AcDbEntity
  8
DETAIL
100
AcDbCircle
 10
-232.5000000000295
 20
-184.6
 30
0.0
 40
2.25
  0
MTEXT
  5
A6267
330
1E
100
AcDbEntity
  8
NOTE
100
AcDbMText
 10
332.4061398616685
 20
435.7088579186384
 30
0.0
 40
45.0
 41
0.0
 46
0.0
 71
     1
 72
     5
  1

 73
     1
 44
1.0
  0
LWPOLYLINE
  5
A6269
330
1E
100
AcDbEntity
  8
NOTE
370
    -2
100
AcDbPolyline
 90
        2
 70
     0
 43
0.0
 10
8.943192868600505
 20
132.6085717390197
 10
272.3870401403656
 20
787.5962451265048
  0
LINE
  5
A626C
330
1E
100
AcDbEntity
  8
NOTE
370
    -2
100
AcDbLine
 10
32.81148026924464
 20
166.4490753705394
 30
0.0
 11
8.943192868600505
 21
132.6085717390197
 31
0.0
  0
LINE
  5
A626D
330
1E
100
AcDbEntity
  8
NOTE
370
    -2
100
AcDbLine
 10
8.943192868600505
 20
132.6085717390197
 30
0.0
 11
12.69348447371727
 21
173.849451244084
 31
0.0
  0
LINE
  5
A626F
330
1E
100
AcDbEntity
  8
OUTLINE
100
AcDbLine
 10
234.9999999999722
 20
-166.4999999999999
 30
0.0
 11
144.6741266215717
 21
-166.4999999999999
 31
0.0
  0
LINE
  5
A6270
330
1E
100
AcDbEntity
  8
OUTLINE
100
AcDbLine
 10
234.9999999999722
 20
-164.9999999999999
 30
0.0
 11
-225.0000000000277
 21
-164.9999999999999
 31
0.0
  0
LINE
  5
A6271
330
1E
100
AcDbEntity
  8
OUTLINE
100
AcDbLine
 10
259.9999999999722
 20
175.4999999999998
 30
0.0
 11
249.9999999999722
 21
175.4999999999999
 31
0.0
  0
LINE
  5
A6272
330
1E
100
AcDbEntity
  8
OUTLINE
100
AcDbLine
 10
234.9999999999722
 20
175.4999999999998
 30
0.0
 11
233.5920875191718
 21
175.4999999999998
 31
0.0
  0
LINE
  5
A6274
330
1E
100
AcDbEntity
  8
OUTLINE
100
AcDbLine
 10
-265.0000000000277
 20
163.2999999999999
 30
0.0
 11
-407.8000000000272
 21
163.2999999999998
 31
0.0
  0
LINE
  5
A6275
330
1E
100
AcDbEntity
  8
OUTLINE
100
AcDbLine
 10
-240.0000000000277
 20
175.4999999999998
 30
0.0
 11
-250.0000000000277
 21
175.4999999999998
 31
0.0
  0
LINE
  5
A6276
330
1E
100
AcDbEntity
  8
OUTLINE
100
AcDbLine
 10
-240.0000000000277
 20
175.4999999999999
 30
0.0
 11
-250.0000000000277
 21
175.5
 31
0.0
  0
LINE
  5
A6277
330
1E
100
AcDbEntity
  8
OUTLINE
100
AcDbLine
 10
-265.0000000000277
 20
-164.9999999999999
 30
0.0
 11
-397.9600000000278
 21
-164.9999999999999
 31
0.0
  0
LINE
  5
A6279
330
1E
100
AcDbEntity
  8
OUTLINE
100
AcDbLine
 10
-265.0000000000277
 20
-183.6000000000001
 30
0.0
 11
-359.4741266222281
 21
-183.6000000000001
 31
0.0
  0
TEXT
  5
A6386
330
1E
100
AcDbEntity
  8
ETC
100
AcDbText
 10
840.1075244069364
 20
891.3244178285271
 30
0.0
 40
45.0
  1
MUZ-RW50VGHZ-E*_6
 41
0.8
 11
840.1075244069364
 21
885.3244178285272
 31
0.0
100
AcDbText
 73
     1
  0
LINE
  5
A6766
330
1E
100
AcDbEntity
  8
NOTE
100
AcDbLine
 10
622.1493107838396
 20
787.5962451265048
 30
0.0
 11
272.3870401403656
 21
787.5962451265048
 31
0.0
  0
TEXT
  5
A6768
330
1E
100
AcDbEntity
  8
NOTE
100
AcDbText
 10
287.7251120968523
 20
884.9922885434114
 30
0.0
 40
45.0
  1
DRAIN HOLE
 41
0.9
100
AcDbText
  0
TEXT
  5
A6769
330
1E
100
AcDbEntity
  8
NOTE
100
AcDbText
 10
285.6855512093334
 20
795.8298211116826
 30
0.0
 40
45.0
  1
%%C42
 41
0.9
100
AcDbText
  0
TEXT
  5
A6D54
330
1E
100
AcDbEntity
  8
NOTE
100
AcDbText
 10
-201.7703588478121
 20
-362.7687206274857
 30
0.0
 40
45.0
  1
AIR OUT
 41
0.8
100
AcDbText
  0
LINE
  5
A6D55
330
1E
100
AcDbEntity
  8
NOTE
100
AcDbLine
 10
-98.70660479278013
 20
-236.0416411044578
 30
0.0
 11
-122.9478429184755
 21
-236.0416411044578
 31
0.0
  0
LINE
  5
A6D56
330
1E
100
AcDbEntity
  8
NOTE
100
AcDbLine
 10
-110.8272238556292
 20
-300.7506329452855
 30
0.0
 11
-78.6661189628212
 21
-268.6564033592067
 31
0.0
  0
LINE
  5
A6D57
330
1E
100
AcDbEntity
  8
NOTE
100
AcDbLine
 10
-122.9478429184755
 20
-268.6564033592067
 30
0.0
 11
-122.9478429184755
 21
-236.0416411044578
 31
0.0
  0
LINE
  5
A6D58
330
1E
100
AcDbEntity
  8
NOTE
100
AcDbLine
 10
-142.9883287484354
 20
-268.6564033592067
 30
0.0
 11
-122.9478429184755
 21
-268.6564033592067
 31
0.0
  0
LINE
  5
A6D59
330
1E
100
AcDbEntity
  8
NOTE
100
AcDbLine
 10
-142.9883287484354
 20
-268.6564033592067
 30
0.0
 11
-110.8272238556292
 21
-300.7506329452855
 31
0.0
  0
LINE
  5
A6D5A
330
1E
100
AcDbEntity
  8
NOTE
100
AcDbLine
 10
-98.70660479278013
 20
-268.6564033592067
 30
0.0
 11
-98.70660479278013
 21
-236.0416411044578
 31
0.0
  0
LINE
  5
A6D5B
330
1E
100
AcDbEntity
  8
NOTE
100
AcDbLine
 10
-98.70660479278013
 20
-268.6564033592067
 30
0.0
 11
-78.6661189628212
 21
-268.6564033592067
 31
0.0
  0
LINE
  5
A6D5C
330
1E
100
AcDbEntity
  8
NOTE
100
AcDbLine
 10
-104.7204324178224
 20
330.7163887658139
 30
0.0
 11
-84.67994658786301
 21
330.7163887658139
 31
0.0
  0
LINE
  5
A6D5D
330
1E
100
AcDbEntity
  8
NOTE
100
AcDbLine
 10
-116.8410514806719
 20
298.6221591797347
 30
0.0
 11
-84.67994658786301
 21
330.7163887658139
 31
0.0
  0
LINE
  5
A6D5E
330
1E
100
AcDbEntity
  8
NOTE
100
AcDbLine
 10
-104.7204324178224
 20
330.7163887658139
 30
0.0
 11
-104.7204324178224
 21
363.3311510205623
 31
0.0
  0
LINE
  5
A6D5F
330
1E
100
AcDbEntity
  8
NOTE
100
AcDbLine
 10
-128.9616705435182
 20
330.7163887658139
 30
0.0
 11
-128.9616705435182
 21
363.3311510205623
 31
0.0
  0
LINE
  5
A6D60
330
1E
100
AcDbEntity
  8
NOTE
100
AcDbLine
 10
-149.0021563734772
 20
330.7163887658139
 30
0.0
 11
-116.8410514806719
 21
298.6221591797347
 31
0.0
  0
LINE
  5
A6D61
330
1E
100
AcDbEntity
  8
NOTE
100
AcDbLine
 10
-149.0021563734772
 20
330.7163887658139
 30
0.0
 11
-128.9616705435182
 21
330.7163887658139
 31
0.0
  0
LINE
  5
A6D62
330
1E
100
AcDbEntity
  8
NOTE
100
AcDbLine
 10
-104.7204324178224
 20
363.3311510205623
 30
0.0
 11
-128.9616705435182
 21
363.3311510205623
 31
0.0
  0
TEXT
  5
A6D63
330
1E
100
AcDbEntity
  8
NOTE
100
AcDbText
 10
-199.0862986389948
 20
384.5630842760842
 30
0.0
 40
45.0
  1
AIR IN
 41
0.8
100
AcDbText
  0
LINE
  5
A6D64
330
1E
100
AcDbEntity
  8
NOTE
  6
CENTER
100
AcDbLine
 10
-109.9488330597774
 20
-140.2411372863724
 30
0.0
 11
-109.9488330597774
 21
-206.933841252262
 31
0.0
  0
LINE
  5
A6D65
330
1E
100
AcDbEntity
  8
NOTE
100
AcDbLine
 10
-502.2286013775872
 20
-10.35733310643564
 30
0.0
 11
-502.2286013775872
 21
-30.39781893639491
 31
0.0
  0
LINE
  5
A6D66
330
1E
100
AcDbEntity
  8
NOTE
100
AcDbLine
 10
-470.1343717915078
 20
1.763285956413881
 30
0.0
 11
-502.2286013775872
 21
-30.39781893639491
 31
0.0
  0
LINE
  5
A6D67
330
1E
100
AcDbEntity
  8
NOTE
100
AcDbLine
 10
-502.2286013775872
 20
-10.35733310643564
 30
0.0
 11
-534.8433636323361
 21
-10.35733310643564
 31
0.0
  0
LINE
  5
A6D68
330
1E
100
AcDbEntity
  8
NOTE
100
AcDbLine
 10
-502.2286013775872
 20
13.88390501926034
 30
0.0
 11
-534.8433636323361
 21
13.88390501926034
 31
0.0
  0
LINE
  5
A6D69
330
1E
100
AcDbEntity
  8
NOTE
100
AcDbLine
 10
-502.2286013775872
 20
33.92439084921927
 30
0.0
 11
-470.1343717915078
 21
1.763285956413881
 31
0.0
  0
LINE
  5
A6D6A
330
1E
100
AcDbEntity
  8
NOTE
100
AcDbLine
 10
-502.2286013775872
 20
33.92439084921927
 30
0.0
 11
-502.2286013775872
 21
13.88390501926034
 31
0.0
  0
LINE
  5
A6D6B
330
1E
100
AcDbEntity
  8
NOTE
100
AcDbLine
 10
-534.8433636323361
 20
-10.35733310643564
 30
0.0
 11
-534.8433636323361
 21
13.88390501926034
 31
0.0
  0
TEXT
  5
A6D6C
330
1E
100
AcDbEntity
  8
NOTE
100
AcDbText
 10
-700.5842072500936
 20
-22.70920634847067
 30
0.0
 40
45.0
  1
AIR IN
 41
0.8
100
AcDbText
  0
DIMENSION
  5
A6D6D
330
1E
100
AcDbEntity
  8
SIZE
100
AcDbDimension
280
     0
  2
*D5
 10
-245.0000000000273
 20
-539.9811046754074
 30
0.0
 11
-332.5000000000271
 21
-507.4811046754074
 31
0.0
 70
    32
  1
<>
 71
     5
 42
174.9999999999994
 73
     0
 74
     0
 75
     0
  3
STANDARD
100
AcDbAlignedDimension
 13
-420.0000000000267
 23
-142.9999999999999
 33
0.0
 14
-245.0000000000273
 24
-201.5999999999992
 34
0.0
100
AcDbRotatedDimension
1001
ACAD
1000
DSTYLE
1002
{
1070
    77
1070
     1
1070
    41
1040
10.0
1070
    42
1040
10.0
1070
    43
1040
200.0
1070
    44
1040
10.0
1070
    73
1070
     0
1070
    74
1070
     0
1070
    78
1070
     8
1070
   140
1040
45.0
1070
   141
1040
0.082
1070
   147
1040
10.0
1070
   172
1070
     1
1070
   176
1070
   256
1070
   177
1070
   256
1070
   178
1070
   256
1070
   271
1070
     8
1070
   272
1070
     3
1070
   341
1005
46
1070
   342
1005
46
1070
   345
1005
14
1070
   346
1005
14
1070
   347
1005
14
1070
   371
1070
    -1
1070
   372
1070
    -1
1002
}
  0
DIMENSION
  5
A6D6E
330
1E
100
AcDbEntity
  8
SIZE
100
AcDbDimension
280
     0
  2
*D6
 10
254.9999999999727
 20
-539.9811046754074
 30
0.0
 11
4.99999999997266
 21
-507.4811046754074
 31
0.0
 70
    32
  1
<>
 71
     5
 42
500.0
 73
     0
 74
     0
 75
     0
  3
STANDARD
100
AcDbAlignedDimension
 13
-245.0000000000273
 23
-201.5999999999992
 33
0.0
 14
254.9999999999727
 24
-201.6001953129991
 34
0.0
100
AcDbRotatedDimension
1001
ACAD
1000
DSTYLE
1002
{
1070
    41
1040
10.0
1070
    42
1040
10.0
1070
    43
1040
200.0
1070
    44
1040
10.0
1070
    73
1070
     0
1070
    74
1070
     0
1070
    77
1070
     1
1070
    78
1070
     8
1070
   140
1040
45.0
1070
   141
1040
0.082
1070
   147
1040
10.0
1070
   172
1070
     1
1070
   176
1070
   256
1070
   177
1070
   256
1070
   178
1070
   256
1070
   271
1070
     8
1070
   272
1070
     3
1070
   341
1005
46
1070
   342
1005
46
1070
   345
1005
14
1070
   346
1005
14
1070
   347
1005
14
1070
   371
1070
    -1
1070
   372
1070
    -1
1002
}
  0
DIMENSION
  5
A6D6F
330
1E
100
AcDbEntity
  8
SIZE
100
AcDbDimension
280
     0
  2
*D7
 10
733.8543235586637
 20
179.3998046869999
 30
0.0
 11
733.8543235586637
 21
406.6283761155712
 31
0.0
 70
   160
  1
349～371
 71
     5
 42
359.9999999999998
 73
     0
 74
     0
 75
     0
  3
STANDARD
100
AcDbAlignedDimension
 13
263.9999999999763
 23
-180.600195313
 33
0.0
 14
263.9999999999745
 24
179.3998046869998
 34
0.0
 50
90.0
100
AcDbRotatedDimension
1001
ACAD
1000
DSTYLE
1002
{
1070
    41
1040
10.0
1070
    42
1040
10.0
1070
    43
1040
200.0
1070
    44
1040
10.0
1070
    73
1070
     0
1070
    74
1070
     0
1070
    77
1070
     1
1070
    78
1070
     8
1070
   140
1040
45.0
1070
   141
1040
0.082
1070
   147
1040
10.0
1070
   172
1070
     1
1070
   176
1070
   256
1070
   177
1070
   256
1070
   178
1070
   256
1070
   271
1070
     8
1070
   272
1070
     3
1070
   341
1005
46
1070
   342
1005
46
1070
   345
1005
14
1070
   346
1005
14
1070
   347
1005
14
1070
   371
1070
    -1
1070
   372
1070
    -1
1002
}
  0
DIMENSION
  5
A6D70
330
1E
100
AcDbEntity
  8
SIZE
100
AcDbDimension
280
     0
  2
*D8
 10
274.9999999999727
 20
-412.8764978371591
 30
0.0
 11
350.7328624457033
 21
-412.8764978371591
 31
0.0
 70
   160
  1
<>
 71
     5
 42
40.00000000000002
 73
     0
 74
     0
 75
     0
  3
STANDARD
100
AcDbAlignedDimension
 13
234.9999999999727
 23
-186.3844665605
 33
0.0
 14
274.9999999999727
 24
-186.3844665605
 34
0.0
100
AcDbRotatedDimension
1001
ACAD
1000
DSTYLE
1002
{
1070
    41
1040
10.0
1070
    42
1040
10.0
1070
    43
1040
200.0
1070
    44
1040
10.0
1070
    73
1070
     0
1070
    74
1070
     0
1070
    77
1070
     1
1070
    78
1070
     8
1070
   140
1040
45.0
1070
   141
1040
0.082
1070
   147
1040
10.0
1070
   172
1070
     1
1070
   176
1070
   256
1070
   177
1070
   256
1070
   178
1070
   256
1070
   271
1070
     8
1070
   272
1070
     3
1070
   341
1005
46
1070
   342
1005
46
1070
   345
1005
14
1070
   346
1005
14
1070
   347
1005
14
1070
   371
1070
    -1
1070
   372
1070
    -1
1002
}
  0
DIMENSION
  5
A6D71
330
1E
100
AcDbEntity
  8
SIZE
100
AcDbDimension
280
     0
  2
*D9
 10
420.0000000000271
 20
637.3739528685327
 30
0.0
 11
0.0000000000000142
 21
637.3739528685327
 31
0.0
 70
   160
  1
<>
 71
     5
 42
840.0000000000536
 73
     0
 74
     0
 75
     0
  3
STANDARD
100
AcDbAlignedDimension
 13
-420.0000000000267
 23
149.0999999999998
 33
0.0
 14
420.0000000000271
 24
152.9
 34
0.0
100
AcDbRotatedDimension
1001
ACAD
1000
DSTYLE
1002
{
1070
    41
1040
10.0
1070
    42
1040
10.0
1070
    43
1040
200.0
1070
    44
1040
10.0
1070
    73
1070
     0
1070
    74
1070
     0
1070
    77
1070
     1
1070
    78
1070
     8
1070
   140
1040
45.0
1070
   141
1040
0.082
1070
   147
1040
10.0
1070
   172
1070
     1
1070
   176
1070
   256
1070
   177
1070
   256
1070
   178
1070
   256
1070
   271
1070
     8
1070
   272
1070
     3
1070
   341
1005
46
1070
   342
1005
46
1070
   345
1005
14
1070
   346
1005
14
1070
   347
1005
14
1070
   371
1070
    -1
1070
   372
1070
    -1
1002
}
  0
DIMENSION
  5
A6D76
330
1E
100
AcDbEntity
  8
SIZE
100
AcDbDimension
280
     0
  2
*D12
 10
-767.5516257108175
 20
-165.0000000000001
 30
0.0
 11
-767.5516257108174
 21
0.0000000000002842
 31
0.0
 70
   160
  1
<>
 71
     5
 42
330.0000000000001
 73
     0
 74
     0
 75
     0
  3
STANDARD
100
AcDbAlignedDimension
 13
-407.0000000001268
 23
165.0000000000001
 33
0.0
 14
-397.9600000000273
 24
-165.0
 34
0.0
 50
90.0
100
AcDbRotatedDimension
1001
ACAD
1000
DSTYLE
1002
{
1070
    41
1040
10.0
1070
    42
1040
5.0
1070
    43
1040
200.0
1070
    44
1040
10.0
1070
    73
1070
     0
1070
    74
1070
     0
1070
    77
1070
     1
1070
    78
1070
     8
1070
   140
1040
45.0
1070
   141
1040
0.082
1070
   147
1040
10.0
1070
   172
1070
     1
1070
   176
1070
   256
1070
   177
1070
   256
1070
   178
1070
   256
1070
   271
1070
     3
1070
   272
1070
     3
1070
   341
1005
46
1070
   342
1005
46
1070
   345
1005
14
1070
   346
1005
14
1070
   347
1005
14
1070
   371
1070
    -1
1070
   372
1070
    -1
1002
}
  0
MTEXT
  5
A6D79
330
1E
100
AcDbEntity
  8
NOTE
100
AcDbMText
 10
598.4615883713322
 20
-484.2372536533217
 30
0.0
 40
45.0
 41
505.0166151442063
 46
0.0
 71
     1
 72
     5
  1
10×21
 73
     1
 44
0.8
1001
ACAD
1000
ACAD_MTEXT_COLUMN_INFO_BEGIN
1070
    75
1070
     2
1070
    79
1070
     0
1070
    76
1070
     1
1070
    78
1070
     0
1070
    48
1040
505.0166151442063
1070
    49
1040
225.0
1070
    50
1070
     1
1040
50.27484349833053
1000
ACAD_MTEXT_COLUMN_INFO_END
  0
LWPOLYLINE
  5
A6D7A
330
1E
100
AcDbEntity
  8
NOTE
  6
ByBlock
370
    -2
100
AcDbPolyline
 90
        3
 70
     0
 43
0.0
 10
259.562775999605
 20
-188.1449630692946
 10
583.1457259949802
 20
-539.9811046754074
 10
1013.177223537311
 20
-539.9811046754074
  0
LINE
  5
A6D7B
330
1E
100
AcDbEntity
  8
NOTE
370
    -2
100
AcDbLine
 10
279.1932695429866
 20
-224.607526770472
 30
0.0
 11
259.5627758977108
 21
-188.1449631096779
 31
0.0
  0
LINE
  5
A6D7C
330
1E
100
AcDbEntity
  8
NOTE
370
    -2
100
AcDbLine
 10
259.5627758977108
 20
-188.1449631096779
 30
0.0
 11
294.7945638150206
 21
-209.9072228642256
 31
0.0
  0
MTEXT
  5
A6D7D
330
1E
100
AcDbEntity
  8
NOTE
100
AcDbMText
 10
591.3905205594666
 20
-405.4379166238925
 30
0.0
 40
45.0
 41
734.8993637520306
 46
0.0
 71
     1
 72
     5
  1
2-OVAL HOLES
 73
     1
 44
0.8
1001
ACAD
1000
ACAD_MTEXT_COLUMN_INFO_BEGIN
1070
    75
1070
     2
1070
    79
1070
     0
1070
    76
1070
     1
1070
    78
1070
     0
1070
    48
1040
734.8993637520306
1070
    49
1040
225.0
1070
    50
1070
     1
1040
141.6301415045528
1000
ACAD_MTEXT_COLUMN_INFO_END
  0
DIMENSION
  5
A6D8E
330
1E
100
AcDbEntity
  8
SIZE
100
AcDbDimension
280
     0
  2
*D2
 10
876.4364782789627
 20
192.199804687
 30
0.0
 11
843.9364782789626
 21
-2.950195313000314
 31
0.0
 70
    32
  1
<>
 71
     5
 42
390.3000000000001
 73
     0
 74
     0
 75
     0
  3
STANDARD
100
AcDbAlignedDimension
 13
254.9999999999727
 23
-198.1001953130002
 33
0.0
 14
267.4999999999727
 24
192.1998046869998
 34
0.0
 50
90.0
100
AcDbRotatedDimension
1001
ACAD
1000
DSTYLE
1002
{
1070
    41
1040
10.0
1070
    42
1040
10.0
1070
    43
1040
200.0
1070
    44
1040
10.0
1070
    73
1070
     0
1070
    74
1070
     0
1070
    77
1070
     1
1070
    78
1070
     8
1070
   140
1040
45.0
1070
   141
1040
0.082
1070
   147
1040
10.0
1070
   172
1070
     1
1070
   176
1070
   256
1070
   177
1070
   256
1070
   178
1070
   256
1070
   271
1070
     0
1070
   272
1070
     3
1070
   341
1005
46
1070
   342
1005
46
1070
   345
1005
14
1070
   346
1005
14
1070
   347
1005
14
1070
   371
1070
    -1
1070
   372
1070
    -1
1002
}
  0
DIMENSION
  5
A6D90
330
1E
100
AcDbEntity
  8
SIZE
100
AcDbDimension
280
     0
  2
*D3
 10
501.0000000000273
 20
637.3739528685327
 30
0.0
 11
460.5000000000273
 21
669.8739528685327
 31
0.0
 70
    32
  1
<>
 71
     5
 42
80.99999999999958
 73
     0
 74
     0
 75
     0
  3
STANDARD
100
AcDbAlignedDimension
 13
420.0000000000277
 23
152.9
 33
0.0
 14
501.0000000000273
 24
15.41281533599039
 34
0.0
100
AcDbRotatedDimension
1001
ACAD
1000
DSTYLE
1002
{
1070
    41
1040
10.0
1070
    42
1040
10.0
1070
    43
1040
200.0
1070
    44
1040
10.0
1070
    73
1070
     0
1070
    74
1070
     0
1070
    77
1070
     1
1070
    78
1070
     8
1070
   140
1040
45.0
1070
   141
1040
0.082
1070
   147
1040
10.0
1070
   172
1070
     1
1070
   176
1070
   256
1070
   177
1070
   256
1070
   178
1070
   256
1070
   271
1070
     3
1070
   272
1070
     3
1070
   341
1005
46
1070
   342
1005
46
1070
   345
1005
14
1070
   346
1005
14
1070
   347
1005
14
1070
   371
1070
    -1
1070
   372
1070
    -1
1002
}
  0
DIMENSION
  5
A6D92
330
1E
100
AcDbEntity
  8
SIZE
100
AcDbDimension
280
     0
  2
*D4
 10
733.8543235586645
 20
-198.100195313
 30
0.0
 11
701.3543235586644
 21
-279.5287667415716
 31
0.0
 70
    32
  1
<>
 71
     5
 42
17.49999999999991
 73
     0
 74
     0
 75
     0
  3
STANDARD
100
AcDbAlignedDimension
 13
259.9999999999727
 23
-180.6001953130001
 33
0.0
 14
254.9999999999727
 24
-198.100195313
 34
0.0
 50
90.0
100
AcDbRotatedDimension
1001
ACAD
1000
DSTYLE
1002
{
1070
    41
1040
10.0
1070
    42
1040
10.0
1070
    43
1040
200.0
1070
    44
1040
10.0
1070
    73
1070
     0
1070
    74
1070
     0
1070
    77
1070
     1
1070
    78
1070
     8
1070
   140
1040
45.0
1070
   141
1040
0.082
1070
   147
1040
10.0
1070
   172
1070
     1
1070
   176
1070
   256
1070
   177
1070
   256
1070
   178
1070
   256
1070
   271
1070
     3
1070
   272
1070
     3
1070
   341
1005
46
1070
   342
1005
46
1070
   345
1005
14
1070
   346
1005
14
1070
   347
1005
14
1070
   371
1070
    -1
1070
   372
1070
    -1
1002
}
  0
DIMENSION
  5
A6ED2
330
1E
100
AcDbEntity
  8
SIZE
100
AcDbDimension
280
     0
  2
*D15
 10
-2.499630266963341
 20
500.5168674214765
 30
0.0
 11
-211.2498151334953
 21
533.0168674214765
 31
0.0
 70
    32
  1
<>
 71
     5
 42
417.5003697330637
 73
     0
 74
     0
 75
     0
  3
STANDARD
100
AcDbAlignedDimension
 13
-420.0000000000271
 23
149.0999999999996
 33
0.0
 14
-2.499630266963364
 24
145.0552829854329
 34
0.0
100
AcDbRotatedDimension
1001
ACAD
1000
DSTYLE
1002
{
1070
    41
1040
10.0
1070
    42
1040
10.0
1070
    43
1040
200.0
1070
    44
1040
10.0
1070
    73
1070
     0
1070
    74
1070
     0
1070
    77
1070
     1
1070
    78
1070
     8
1070
   140
1040
45.0
1070
   141
1040
0.082
1070
   147
1040
10.0
1070
   172
1070
     1
1070
   176
1070
   256
1070
   177
1070
   256
1070
   178
1070
   256
1070
   271
1070
     3
1070
   272
1070
     3
1070
   341
1005
46
1070
   342
1005
46
1070
   345
1005
14
1070
   346
1005
14
1070
   347
1005
14
1070
   371
1070
    -1
1070
   372
1070
    -1
1002
}
  0
TEXT
  5
A6F07
330
1E
100
AcDbEntity
  8
SIZE
  6
Continuous
100
AcDbText
 10
645.2641991324052
 20
228.2228031157298
 30
0.0
 40
45.0
  1
BOLT PITCH
 50
90.0
 41
0.9
100
AcDbText
  0
DIMENSION
  5
A6F4A
330
1E
100
AcDbEntity
  8
SIZE
100
AcDbDimension
280
     0
  2
*D16
 10
-643.7435388994749
 20
114.9999999999999
 30
0.0
 11
-681.7961887355541
 21
129.0655982857561
 31
0.0
 70
   160
  1
<>
 71
     5
 42
50.00000000000007
 73
     0
 74
     0
 75
     0
  3
STANDARD
100
AcDbAlignedDimension
 13
-407.0000000001273
 23
165.0
 33
0.0
 14
-31.52892218157143
 24
115.0
 34
0.0
 50
90.0
100
AcDbRotatedDimension
1001
ACAD
1000
DSTYLE
1002
{
1070
    41
1040
10.0
1070
    42
1040
10.0
1070
    43
1040
200.0
1070
    44
1040
10.0
1070
    73
1070
     0
1070
    74
1070
     0
1070
    77
1070
     1
1070
    78
1070
     8
1070
   140
1040
45.0
1070
   141
1040
0.082
1070
   147
1040
10.0
1070
   172
1070
     1
1070
   176
1070
   256
1070
   177
1070
   256
1070
   178
1070
   256
1070
   271
1070
     3
1070
   272
1070
     3
1070
   279
1070
     2
1070
   341
1005
46
1070
   342
1005
46
1070
   345
1005
14
1070
   346
1005
14
1070
   347
1005
14
1070
   371
1070
    -1
1070
   372
1070
    -1
1002
}
  0
LINE
  5
A72B0
330
1E
100
AcDbEntity
  8
OUTLINE
100
AcDbLine
 10
-407.0000000001273
 20
165.0
 30
0.0
 11
-265.0000000000277
 21
165.0
 31
0.0
  0
LINE
  5
A72B1
330
1E
100
AcDbEntity
  8
OUTLINE
100
AcDbLine
 10
297.3418641813215
 20
165.0
 30
0.0
 11
313.4828107315925
 21
165.0
 31
0.0
  0
LINE
  5
A72B3
330
1E
100
AcDbEntity
  8
OUTLINE
100
AcDbLine
 10
-225.0000000000277
 20
165.0
 30
0.0
 11
-133.091864181377
 21
165.0
 31
0.0
  0
LINE
  5
A72B4
330
1E
100
AcDbEntity
  8
OUTLINE
100
AcDbLine
 10
-265.0000000000277
 20
175.4999999999999
 30
0.0
 11
-315.4079124808277
 21
175.4999999999998
 31
0.0
  0
LINE
  5
A72B5
330
1E
100
AcDbEntity
  8
OUTLINE
100
AcDbLine
 10
-86.80813581867855
 20
165.0
 30
0.0
 11
234.9999999999722
 21
165.0
 31
0.0
  0
ENDSEC
  0
SECTION
  2
OBJECTS
  0
DICTIONARY
  5
C
330
0
100
AcDbDictionary
281
     1
  3
ACAD_BACKGROUND
350
A728C
  3
ACAD_CIP_PREVIOUS_PRODUCT_INFO
350
86ECE
  3
ACAD_COLOR
350
86EB2
  3
ACAD_DETAILVIEWSTYLE
350
86ECB
  3
ACAD_FIELDLIST
350
A70A6
  3
ACAD_GROUP
350
D
  3
ACAD_LAYOUT
350
19
  3
ACAD_MATERIAL
350
86E80
  3
ACAD_MLEADERSTYLE
350
86EC7
  3
ACAD_MLINESTYLE
350
16
  3
ACAD_PLOTSETTINGS
350
18
  3
ACAD_PLOTSTYLENAME
350
E
  3
ACAD_SCALELIST
350
86EB5
  3
ACAD_SECTIONVIEWSTYLE
350
86EC9
  3
ACAD_TABLESTYLE
350
86EB3
  3
ACAD_VISUALSTYLE
350
86E99
  3
ACDB_RECOMPOSE_DATA
350
A72C1
  3
AcDbVariableDictionary
350
86ED5
  3
AcDsDecomposeData
350
A72C7
  3
AcmDictionary
350
A7062
  3
AMG
350
A7037
  3
AMGSNAPSETTINGS
350
A70B9
  0
DICTIONARY
  5
87810
330
2
100
AcDbDictionary
280
     1
281
     1
  3
ACAD_LAYERSTATES
360
87811
  0
DICTIONARY
  5
86EEC
330
10
100
AcDbDictionary
280
     1
281
     1
  3
ADSK_XREC_LAYER_RECONCILED
360
86EED
  0
DICTIONARY
  5
86EEE
330
22
100
AcDbDictionary
280
     1
281
     1
  3
ADSK_XREC_LAYER_RECONCILED
360
86EEF
  0
DICTIONARY
  5
86EF4
330
33
100
AcDbDictionary
280
     1
281
     1
  3
ADSK_XREC_LAYER_RECONCILED
360
86EF5
  0
DICTIONARY
  5
86EF8
330
35
100
AcDbDictionary
280
     1
281
     1
  3
ADSK_XREC_LAYER_RECONCILED
360
86EF9
  0
DICTIONARY
  5
86EFA
330
37
100
AcDbDictionary
280
     1
281
     1
  3
ADSK_XREC_LAYER_RECONCILED
360
86EFB
  0
DICTIONARY
  5
A5C23
330
A5C22
100
AcDbDictionary
280
     1
281
     1
  0
DICTIONARY
  5
A5C25
330
A5C24
100
AcDbDictionary
280
     1
281
     1
  0
DICTIONARY
  5
A5C27
330
A5C26
100
AcDbDictionary
280
     1
281
     1
  0
DICTIONARY
  5
A5C29
330
A5C28
100
AcDbDictionary
280
     1
281
     1
  0
DICTIONARY
  5
66E76
330
1E
100
AcDbDictionary
280
     1
281
     1
  3
ACAD_LAYOUTSELFREF
360
851A0
  3
ACAD_SORTENTS
360
8A32F
  0
DICTIONARY
  5
66E74
330
1A
100
AcDbDictionary
280
     1
281
     1
  3
ACAD_LAYOUTSELFREF
360
8519F
  0
DICTIONARY
  5
A728C
102
{ACAD_REACTORS
330
C
102
}
330
C
100
AcDbDictionary
281
     1
  0
XRECORD
  5
86ECE
102
{ACAD_REACTORS
330
C
102
}
330
C
100
AcDbXrecord
280
     1
300
ACDLT
300
2021
300

  0
DICTIONARY
  5
86EB2
102
{ACAD_REACTORS
330
C
102
}
330
C
100
AcDbDictionary
281
     1
  0
DICTIONARY
  5
86ECB
102
{ACAD_REACTORS
330
C
102
}
330
C
100
AcDbDictionary
281
     1
  3
Imperial24
350
86ECC
  3
Metric50
350
87813
  0
FIELDLIST
  5
A70A6
102
{ACAD_REACTORS
330
C
102
}
330
C
100
AcDbIdSet
 90
        0
100
AcDbFieldList
  0
DICTIONARY
  5
D
102
{ACAD_REACTORS
330
C
102
}
330
C
100
AcDbDictionary
281
     1
  0
DICTIONARY
  5
19
102
{ACAD_REACTORS
330
C
102
}
330
C
100
AcDbDictionary
281
     1
  3
Model
350
851A5
  3
ﾚｲｱｳﾄ1
350
851A6
  0
DICTIONARY
  5
86E80
102
{ACAD_REACTORS
330
C
102
}
330
C
100
AcDbDictionary
281
     1
  3
ByBlock
350
86E89
  3
ByLayer
350
86E81
  3
Global
350
86E91
  0
DICTIONARY
  5
86EC7
102
{ACAD_REACTORS
330
C
102
}
330
C
100
AcDbDictionary
281
     1
  3
Standard
350
86EC8
  0
DICTIONARY
  5
16
102
{ACAD_REACTORS
330
C
102
}
330
C
100
AcDbDictionary
281
     1
  3
STANDARD
350
17
  0
DICTIONARY
  5
18
102
{ACAD_REACTORS
330
C
102
}
330
C
100
AcDbDictionary
281
     1
  0
ACDBDICTIONARYWDFLT
  5
E
102
{ACAD_REACTORS
330
C
102
}
330
C
100
AcDbDictionary
281
     1
  3
Normal
350
F
100
AcDbDictionaryWithDefault
340
F
  0
DICTIONARY
  5
86EB5
102
{ACAD_REACTORS
330
C
102
}
330
C
100
AcDbDictionary
281
     1
  3
A0
350
86EB6
  3
A1
350
86EB7
  3
A2
350
86EB8
  3
A3
350
86EB9
  3
A4
350
86EBA
  3
A5
350
86EBB
  3
A6
350
86EBC
  3
A7
350
86EBD
  3
A8
350
86EBE
  3
A9
350
86EBF
  3
B0
350
86EC0
  3
B1
350
86EC1
  3
B2
350
86EC2
  3
B3
350
86EC3
  3
B4
350
86EC4
  3
B5
350
86EC5
  3
B6
350
86EC6
  0
DICTIONARY
  5
86EC9
102
{ACAD_REACTORS
330
C
102
}
330
C
100
AcDbDictionary
281
     1
  3
Imperial24
350
86ECA
  3
Metric50
350
87812
  0
DICTIONARY
  5
86EB3
102
{ACAD_REACTORS
330
C
102
}
330
C
100
AcDbDictionary
281
     1
  3
Standard
350
86EB4
  0
DICTIONARY
  5
86E99
102
{ACAD_REACTORS
330
C
102
}
330
C
100
AcDbDictionary
281
     1
  3
2dWireframe
350
86E9F
  3
Basic
350
86E9E
  3
Brighten
350
86EA5
  3
ColorChange
350
86EA9
  3
Conceptual
350
86EA2
  3
Dim
350
86EA4
  3
EdgeColorOff
350
86EB1
  3
Facepattern
350
86EA8
  3
Flat
350
86E9A
  3
FlatWithEdges
350
86E9B
  3
Gouraud
350
86E9C
  3
GouraudWithEdges
350
86E9D
  3
Hidden
350
86EA1
  3
JitterOff
350
86EAF
  3
Linepattern
350
86EA7
  3
OverhangOff
350
86EB0
  3
Realistic
350
86EA3
  3
Shaded
350
86EAE
  3
Shaded with edges
350
86EAD
  3
Shades of Gray
350
86EAA
  3
Sketchy
350
86EAB
  3
Thicken
350
86EA6
  3
Wireframe
350
86EA0
  3
X-Ray
350
86EAC
  0
XRECORD
  5
A72C1
102
{ACAD_REACTORS
330
C
102
}
330
C
100
AcDbXrecord
280
     1
 90
        1
330
86EB4
330
A6D79
330
A6D7D
  0
DICTIONARY
  5
86ED5
102
{ACAD_REACTORS
330
C
102
}
330
C
100
AcDbDictionary
281
     1
  3
CANNOSCALE
350
86EDB
  3
CMLEADERSTYLE
350
86ED7
  3
CTABLESTYLE
350
86ED6
  3
CVIEWDETAILSTYLE
350
86ED8
  3
CVIEWSECTIONSTYLE
350
86ED9
  3
LAYEREVAL
350
86EDD
  3
LAYERNOTIFY
350
86EDE
  3
LIGHTINGUNITS
350
86EDC
  3
MSLTSCALE
350
86EDA
  0
DICTIONARY
  5
A72C7
102
{ACAD_REACTORS
330
C
102
}
330
C
100
AcDbDictionary
281
     1
  3
AcDsRecords
350
A72C9
  3
AcDsSchemas
350
A72C8
1001
ACAD
1070
     2
  0
DICTIONARY
  5
A7062
102
{ACAD_REACTORS
330
C
102
}
330
C
100
AcDbDictionary
281
     1
  3
AcmStdDictionary
350
A7069
  0
DICTIONARY
  5
A7037
102
{ACAD_REACTORS
330
C
102
}
330
C
100
AcDbDictionary
281
     1
  0
DICTIONARY
  5
A70B9
102
{ACAD_REACTORS
330
C
102
}
330
C
100
AcDbDictionary
281
     1
  0
DICTIONARY
  5
87811
102
{ACAD_REACTORS
330
87810
102
}
330
87810
100
AcDbDictionary
281
     1
  0
XRECORD
  5
86EED
102
{ACAD_REACTORS
330
86EEC
102
}
330
86EEC
100
AcDbXrecord
280
     1
290
     1
  0
XRECORD
  5
86EEF
102
{ACAD_REACTORS
330
86EEE
102
}
330
86EEE
100
AcDbXrecord
280
     1
290
     1
  0
XRECORD
  5
86EF5
102
{ACAD_REACTORS
330
86EF4
102
}
330
86EF4
100
AcDbXrecord
280
     1
290
     1
  0
XRECORD
  5
86EF9
102
{ACAD_REACTORS
330
86EF8
102
}
330
86EF8
100
AcDbXrecord
280
     1
290
     1
  0
XRECORD
  5
86EFB
102
{ACAD_REACTORS
330
86EFA
102
}
330
86EFA
100
AcDbXrecord
280
     1
290
     1
  0
XRECORD
  5
851A0
102
{ACAD_REACTORS
330
66E76
102
}
330
66E76
100
AcDbXrecord
280
     1
340
1E
  0
SORTENTSTABLE
  5
8A32F
102
{ACAD_REACTORS
330
66E76
102
}
330
66E76
100
AcDbSortentsTable
330
1E
331
A5E8C
  5
A5E8E
331
A5E8D
  5
A5E91
331
A5E8E
  5
A5E92
331
A5E8F
  5
A5E93
331
A5E90
  5
A5E94
331
A5E91
  5
A5E97
331
A5E92
  5
A5E98
331
A5E93
  5
A5E99
331
A5E94
  5
A5E9B
331
A5E95
  5
A5E9C
331
A5E96
  5
A5E9E
331
A5E97
  5
A5E9F
331
A5E98
  5
A5EA2
331
A5E99
  5
A5EA4
331
A5E9A
  5
A5EA5
331
A5E9B
  5
A5EA8
331
A5E9C
  5
A5EA9
331
A5E9D
  5
A5EAC
331
A5E9E
  5
A5EB1
331
A5E9F
  5
A5EB2
331
A5EA2
  5
A5EB3
331
A5EA3
  5
A5EB4
331
A5EA4
  5
A5EB5
331
A5EA5
  5
A5EB6
331
A5EA6
  5
A5EB7
331
A5EA8
  5
A5EB8
331
A5EA9
  5
A5EBC
331
A5EAA
  5
A5EBD
331
A5EAB
  5
A5EBE
331
A5EAC
  5
A5EBF
331
A5EAD
  5
A5EC0
331
A5EAE
  5
A5EC1
331
A5EB1
  5
A5EC2
331
A5EB2
  5
A5EC3
331
A5EB3
  5
A5EC4
331
A5EB4
  5
A5EC5
331
A5EB5
  5
A5EC6
331
A5EB6
  5
A5EC8
331
A5EB7
  5
A5EC9
331
A5EB8
  5
A5ECA
331
A5EBC
  5
A5ECB
331
A5EBD
  5
A5ECE
331
A5EBE
  5
A5ECF
331
A5EBF
  5
A5ED0
331
A5EC0
  5
A5ED1
331
A5EC1
  5
A5ED3
331
A5EC2
  5
A5ED4
331
A5EC3
  5
A5ED6
331
A5EC4
  5
A5ED7
331
A5EC5
  5
A5ED8
331
A5EC6
  5
A5ED9
331
A5EC7
  5
A5EDA
331
A5EC8
  5
A5EDB
331
A5EC9
  5
A5EDC
331
A5ECA
  5
A5EDE
331
A5ECB
  5
A5EDF
331
A5ECE
  5
A5EE0
331
A5ECF
  5
A5EE1
331
A5ED0
  5
A5EE4
331
A5ED1
  5
A5EE5
331
A5ED2
  5
A5EE6
331
A5ED3
  5
A5EED
331
A5ED4
  5
A5EEE
331
A5ED5
  5
A5EF1
331
A5ED6
  5
A5EF2
331
A5ED7
  5
A5EF3
331
A5ED8
  5
A5EF6
331
A5ED9
  5
A5EF7
331
A5EDA
  5
A5EF8
331
A5EDB
  5
A5EF9
331
A5EDC
  5
A5EFA
331
A5EDE
  5
A5EFB
331
A5EDF
  5
A5EFC
331
A5EE0
  5
A5EFD
331
A5EE1
  5
A5EFE
331
A5EE2
  5
A5EFF
331
A5EE3
  5
A5F00
331
A5EE4
  5
A5F03
331
A5EE5
  5
A5F04
331
A5EE6
  5
A5F05
331
A5EE7
  5
A5F06
331
A5EEC
  5
A5F07
331
A5EED
  5
A5F08
331
A5EEE
  5
A5F09
331
A5EEF
  5
A5F0A
331
A5EF0
  5
A5F0C
331
A5EF1
  5
A5F0F
331
A5EF2
  5
A5F10
331
A5EFB
  5
A5F1E
331
A5EFC
  5
A5F1F
331
A5EFD
  5
A5F20
331
A5EFE
  5
A5F21
331
A5EFF
  5
A5F22
331
A5F00
  5
A5F23
331
A5F03
  5
A5F24
331
A5F04
  5
A5F25
331
A5F05
  5
A5F26
331
A5F06
  5
A5F27
331
A5F07
  5
A5F28
331
A5F0C
  5
A5F2A
331
A5F0F
  5
A5F2B
331
A5F10
  5
A5F2C
331
A5F11
  5
A5F2D
331
A5F15
  5
A5F2E
331
A5F16
  5
A5F2F
331
A5F17
  5
A5F30
331
A5F18
  5
A5F34
331
A5F19
  5
A5F35
331
A5F1A
  5
A5F36
331
A5F1B
  5
A5F37
331
A5F1C
  5
A5F38
331
A5F1D
  5
A5F39
331
A5F1E
  5
A5F3A
331
A5F1F
  5
A5F3B
331
A5F20
  5
A5F3C
331
A5F21
  5
A5F3D
331
A5F22
  5
A5F3E
331
A5F23
  5
A5F3F
331
A5F24
  5
A5F40
331
A5F25
  5
A5F41
331
A5F26
  5
A5F43
331
A5F27
  5
A5F44
331
A5F28
  5
A5F47
331
A5F29
  5
A5F48
331
A5F2A
  5
A5F49
331
A5F2B
  5
A5F4A
331
A5F2C
  5
A5F4B
331
A5F2D
  5
A5F4C
331
A5F2E
  5
A5F4D
331
A5F2F
  5
A5F4E
331
A5F30
  5
A5F4F
331
A5F34
  5
A5F50
331
A5F35
  5
A5F51
331
A5F36
  5
A5F52
331
A5F37
  5
A5F53
331
A5F38
  5
A5F54
331
A5F39
  5
A5F55
331
A5F3A
  5
A5F56
331
A5F3C
  5
A5F58
331
A5F3E
  5
A5F59
331
A5F3F
  5
A5F5A
331
A5F40
  5
A5F5B
331
A5F41
  5
A5F5F
331
A5F42
  5
A5F60
331
A5F43
  5
A5F61
331
A5F44
  5
A5F62
331
A5F47
  5
A5F63
331
A5F50
  5
A5F6E
331
A5F51
  5
A5F6F
331
A5F52
  5
A5F70
331
A5F53
  5
A5F71
331
A5F54
  5
A5F72
331
A5F55
  5
A5F73
331
A5F56
  5
A5F74
331
A5F57
  5
A5F75
331
A5F58
  5
A5F76
331
A5F59
  5
A5F77
331
A5F5A
  5
A5F78
331
A5F5B
  5
A5F79
331
A5F5F
  5
A5F7A
331
A5F60
  5
A5F7B
331
A5F61
  5
A5F7C
331
A5F62
  5
A5F7D
331
A5F63
  5
A5F7E
331
A5F66
  5
A5F81
331
A5F69
  5
A5F84
331
A5F6A
  5
A5F85
331
A5F6B
  5
A5F86
331
A5F6C
  5
A5F87
331
A5F6D
  5
A5F88
331
A5F6F
  5
A5F8A
331
A5F70
  5
A5F8B
331
A5F72
  5
A5F8D
331
A5F73
  5
A5F90
331
A5F74
  5
A5F91
331
A5F75
  5
A5F92
331
A5F76
  5
A5F93
331
A5F77
  5
A5F94
331
A5F78
  5
A5F95
331
A5F79
  5
A5F96
331
A5F7A
  5
A5F97
331
A5F7B
  5
A5F9A
331
A5F7E
  5
A5F9B
331
A5F7F
  5
A5F9C
331
A5F80
  5
A5F9D
331
A5F81
  5
A5F9E
331
A5F82
  5
A5F9F
331
A5F83
  5
A5FA0
331
A5F84
  5
A5FA1
331
A5F85
  5
A5FA2
331
A5F86
  5
A5FA3
331
A5F87
  5
A5FA4
331
A5F88
  5
A5FA5
331
A5F89
  5
A5FA6
331
A5F8A
  5
A5FA7
331
A5F8B
  5
A5FA8
331
A5F8C
  5
A5FA9
331
A5F8D
  5
A5FAA
331
A5F8E
  5
A5FAB
331
A5F8F
  5
A5FAC
331
A5F90
  5
A5FAD
331
A5F91
  5
A5FAE
331
A5F92
  5
A5FAF
331
A5F93
  5
A5FB0
331
A5F94
  5
A5FB1
331
A5F95
  5
A5FB2
331
A5F96
  5
A5FB3
331
A5F97
  5
A5FB4
331
A5F98
  5
A5FB5
331
A5F99
  5
A5FB6
331
A5F9A
  5
A5FB7
331
A5F9B
  5
A5FB8
331
A5F9C
  5
A5FC1
331
A5F9D
  5
A5FC2
331
A5F9E
  5
A5FC3
331
A5F9F
  5
A5FC4
331
A5FA0
  5
A5FC5
331
A5FA1
  5
A5FC6
331
A5FA2
  5
A5FC7
331
A5FA3
  5
A5FC8
331
A5FA4
  5
A5FC9
331
A5FA5
  5
A5FCA
331
A5FA6
  5
A5FCB
331
A5FA7
  5
A5FCC
331
A5FC1
  5
A5FDE
331
A5FC2
  5
A5FDF
331
A5FC3
  5
A5FE0
331
A5FC4
  5
A5FE1
331
A5FC5
  5
A5FE2
331
A5FC6
  5
A5FE3
331
A5FC7
  5
A5FE4
331
A5FC8
  5
A5FE5
331
A5FC9
  5
A5FE6
331
A5FCA
  5
A5FE7
331
A5FCB
  5
A5FE8
331
A5FCC
  5
A5FE9
331
A5FCD
  5
A5FEA
331
A5FCE
  5
A5FEB
331
A5FCF
  5
A5FEC
331
A5FD0
  5
A5FED
331
A5FD1
  5
A5FEE
331
A5FD2
  5
A5FEF
331
A5FD3
  5
A5FF0
331
A5FD4
  5
A5FF1
331
A5FD5
  5
A5FF2
331
A5FD6
  5
A5FF3
331
A5FD7
  5
A5FF4
331
A5FD8
  5
A5FF5
331
A5FD9
  5
A5FF6
331
A5FDA
  5
A5FF7
331
A5FDB
  5
A5FF8
331
A5FDC
  5
A5FF9
331
A5FDD
  5
A5FFA
331
A5FDE
  5
A5FFB
331
A5FDF
  5
A5FFC
331
A5FE0
  5
A5FFD
331
A5FE1
  5
A5FFE
331
A5FE2
  5
A6001
331
A5FE3
  5
A6003
331
A5FE4
  5
A6004
331
A5FE5
  5
A6005
331
A5FE6
  5
A6006
331
A5FE7
  5
A6007
331
A5FE8
  5
A6008
331
A5FE9
  5
A6009
331
A5FEA
  5
A600A
331
A5FEB
  5
A600B
331
A5FEC
  5
A600C
331
A5FED
  5
A600D
331
A5FEE
  5
A600E
331
A5FEF
  5
A600F
331
A5FF0
  5
A6010
331
A5FF1
  5
A6011
331
A5FF2
  5
A6012
331
A5FF3
  5
A6013
331
A5FF4
  5
A6014
331
A5FF5
  5
A6015
331
A5FF6
  5
A6016
331
A5FF7
  5
A6017
331
A5FF8
  5
A6018
331
A5FF9
  5
A6019
331
A5FFA
  5
A601A
331
A5FFB
  5
A601B
331
A5FFC
  5
A601C
331
A5FFD
  5
A601D
331
A5FFE
  5
A6020
331
A5FFF
  5
A6021
331
A6000
  5
A6022
331
A6001
  5
A6183
331
A6002
  5
A6184
331
A6003
  5
A6185
331
A6004
  5
A618D
331
A6005
  5
A618E
331
A6006
  5
A618F
331
A6007
  5
A6190
331
A6008
  5
A6191
331
A6009
  5
A6192
331
A600A
  5
A6193
331
A600B
  5
A6194
331
A600C
  5
A6195
331
A600D
  5
A6196
331
A600E
  5
A6197
331
A600F
  5
A6198
331
A6010
  5
A619A
331
A6011
  5
A619B
331
A6012
  5
A619C
331
A6013
  5
A619D
331
A6014
  5
A61A0
331
A6015
  5
A61A2
331
A6016
  5
A61A3
331
A6017
  5
A61A4
331
A6018
  5
A61A5
331
A6019
  5
A61A6
331
A601A
  5
A61A7
331
A601C
  5
A61A8
331
A601D
  5
A61A9
331
A601E
  5
A61AA
331
A601F
  5
A61AC
331
A6020
  5
A61B1
331
A6021
  5
A61B3
331
A6022
  5
A6268
331
A6177
  5
A626A
331
A618D
  5
A5EE3
331
A618E
  5
A5EF0
331
A618F
  5
A5EE2
331
A6190
  5
A5EEF
331
A6192
  5
A5EA3
331
A6193
  5
A5EAA
331
A6194
  5
A5EAE
331
A6195
  5
A5ED2
331
A6196
  5
A5ED5
331
A6197
  5
A5EEC
331
A6198
  5
A5EF5
331
A6199
  5
A5EE7
331
A619A
  5
A5EF4
331
A619B
  5
A5E8D
331
A619D
  5
A5E95
331
A619E
  5
A5E9A
331
A619F
  5
A5E9D
331
A61A0
  5
A5EA6
331
A61A1
  5
A5EAB
331
A61A2
  5
A5EAD
331
A61A3
  5
A5E8C
331
A61A4
  5
A5E90
331
A61A5
  5
A5E96
331
A61A6
  5
A626B
331
A61A7
  5
A626D
331
A61A8
  5
A626E
331
A61A9
  5
A626F
331
A61AC
  5
A6270
331
A61B0
  5
A5F67
331
A61B1
  5
A5F65
331
A61B2
  5
A6273
331
A61B3
  5
A6275
331
A6267
  5
A6276
331
A6269
  5
A6277
331
A626C
  5
A6386
331
A626D
  5
A6766
331
A626F
  5
A6002
331
A6270
  5
A5F8E
331
A6271
  5
A601E
331
A6272
  5
A601F
331
A6274
  5
A619E
331
A6275
  5
A6023
331
A6276
  5
A6177
331
A6277
  5
A5F8F
331
A6279
  5
A6000
331
A6386
  5
A6768
331
A6766
  5
A6769
331
A6768
  5
A6D54
331
A6769
  5
A6D55
331
A6D54
  5
A6D56
331
A6D55
  5
A6D57
331
A6D56
  5
A6D58
331
A6D57
  5
A6D59
331
A6D58
  5
A6D5A
331
A6D59
  5
A6D5B
331
A6D5A
  5
A6D5C
331
A6D5B
  5
A6D5D
331
A6D5C
  5
A6D5E
331
A6D5D
  5
A6D5F
331
A6D5E
  5
A6D60
331
A6D5F
  5
A6D61
331
A6D60
  5
A6D62
331
A6D61
  5
A6D63
331
A6D62
  5
A6D64
331
A6D63
  5
A6D65
331
A6D64
  5
A6D66
331
A6D65
  5
A6D67
331
A6D66
  5
A6D68
331
A6D67
  5
A6D69
331
A6D68
  5
A6D6A
331
A6D69
  5
A6D6B
331
A6D6A
  5
A6D6C
331
A6D6B
  5
A6D6D
331
A6D6C
  5
A6D6E
331
A6D6D
  5
A6D6F
331
A6D6E
  5
A6D70
331
A6D6F
  5
A6D71
331
A6D70
  5
A6D76
331
A6D71
  5
A6D79
331
A6D76
  5
A6D7A
331
A6D79
  5
A6D7B
331
A6D7A
  5
A6D7C
331
A6D7B
  5
A6D7D
331
A6D7C
  5
A6D8E
331
A6D7D
  5
A6D90
331
A6D8E
  5
A6D92
331
A6D90
  5
A6ED2
331
A6D92
  5
A6F07
331
A6ED2
  5
A6F4A
331
A6F07
  5
A72B0
331
A6F4A
  5
A72B1
331
A72B0
  5
A72B2
331
A72B1
  5
A72B5
331
A72B4
  5
A6182
331
A72B5
  5
A72B4
  0
XRECORD
  5
8519F
102
{ACAD_REACTORS
330
66E74
102
}
330
66E74
100
AcDbXrecord
280
     1
340
1A
  0
ACDBDETAILVIEWSTYLE
  5
86ECC
102
{ACAD_XDICTIONARY
360
A72CC
102
}
102
{ACAD_REACTORS
330
86ECB
102
}
330
86ECB
100
AcDbModelDocViewStyle
 70
     0
  3
Imperial24
290
     0
100
AcDbDetailViewStyle
 70
     0
 71
     0
 90
        3
 71
     1
340
11
 62
   256
 40
0.24
340
0
 62
   256
 40
0.24
300

 40
0.36
280
     3
 71
     2
340
15
 90
       25
 62
   256
 71
     3
340
11
 62
   256
 40
0.24
 90
        1
 40
0.75
 90
        1
300
%<\AcVar ViewType \f "%tc1">% %<\AcVar ViewDetailId>%\PSCALE %<\AcVar ViewScale \f "%sn">%
 71
     4
340
15
 90
       25
 62
   256
340
15
 90
       25
 62
   256
280
     0
  0
ACDBDETAILVIEWSTYLE
  5
87813
102
{ACAD_XDICTIONARY
360
A72D0
102
}
102
{ACAD_REACTORS
330
86ECB
102
}
330
86ECB
100
AcDbModelDocViewStyle
 70
     0
  3
Metric50
290
     0
100
AcDbDetailViewStyle
 70
     0
 71
     0
 90
        3
 71
     1
340
11
 62
   256
 40
5.0
340
0
 62
   256
 40
5.0
300

 40
0.0
280
     1
 71
     2
340
15
 90
       25
 62
   256
 71
     3
340
11
 62
   256
 40
5.0
 90
        0
 40
15.0
 90
        1
300
%<\AcVar ViewDetailId>% (%<\AcVar ViewScale \f "%sn">%)
 71
     4
340
15
 90
       25
 62
   256
340
15
 90
       25
 62
   256
280
     0
  0
LAYOUT
  5
851A5
102
{ACAD_REACTORS
330
19
102
}
330
19
100
AcDbPlotSettings
  1

  2
\\PC07\EPSON LP-8900
  4
A4
  6
ALL
 40
5.873749732971191
 41
5.873747825622557
 42
5.873748779296875
 43
5.873748779296875
 44
209.9733276367186
 45
297.0106506347656
 46
0.0
 47
0.0
 48
0.0
 49
0.0
140
0.0
141
0.0
142
1.0
143
230.4667882076691
 70
 11952
 72
     0
 73
     1
 74
     0
  7
monochrome.ctb
 75
     0
147
0.0043390199853825
 76
     0
 77
     2
 78
   300
148
32587.6637119656
149
15204.77188839906
100
AcDbLayout
  1
Model
 70
     1
 71
     0
 10
0.0
 20
0.0
 11
12.0
 21
9.0
 12
0.0
 22
0.0
 32
0.0
 14
0.0
 24
0.0
 34
0.0
 15
0.0
 25
0.0
 35
0.0
146
0.0
 13
0.0
 23
0.0
 33
0.0
 16
1.0
 26
0.0
 36
0.0
 17
0.0
 27
1.0
 37
0.0
 76
     0
330
1E
331
86E7B
  0
LAYOUT
  5
851A6
102
{ACAD_REACTORS
330
19
102
}
330
19
100
AcDbPlotSettings
  1

  2
\\PC07\EPSON LP-8900
  4

  6

 40
0.0
 41
0.0
 42
0.0
 43
0.0
 44
0.0
 45
0.0
 46
0.0
 47
0.0
 48
0.0
 49
0.0
140
0.0
141
0.0
142
1.0
143
1.0
 70
   688
 72
     0
 73
     0
 74
     5
  7
monochrome.ctb
 75
    16
147
1.0
 76
     0
 77
     2
 78
   300
148
0.0
149
0.0
100
AcDbLayout
  1
ﾚｲｱｳﾄ1
 70
     1
 71
     1
 10
0.0
 20
0.0
 11
12.0
 21
9.0
 12
0.0
 22
0.0
 32
0.0
 14
1.000000000000000E+20
 24
1.000000000000000E+20
 34
1.000000000000000E+20
 15
-1.000000000000000E+20
 25
-1.000000000000000E+20
 35
-1.000000000000000E+20
146
0.0
 13
0.0
 23
0.0
 33
0.0
 16
1.0
 26
0.0
 36
0.0
 17
0.0
 27
1.0
 37
0.0
 76
     0
330
1A
  0
MATERIAL
  5
86E89
102
{ACAD_XDICTIONARY
360
86E8A
102
}
102
{ACAD_REACTORS
330
86E80
102
}
330
86E80
100
AcDbMaterial
  1
ByBlock
 72
     0
 43
0.0208333333333333
 43
0.0
 43
0.0
 43
0.0
 43
0.0
 43
0.0208333333333333
 43
0.0
 43
0.0
 43
0.0
 43
0.0
 43
1.0
 43
0.0
 43
0.0
 43
0.0
 43
0.0
 43
1.0
 77
     0
 47
0.0208333333333333
 47
0.0
 47
0.0
 47
0.0
 47
0.0
 47
0.0208333333333333
 47
0.0
 47
0.0
 47
0.0
 47
0.0
 47
1.0
 47
0.0
 47
0.0
 47
0.0
 47
0.0
 47
1.0
171
     0
 49
0.0208333333333333
 49
0.0
 49
0.0
 49
0.0
 49
0.0
 49
0.0208333333333333
 49
0.0
 49
0.0
 49
0.0
 49
0.0
 49
1.0
 49
0.0
 49
0.0
 49
0.0
 49
0.0
 49
1.0
175
     0
142
0.0208333333333333
142
0.0
142
0.0
142
0.0
142
0.0
142
0.0208333333333333
142
0.0
142
0.0
142
0.0
142
0.0
142
1.0
142
0.0
142
0.0
142
0.0
142
0.0
142
1.0
179
     0
144
0.0208333333333333
144
0.0
144
0.0
144
0.0
144
0.0
144
0.0208333333333333
144
0.0
144
0.0
144
0.0
144
0.0
144
1.0
144
0.0
144
0.0
144
0.0
144
0.0
144
1.0
147
0.0208333333333333
147
0.0
147
0.0
147
0.0
147
0.0
147
0.0208333333333333
147
0.0
147
0.0
147
0.0
147
0.0
147
1.0
147
0.0
147
0.0
147
0.0
147
0.0
147
1.0
  0
MATERIAL
  5
86E81
102
{ACAD_XDICTIONARY
360
86E82
102
}
102
{ACAD_REACTORS
330
86E80
102
}
330
86E80
100
AcDbMaterial
  1
ByLayer
 72
     0
 43
0.0208333333333333
 43
0.0
 43
0.0
 43
0.0
 43
0.0
 43
0.0208333333333333
 43
0.0
 43
0.0
 43
0.0
 43
0.0
 43
1.0
 43
0.0
 43
0.0
 43
0.0
 43
0.0
 43
1.0
 77
     0
 47
0.0208333333333333
 47
0.0
 47
0.0
 47
0.0
 47
0.0
 47
0.0208333333333333
 47
0.0
 47
0.0
 47
0.0
 47
0.0
 47
1.0
 47
0.0
 47
0.0
 47
0.0
 47
0.0
 47
1.0
171
     0
 49
0.0208333333333333
 49
0.0
 49
0.0
 49
0.0
 49
0.0
 49
0.0208333333333333
 49
0.0
 49
0.0
 49
0.0
 49
0.0
 49
1.0
 49
0.0
 49
0.0
 49
0.0
 49
0.0
 49
1.0
175
     0
142
0.0208333333333333
142
0.0
142
0.0
142
0.0
142
0.0
142
0.0208333333333333
142
0.0
142
0.0
142
0.0
142
0.0
142
1.0
142
0.0
142
0.0
142
0.0
142
0.0
142
1.0
179
     0
144
0.0208333333333333
144
0.0
144
0.0
144
0.0
144
0.0
144
0.0208333333333333
144
0.0
144
0.0
144
0.0
144
0.0
144
1.0
144
0.0
144
0.0
144
0.0
144
0.0
144
1.0
147
0.0208333333333333
147
0.0
147
0.0
147
0.0
147
0.0
147
0.0208333333333333
147
0.0
147
0.0
147
0.0
147
0.0
147
1.0
147
0.0
147
0.0
147
0.0
147
0.0
147
1.0
  0
MATERIAL
  5
86E91
102
{ACAD_XDICTIONARY
360
86E92
102
}
102
{ACAD_REACTORS
330
86E80
102
}
330
86E80
100
AcDbMaterial
  1
Global
 72
     0
 43
0.0208333333333333
 43
0.0
 43
0.0
 43
0.0
 43
0.0
 43
0.0208333333333333
 43
0.0
 43
0.0
 43
0.0
 43
0.0
 43
1.0
 43
0.0
 43
0.0
 43
0.0
 43
0.0
 43
1.0
 77
     0
 47
0.0208333333333333
 47
0.0
 47
0.0
 47
0.0
 47
0.0
 47
0.0208333333333333
 47
0.0
 47
0.0
 47
0.0
 47
0.0
 47
1.0
 47
0.0
 47
0.0
 47
0.0
 47
0.0
 47
1.0
171
     0
 49
0.0208333333333333
 49
0.0
 49
0.0
 49
0.0
 49
0.0
 49
0.0208333333333333
 49
0.0
 49
0.0
 49
0.0
 49
0.0
 49
1.0
 49
0.0
 49
0.0
 49
0.0
 49
0.0
 49
1.0
175
     0
142
0.0208333333333333
142
0.0
142
0.0
142
0.0
142
0.0
142
0.0208333333333333
142
0.0
142
0.0
142
0.0
142
0.0
142
1.0
142
0.0
142
0.0
142
0.0
142
0.0
142
1.0
179
     0
144
0.0208333333333333
144
0.0
144
0.0
144
0.0
144
0.0
144
0.0208333333333333
144
0.0
144
0.0
144
0.0
144
0.0
144
1.0
144
0.0
144
0.0
144
0.0
144
0.0
144
1.0
147
0.0208333333333333
147
0.0
147
0.0
147
0.0
147
0.0
147
0.0208333333333333
147
0.0
147
0.0
147
0.0
147
0.0
147
1.0
147
0.0
147
0.0
147
0.0
147
0.0
147
1.0
  0
MLEADERSTYLE
  5
86EC8
102
{ACAD_REACTORS
330
86EC7
102
}
330
86EC7
100
AcDbMLeaderStyle
179
     2
170
     2
171
     1
172
     0
 90
        2
 40
0.0
 41
0.0
173
     1
 91
-1056964608
340
13
 92
       -2
290
     1
 42
0.09
291
     1
 43
0.36
  3
Standard
341
A6250
 44
40.0
300

342
11
174
     5
178
     6
175
     1
176
     0
 93
-1056964608
 45
45.0
292
     0
297
     0
 46
0.18
 94
-1056964608
 47
1.0
 49
1.0
140
1.0
293
     1
141
0.0
294
     1
177
     0
142
1.0
295
     0
296
     0
143
0.125
271
     0
272
     9
273
     9
298
     0
1001
ACAD_MLEADERVER
1070
     2
  0
MLINESTYLE
  5
17
102
{ACAD_REACTORS
330
16
102
}
330
16
100
AcDbMlineStyle
  2
STANDARD
 70
     0
  3

 62
   256
 51
90.0
 52
90.0
 71
     2
 49
0.5
 62
   256
  6
BYLAYER
 49
-0.5
 62
   256
  6
BYLAYER
  0
ACDBPLACEHOLDER
  5
F
102
{ACAD_REACTORS
330
E
102
}
330
E
  0
SCALE
  5
86EB6
102
{ACAD_REACTORS
330
86EB5
102
}
330
86EB5
100
AcDbScale
 70
     0
300
1:1
140
1.0
141
1.0
290
     1
  0
SCALE
  5
86EB7
102
{ACAD_REACTORS
330
86EB5
102
}
330
86EB5
100
AcDbScale
 70
     0
300
1/128" = 1'-0"
140
0.0078125
141
12.0
290
     0
  0
SCALE
  5
86EB8
102
{ACAD_REACTORS
330
86EB5
102
}
330
86EB5
100
AcDbScale
 70
     0
300
1/64" = 1'-0"
140
0.015625
141
12.0
290
     0
  0
SCALE
  5
86EB9
102
{ACAD_REACTORS
330
86EB5
102
}
330
86EB5
100
AcDbScale
 70
     0
300
1/32" = 1'-0"
140
0.03125
141
12.0
290
     0
  0
SCALE
  5
86EBA
102
{ACAD_REACTORS
330
86EB5
102
}
330
86EB5
100
AcDbScale
 70
     0
300
1/16" = 1'-0"
140
0.0625
141
12.0
290
     0
  0
SCALE
  5
86EBB
102
{ACAD_REACTORS
330
86EB5
102
}
330
86EB5
100
AcDbScale
 70
     0
300
3/32" = 1'-0"
140
0.09375
141
12.0
290
     0
  0
SCALE
  5
86EBC
102
{ACAD_REACTORS
330
86EB5
102
}
330
86EB5
100
AcDbScale
 70
     0
300
1/8" = 1'-0"
140
0.125
141
12.0
290
     0
  0
SCALE
  5
86EBD
102
{ACAD_REACTORS
330
86EB5
102
}
330
86EB5
100
AcDbScale
 70
     0
300
3/16" = 1'-0"
140
0.1875
141
12.0
290
     0
  0
SCALE
  5
86EBE
102
{ACAD_REACTORS
330
86EB5
102
}
330
86EB5
100
AcDbScale
 70
     0
300
1/4" = 1'-0"
140
0.25
141
12.0
290
     0
  0
SCALE
  5
86EBF
102
{ACAD_REACTORS
330
86EB5
102
}
330
86EB5
100
AcDbScale
 70
     0
300
3/8" = 1'-0"
140
0.375
141
12.0
290
     0
  0
SCALE
  5
86EC0
102
{ACAD_REACTORS
330
86EB5
102
}
330
86EB5
100
AcDbScale
 70
     0
300
1/2" = 1'-0"
140
0.5
141
12.0
290
     0
  0
SCALE
  5
86EC1
102
{ACAD_REACTORS
330
86EB5
102
}
330
86EB5
100
AcDbScale
 70
     0
300
3/4" = 1'-0"
140
0.75
141
12.0
290
     0
  0
SCALE
  5
86EC2
102
{ACAD_REACTORS
330
86EB5
102
}
330
86EB5
100
AcDbScale
 70
     0
300
1" = 1'-0"
140
1.0
141
12.0
290
     0
  0
SCALE
  5
86EC3
102
{ACAD_REACTORS
330
86EB5
102
}
330
86EB5
100
AcDbScale
 70
     0
300
1-1/2" = 1'-0"
140
1.5
141
12.0
290
     0
  0
SCALE
  5
86EC4
102
{ACAD_REACTORS
330
86EB5
102
}
330
86EB5
100
AcDbScale
 70
     0
300
3" = 1'-0"
140
3.0
141
12.0
290
     0
  0
SCALE
  5
86EC5
102
{ACAD_REACTORS
330
86EB5
102
}
330
86EB5
100
AcDbScale
 70
     0
300
6" = 1'-0"
140
6.0
141
12.0
290
     0
  0
SCALE
  5
86EC6
102
{ACAD_REACTORS
330
86EB5
102
}
330
86EB5
100
AcDbScale
 70
     0
300
1'-0" = 1'-0"
140
12.0
141
12.0
290
     0
  0
ACDBSECTIONVIEWSTYLE
  5
86ECA
102
{ACAD_XDICTIONARY
360
A72CA
102
}
102
{ACAD_REACTORS
330
86EC9
102
}
330
86EC9
100
AcDbModelDocViewStyle
 70
     0
  3
Imperial24
290
     0
100
AcDbSectionViewStyle
 70
     0
 71
     0
 90
       78
 71
     1
340
11
 62
   256
 40
0.24
340
0
340
0
 62
   256
 40
0.24
300
I, O, Q, S, X, Z
 40
0.48
 90
        3
 40
0.18
 90
        1
 71
     2
340
15
 90
       25
 62
   256
340
15
 90
       50
 62
   256
 40
0.24
 40
0.0
 40
0.24
 71
     3
340
11
 62
   256
 40
0.24
 90
        1
 40
0.75
 90
        1
300
%<\AcVar ViewType \f "%tc1">% %<\AcVar ViewSectionStartId>%-%<\AcVar ViewSectionEndId>%\PSCALE %<\AcVar ViewScale \f "%sn">%
 71
     4
 62
   256
 62
   257
300
ANSI31
 40
1.0
 90
        0
290
     0
290
     0
 90
        6
 40
0.0
 40
1.570796326794896
 40
0.2617993877991494
 40
1.308996938995747
 40
-0.2617993877991494
 40
1.832595714594044
  0
ACDBSECTIONVIEWSTYLE
  5
87812
102
{ACAD_XDICTIONARY
360
A72CE
102
}
102
{ACAD_REACTORS
330
86EC9
102
}
330
86EC9
100
AcDbModelDocViewStyle
 70
     0
  3
Metric50
290
     0
100
AcDbSectionViewStyle
 70
     0
 71
     0
 90
      102
 71
     1
340
11
 62
   256
 40
5.0
340
0
340
0
 62
   256
 40
5.0
300
I, O, Q, S, X, Z
 40
10.0
 90
        0
 40
2.5
 90
        0
 71
     2
340
15
 90
       25
 62
   256
340
15
 90
       50
 62
   256
 40
5.0
 40
2.5
 40
5.0
 71
     3
340
11
 62
   256
 40
5.0
 90
        0
 40
15.0
 90
        1
300
%<\AcVar ViewSectionStartId>%-%<\AcVar ViewSectionEndId>% (%<\AcVar ViewScale \f "%sn">%)
 71
     4
 62
   256
 62
   257
300
ANSI31
 40
1.0
 90
        0
290
     0
290
     0
 90
        6
 40
0.0
 40
1.570796326794896
 40
0.2617993877991494
 40
1.308996938995747
 40
-0.2617993877991494
 40
1.832595714594044
  0
TABLESTYLE
  5
86EB4
102
{ACAD_XDICTIONARY
360
86F00
102
}
102
{ACAD_REACTORS
330
86EB3
102
}
330
86EB3
100
AcDbTableStyle
280
     0
  3
Standard
 70
     0
 71
     0
 40
0.06
 41
0.06
280
     0
281
     0
  7
STANDARD
140
0.18
170
     2
 62
     0
 63
     7
283
     0
 90
      512
 91
        0
  1

274
    -2
284
     1
 64
     0
275
    -2
285
     1
 65
     0
276
    -2
286
     1
 66
     0
277
    -2
287
     1
 67
     0
278
    -2
288
     1
 68
     0
279
    -2
289
     1
 69
     0
  7
STANDARD
140
0.25
170
     5
 62
     0
 63
     7
283
     0
 90
      512
 91
        0
  1

274
    -2
284
     1
 64
     0
275
    -2
285
     1
 65
     0
276
    -2
286
     1
 66
     0
277
    -2
287
     1
 67
     0
278
    -2
288
     1
 68
     0
279
    -2
289
     1
 69
     0
  7
STANDARD
140
0.18
170
     5
 62
     0
 63
     7
283
     0
 90
      512
 91
        0
  1

274
    -2
284
     1
 64
     0
275
    -2
285
     1
 65
     0
276
    -2
286
     1
 66
     0
277
    -2
287
     1
 67
     0
278
    -2
288
     1
 68
     0
279
    -2
289
     1
 69
     0
  0
VISUALSTYLE
  5
86E9F
102
{ACAD_REACTORS
330
86E99
102
}
330
86E99
100
AcDbVisualStyle
  2

 70
     4
177
     3
291
     0
 70
    58
 90
        0
176
     1
 90
        2
176
     1
 90
        0
176
     1
 90
        0
176
     1
 40
0.6
176
     1
 40
30.0
176
     1
 62
     7
420
 16777215
176
     1
 90
        1
176
     1
 90
        4
176
     1
 62
     7
176
     1
 62
   257
176
     1
 90
        1
176
     1
 90
        1
176
     1
 40
1.0
176
     1
 90
        0
176
     1
 62
   257
176
     1
 40
1.0
176
     1
 90
        1
176
     1
 90
        6
176
     1
 90
        2
176
     1
 62
     7
176
     1
 90
        5
176
     1
 90
        0
176
     1
 90
        0
176
     1
290
     0
176
     1
 90
        1
176
     1
 40
0.0
176
     1
 90
        0
176
     1
290
     1
176
     1
290
     1
176
     1
290
     0
176
     1
290
     0
176
     1
290
     0
176
     1
290
     0
176
     1
290
     0
176
     1
290
     0
176
     1
290
     0
176
     1
 90
       50
176
     1
 40
0.0
176
     1
 40
1.0
176
     1
 90
        0
176
     1
 62
    18
176
     1
 90
       50
176
     1
 90
        3
176
     1
 62
     5
420
      255
176
     1
290
     0
176
     1
 90
       50
176
     1
 90
       50
176
     1
 90
       50
176
     1
290
     0
176
     1
 90
       50
176
     1
 62
   256
176
     0
 40
1.0
176
     0
 90
        2
176
     1
  1
strokes_ogs.tif
176
     1
290
     0
176
     1
 40
1.0
176
     1
 40
1.0
176
     1
1001
ACAD
1000
AcDbSavedByObjectVersion
1070
     0
  0
VISUALSTYLE
  5
86E9E
102
{ACAD_REACTORS
330
86E99
102
}
330
86E99
100
AcDbVisualStyle
  2

 70
     7
177
     3
291
     1
 70
    58
 90
        1
176
     1
 90
        0
176
     1
 90
        1
176
     1
 90
        0
176
     1
 40
0.6
176
     1
 40
30.0
176
     1
 62
     7
420
 16777215
176
     1
 90
        0
176
     1
 90
        4
176
     1
 62
     7
176
     1
 62
   257
176
     1
 90
        1
176
     1
 90
        1
176
     1
 40
1.0
176
     1
 90
        8
176
     1
 62
     7
176
     1
 40
1.0
176
     1
 90
        1
176
     1
 90
        6
176
     1
 90
        2
176
     1
 62
     7
176
     1
 90
        5
176
     1
 90
        0
176
     1
 90
        0
176
     1
290
     0
176
     1
 90
        1
176
     1
 40
0.0
176
     1
 90
        0
176
     1
290
     0
176
     1
290
     1
176
     1
290
     1
176
     1
290
     0
176
     1
290
     0
176
     1
290
     0
176
     1
290
     0
176
     1
290
     0
176
     1
290
     0
176
     1
 90
       50
176
     1
 40
0.0
176
     1
 40
1.0
176
     1
 90
        0
176
     1
 62
    18
176
     1
 90
       50
176
     1
 90
        3
176
     1
 62
     5
420
      255
176
     1
290
     0
176
     1
 90
       50
176
     1
 90
       50
176
     1
 90
       50
176
     1
290
     0
176
     1
 90
       50
176
     1
 62
   256
176
     0
 40
1.0
176
     0
 90
        2
176
     1
  1
strokes_ogs.tif
176
     1
290
     0
176
     1
 40
1.0
176
     1
 40
1.0
176
     1
1001
ACAD
1000
AcDbSavedByObjectVersion
1070
     0
  0
VISUALSTYLE
  5
86EA5
102
{ACAD_REACTORS
330
86E99
102
}
330
86E99
100
AcDbVisualStyle
  2

 70
    12
177
     3
291
     1
 70
    58
 90
        2
176
     1
 90
        2
176
     1
 90
        0
176
     1
 90
        0
176
     1
 40
0.6
176
     1
 40
30.0
176
     1
 62
     7
420
 16777215
176
     1
 90
        1
176
     1
 90
        4
176
     1
 62
     7
176
     1
 62
   257
176
     1
 90
        1
176
     1
 90
        1
176
     1
 40
1.0
176
     1
 90
        8
176
     1
 62
     7
176
     1
 40
1.0
176
     1
 90
        1
176
     1
 90
        6
176
     1
 90
        2
176
     1
 62
     7
176
     1
 90
        5
176
     1
 90
        0
176
     1
 90
        0
176
     1
290
     0
176
     1
 90
        1
176
     1
 40
50.0
176
     1
 90
        0
176
     1
290
     0
176
     1
290
     1
176
     1
290
     1
176
     1
290
     0
176
     1
290
     0
176
     1
290
     0
176
     1
290
     0
176
     1
290
     0
176
     1
290
     0
176
     1
 90
       50
176
     1
 40
0.0
176
     1
 40
1.0
176
     1
 90
        0
176
     1
 62
    18
176
     1
 90
       50
176
     1
 90
        3
176
     1
 62
     5
420
      255
176
     1
290
     0
176
     1
 90
       50
176
     1
 90
       50
176
     1
 90
       50
176
     1
290
     0
176
     1
 90
       50
176
     1
 62
   256
176
     0
 40
1.0
176
     0
 90
        2
176
     1
  1
strokes_ogs.tif
176
     1
290
     0
176
     1
 40
1.0
176
     1
 40
1.0
176
     1
1001
ACAD
1000
AcDbSavedByObjectVersion
1070
     0
  0
VISUALSTYLE
  5
86EA9
102
{ACAD_REACTORS
330
86E99
102
}
330
86E99
100
AcDbVisualStyle
  2

 70
    16
177
     3
291
     1
 70
    58
 90
        2
176
     1
 90
        2
176
     1
 90
        3
176
     1
 90
        0
176
     1
 40
0.6
176
     1
 40
30.0
176
     1
 62
     8
420
  8421504
176
     1
 90
        1
176
     1
 90
        4
176
     1
 62
     7
176
     1
 62
   257
176
     1
 90
        1
176
     1
 90
        1
176
     1
 40
1.0
176
     1
 90
        8
176
     1
 62
     8
420
  8421504
176
     1
 40
1.0
176
     1
 90
        1
176
     1
 90
        6
176
     1
 90
        2
176
     1
 62
     7
176
     1
 90
        5
176
     1
 90
        0
176
     1
 90
        0
176
     1
290
     0
176
     1
 90
        1
176
     1
 40
0.0
176
     1
 90
        0
176
     1
290
     0
176
     1
290
     1
176
     1
290
     1
176
     1
290
     0
176
     1
290
     0
176
     1
290
     0
176
     1
290
     0
176
     1
290
     0
176
     1
290
     0
176
     1
 90
       50
176
     1
 40
0.0
176
     1
 40
1.0
176
     1
 90
        0
176
     1
 62
    18
176
     1
 90
       50
176
     1
 90
        3
176
     1
 62
     5
420
      255
176
     1
290
     0
176
     1
 90
       50
176
     1
 90
       50
176
     1
 90
       50
176
     1
290
     0
176
     1
 90
       50
176
     1
 62
   256
176
     0
 40
1.0
176
     0
 90
        2
176
     1
  1
strokes_ogs.tif
176
     1
290
     0
176
     1
 40
1.0
176
     1
 40
1.0
176
     1
1001
ACAD
1000
AcDbSavedByObjectVersion
1070
     0
  0
VISUALSTYLE
  5
86EA2
102
{ACAD_REACTORS
330
86E99
102
}
330
86E99
100
AcDbVisualStyle
  2

 70
     9
177
     3
291
     0
 70
    58
 90
        3
176
     1
 90
        2
176
     1
 90
        0
176
     1
 90
        0
176
     1
 40
0.6
176
     1
 40
30.0
176
     1
 62
     7
420
 16777215
176
     1
 90
        2
176
     1
 90
        2
176
     1
 62
     7
176
     1
 62
   257
176
     1
 90
        1
176
     1
 90
        1
176
     1
 40
179.0
176
     1
 90
        8
176
     1
 62
     7
176
     1
 40
1.0
176
     1
 90
        1
176
     1
 90
        6
176
     1
 90
        2
176
     1
 62
     7
176
     1
 90
        3
176
     1
 90
        0
176
     1
 90
        0
176
     1
290
     0
176
     1
 90
        1
176
     1
 40
0.0
176
     1
 90
        0
176
     1
290
     0
176
     1
290
     1
176
     1
290
     1
176
     1
290
     0
176
     1
290
     0
176
     1
290
     0
176
     1
290
     0
176
     1
290
     0
176
     1
290
     0
176
     1
 90
       50
176
     1
 40
0.0
176
     1
 40
1.0
176
     1
 90
        0
176
     1
 62
    18
176
     1
 90
       50
176
     1
 90
        3
176
     1
 62
     5
420
      255
176
     1
290
     0
176
     1
 90
       50
176
     1
 90
       50
176
     1
 90
       50
176
     1
290
     0
176
     1
 90
       50
176
     1
 62
   256
176
     0
 40
1.0
176
     0
 90
        2
176
     1
  1
strokes_ogs.tif
176
     1
290
     0
176
     1
 40
1.0
176
     1
 40
1.0
176
     1
1001
ACAD
1000
AcDbSavedByObjectVersion
1070
     0
  0
VISUALSTYLE
  5
86EA4
102
{ACAD_REACTORS
330
86E99
102
}
330
86E99
100
AcDbVisualStyle
  2

 70
    11
177
     3
291
     1
 70
    58
 90
        2
176
     1
 90
        2
176
     1
 90
        0
176
     1
 90
        0
176
     1
 40
0.6
176
     1
 40
30.0
176
     1
 62
     7
420
 16777215
176
     1
 90
        1
176
     1
 90
        4
176
     1
 62
     7
176
     1
 62
   257
176
     1
 90
        1
176
     1
 90
        1
176
     1
 40
1.0
176
     1
 90
        8
176
     1
 62
     7
176
     1
 40
1.0
176
     1
 90
        1
176
     1
 90
        6
176
     1
 90
        2
176
     1
 62
     7
176
     1
 90
        5
176
     1
 90
        0
176
     1
 90
        0
176
     1
290
     0
176
     1
 90
        1
176
     1
 40
-50.0
176
     1
 90
        0
176
     1
290
     0
176
     1
290
     1
176
     1
290
     1
176
     1
290
     0
176
     1
290
     0
176
     1
290
     0
176
     1
290
     0
176
     1
290
     0
176
     1
290
     0
176
     1
 90
       50
176
     1
 40
0.0
176
     1
 40
1.0
176
     1
 90
        0
176
     1
 62
    18
176
     1
 90
       50
176
     1
 90
        3
176
     1
 62
     5
420
      255
176
     1
290
     0
176
     1
 90
       50
176
     1
 90
       50
176
     1
 90
       50
176
     1
290
     0
176
     1
 90
       50
176
     1
 62
   256
176
     0
 40
1.0
176
     0
 90
        2
176
     1
  1
strokes_ogs.tif
176
     1
290
     0
176
     1
 40
1.0
176
     1
 40
1.0
176
     1
1001
ACAD
1000
AcDbSavedByObjectVersion
1070
     0
  0
VISUALSTYLE
  5
86EB1
102
{ACAD_REACTORS
330
86E99
102
}
330
86E99
100
AcDbVisualStyle
  2

 70
    22
177
     3
291
     1
 70
    58
 90
        2
176
     0
 90
        2
176
     0
 90
        0
176
     0
 90
        0
176
     0
 40
0.6
176
     0
 40
30.0
176
     0
 62
     7
420
 16777215
176
     0
 90
        1
176
     0
 90
        4
176
     0
 62
     7
176
     0
 62
   257
176
     0
 90
        1
176
     0
 90
        1
176
     0
 40
1.0
176
     0
 90
        8
176
     2
 62
     7
176
     0
 40
1.0
176
     0
 90
        1
176
     0
 90
        6
176
     0
 90
        2
176
     0
 62
     7
176
     0
 90
        5
176
     0
 90
        0
176
     0
 90
        0
176
     0
290
     0
176
     0
 90
        1
176
     0
 40
0.0
176
     0
 90
        0
176
     0
290
     0
176
     1
290
     1
176
     1
290
     1
176
     1
290
     0
176
     1
290
     0
176
     1
290
     0
176
     1
290
     0
176
     1
290
     0
176
     1
290
     0
176
     1
 90
       50
176
     0
 40
0.0
176
     0
 40
1.0
176
     0
 90
        0
176
     0
 62
    18
176
     0
 90
       50
176
     0
 90
        3
176
     0
 62
     5
420
      255
176
     0
290
     0
176
     1
 90
       50
176
     0
 90
       50
176
     0
 90
       50
176
     0
290
     0
176
     1
 90
       50
176
     0
 62
   256
176
     0
 40
1.0
176
     0
 90
        2
176
     0
  1
strokes_ogs.tif
176
     0
290
     0
176
     1
 40
1.0
176
     0
 40
1.0
176
     0
1001
ACAD
1000
AcDbSavedByObjectVersion
1070
     0
  0
VISUALSTYLE
  5
86EA8
102
{ACAD_REACTORS
330
86E99
102
}
330
86E99
100
AcDbVisualStyle
  2

 70
    15
177
     3
291
     1
 70
    58
 90
        2
176
     1
 90
        2
176
     1
 90
        0
176
     1
 90
        0
176
     1
 40
0.6
176
     1
 40
30.0
176
     1
 62
     7
420
 16777215
176
     1
 90
        1
176
     1
 90
        4
176
     1
 62
     7
176
     1
 62
   257
176
     1
 90
        1
176
     1
 90
        1
176
     1
 40
1.0
176
     1
 90
        8
176
     1
 62
     7
176
     1
 40
1.0
176
     1
 90
        1
176
     1
 90
        6
176
     1
 90
        2
176
     1
 62
     7
176
     1
 90
        5
176
     1
 90
        0
176
     1
 90
        0
176
     1
290
     0
176
     1
 90
        1
176
     1
 40
0.0
176
     1
 90
        0
176
     1
290
     0
176
     1
290
     1
176
     1
290
     1
176
     1
290
     0
176
     1
290
     0
176
     1
290
     0
176
     1
290
     0
176
     1
290
     0
176
     1
290
     0
176
     1
 90
       50
176
     1
 40
0.0
176
     1
 40
1.0
176
     1
 90
        0
176
     1
 62
    18
176
     1
 90
       50
176
     1
 90
        3
176
     1
 62
     5
420
      255
176
     1
290
     0
176
     1
 90
       50
176
     1
 90
       50
176
     1
 90
       50
176
     1
290
     0
176
     1
 90
       50
176
     1
 62
   256
176
     0
 40
1.0
176
     0
 90
        2
176
     1
  1
strokes_ogs.tif
176
     1
290
     0
176
     1
 40
1.0
176
     1
 40
1.0
176
     1
1001
ACAD
1000
AcDbSavedByObjectVersion
1070
     0
  0
VISUALSTYLE
  5
86E9A
102
{ACAD_REACTORS
330
86E99
102
}
330
86E99
100
AcDbVisualStyle
  2

 70
     0
177
     3
291
     1
 70
    58
 90
        2
176
     1
 90
        1
176
     1
 90
        1
176
     1
 90
        2
176
     1
 40
0.6
176
     1
 40
30.0
176
     1
 62
     7
420
 16777215
176
     1
 90
        0
176
     1
 90
        0
176
     1
 62
     7
176
     1
 62
   257
176
     1
 90
        1
176
     1
 90
        1
176
     1
 40
1.0
176
     1
 90
        8
176
     1
 62
     7
176
     1
 40
1.0
176
     1
 90
        1
176
     1
 90
        6
176
     1
 90
        2
176
     1
 62
     7
176
     1
 90
        5
176
     1
 90
        0
176
     1
 90
        0
176
     1
290
     0
176
     1
 90
       13
176
     1
 40
0.0
176
     1
 90
        0
176
     1
290
     0
176
     1
290
     1
176
     1
290
     1
176
     1
290
     0
176
     1
290
     0
176
     1
290
     0
176
     1
290
     0
176
     1
290
     0
176
     1
290
     0
176
     1
 90
       50
176
     1
 40
0.0
176
     1
 40
1.0
176
     1
 90
        0
176
     1
 62
    18
176
     1
 90
       50
176
     1
 90
        3
176
     1
 62
     5
420
      255
176
     1
290
     0
176
     1
 90
       50
176
     1
 90
       50
176
     1
 90
       50
176
     1
290
     0
176
     1
 90
       50
176
     1
 62
   256
176
     0
 40
1.0
176
     0
 90
        2
176
     1
  1
strokes_ogs.tif
176
     1
290
     0
176
     1
 40
1.0
176
     1
 40
1.0
176
     1
1001
ACAD
1000
AcDbSavedByObjectVersion
1070
     0
  0
VISUALSTYLE
  5
86E9B
102
{ACAD_REACTORS
330
86E99
102
}
330
86E99
100
AcDbVisualStyle
  2

 70
     1
177
     3
291
     1
 70
    58
 90
        2
176
     1
 90
        1
176
     1
 90
        1
176
     1
 90
        2
176
     1
 40
0.6
176
     1
 40
30.0
176
     1
 62
     7
420
 16777215
176
     1
 90
        1
176
     1
 90
        0
176
     1
 62
     7
176
     1
 62
   257
176
     1
 90
        1
176
     1
 90
        1
176
     1
 40
1.0
176
     1
 90
        0
176
     1
 62
   257
176
     1
 40
1.0
176
     1
 90
        1
176
     1
 90
        6
176
     1
 90
        2
176
     1
 62
     7
176
     1
 90
        5
176
     1
 90
        0
176
     1
 90
        0
176
     1
290
     0
176
     1
 90
       13
176
     1
 40
0.0
176
     1
 90
        0
176
     1
290
     0
176
     1
290
     1
176
     1
290
     1
176
     1
290
     0
176
     1
290
     0
176
     1
290
     0
176
     1
290
     0
176
     1
290
     0
176
     1
290
     0
176
     1
 90
       50
176
     1
 40
0.0
176
     1
 40
1.0
176
     1
 90
        0
176
     1
 62
    18
176
     1
 90
       50
176
     1
 90
        3
176
     1
 62
     5
420
      255
176
     1
290
     0
176
     1
 90
       50
176
     1
 90
       50
176
     1
 90
       50
176
     1
290
     0
176
     1
 90
       50
176
     1
 62
   256
176
     0
 40
1.0
176
     0
 90
        2
176
     1
  1
strokes_ogs.tif
176
     1
290
     0
176
     1
 40
1.0
176
     1
 40
1.0
176
     1
1001
ACAD
1000
AcDbSavedByObjectVersion
1070
     0
  0
VISUALSTYLE
  5
86E9C
102
{ACAD_REACTORS
330
86E99
102
}
330
86E99
100
AcDbVisualStyle
  2

 70
     2
177
     3
291
     1
 70
    58
 90
        2
176
     1
 90
        2
176
     1
 90
        1
176
     1
 90
        2
176
     1
 40
0.6
176
     1
 40
30.0
176
     1
 62
     7
420
 16777215
176
     1
 90
        0
176
     1
 90
        0
176
     1
 62
     7
176
     1
 62
   257
176
     1
 90
        1
176
     1
 90
        1
176
     1
 40
1.0
176
     1
 90
        0
176
     1
 62
     7
176
     1
 40
1.0
176
     1
 90
        1
176
     1
 90
        6
176
     1
 90
        2
176
     1
 62
     7
176
     1
 90
        5
176
     1
 90
        0
176
     1
 90
        0
176
     1
290
     0
176
     1
 90
       13
176
     1
 40
0.0
176
     1
 90
        0
176
     1
290
     0
176
     1
290
     1
176
     1
290
     1
176
     1
290
     0
176
     1
290
     0
176
     1
290
     0
176
     1
290
     0
176
     1
290
     0
176
     1
290
     0
176
     1
 90
       50
176
     1
 40
0.0
176
     1
 40
1.0
176
     1
 90
        0
176
     1
 62
    18
176
     1
 90
       50
176
     1
 90
        3
176
     1
 62
     5
420
      255
176
     1
290
     0
176
     1
 90
       50
176
     1
 90
       50
176
     1
 90
       50
176
     1
290
     0
176
     1
 90
       50
176
     1
 62
   256
176
     0
 40
1.0
176
     0
 90
        2
176
     1
  1
strokes_ogs.tif
176
     1
290
     0
176
     1
 40
1.0
176
     1
 40
1.0
176
     1
1001
ACAD
1000
AcDbSavedByObjectVersion
1070
     0
  0
VISUALSTYLE
  5
86E9D
102
{ACAD_REACTORS
330
86E99
102
}
330
86E99
100
AcDbVisualStyle
  2

 70
     3
177
     3
291
     1
 70
    58
 90
        2
176
     1
 90
        2
176
     1
 90
        1
176
     1
 90
        2
176
     1
 40
0.6
176
     1
 40
30.0
176
     1
 62
     7
420
 16777215
176
     1
 90
        1
176
     1
 90
        0
176
     1
 62
     7
176
     1
 62
   257
176
     1
 90
        1
176
     1
 90
        1
176
     1
 40
1.0
176
     1
 90
        0
176
     1
 62
   257
176
     1
 40
1.0
176
     1
 90
        1
176
     1
 90
        6
176
     1
 90
        2
176
     1
 62
     7
176
     1
 90
        5
176
     1
 90
        0
176
     1
 90
        0
176
     1
290
     0
176
     1
 90
       13
176
     1
 40
0.0
176
     1
 90
        0
176
     1
290
     0
176
     1
290
     1
176
     1
290
     1
176
     1
290
     0
176
     1
290
     0
176
     1
290
     0
176
     1
290
     0
176
     1
290
     0
176
     1
290
     0
176
     1
 90
       50
176
     1
 40
0.0
176
     1
 40
1.0
176
     1
 90
        0
176
     1
 62
    18
176
     1
 90
       50
176
     1
 90
        3
176
     1
 62
     5
420
      255
176
     1
290
     0
176
     1
 90
       50
176
     1
 90
       50
176
     1
 90
       50
176
     1
290
     0
176
     1
 90
       50
176
     1
 62
   256
176
     0
 40
1.0
176
     0
 90
        2
176
     1
  1
strokes_ogs.tif
176
     1
290
     0
176
     1
 40
1.0
176
     1
 40
1.0
176
     1
1001
ACAD
1000
AcDbSavedByObjectVersion
1070
     0
  0
VISUALSTYLE
  5
86EA1
102
{ACAD_REACTORS
330
86E99
102
}
330
86E99
100
AcDbVisualStyle
  2

 70
     6
177
     3
291
     0
 70
    58
 90
        1
176
     1
 90
        2
176
     1
 90
        2
176
     1
 90
        0
176
     1
 40
0.6
176
     1
 40
30.0
176
     1
 62
     7
420
 16777215
176
     1
 90
        2
176
     1
 90
        2
176
     1
 62
     7
176
     1
 62
   257
176
     1
 90
        2
176
     1
 90
        1
176
     1
 40
40.0
176
     1
 90
        0
176
     1
 62
   257
176
     1
 40
1.0
176
     1
 90
        1
176
     1
 90
        6
176
     1
 90
        2
176
     1
 62
     7
176
     1
 90
        3
176
     1
 90
        0
176
     1
 90
        0
176
     1
290
     0
176
     1
 90
        1
176
     1
 40
0.0
176
     1
 90
        0
176
     1
290
     0
176
     1
290
     1
176
     1
290
     1
176
     1
290
     0
176
     1
290
     0
176
     1
290
     0
176
     1
290
     0
176
     1
290
     0
176
     1
290
     0
176
     1
 90
       50
176
     1
 40
0.0
176
     1
 40
1.0
176
     1
 90
        0
176
     1
 62
    18
176
     1
 90
       50
176
     1
 90
        3
176
     1
 62
     5
420
      255
176
     1
290
     0
176
     1
 90
       50
176
     1
 90
       50
176
     1
 90
       50
176
     1
290
     0
176
     1
 90
       50
176
     1
 62
   256
176
     0
 40
1.0
176
     0
 90
        2
176
     1
  1
strokes_ogs.tif
176
     1
290
     0
176
     1
 40
1.0
176
     1
 40
1.0
176
     1
1001
ACAD
1000
AcDbSavedByObjectVersion
1070
     0
  0
VISUALSTYLE
  5
86EAF
102
{ACAD_REACTORS
330
86E99
102
}
330
86E99
100
AcDbVisualStyle
  2

 70
    20
177
     3
291
     1
 70
    58
 90
        2
176
     0
 90
        2
176
     0
 90
        0
176
     0
 90
        0
176
     0
 40
0.6
176
     0
 40
30.0
176
     0
 62
     7
420
 16777215
176
     0
 90
        1
176
     0
 90
        4
176
     0
 62
     7
176
     0
 62
   257
176
     0
 90
        1
176
     0
 90
        1
176
     0
 40
1.0
176
     0
 90
       10
176
     2
 62
     7
176
     0
 40
1.0
176
     0
 90
        1
176
     0
 90
        6
176
     0
 90
        2
176
     0
 62
     7
176
     0
 90
        5
176
     0
 90
        0
176
     0
 90
        0
176
     0
290
     0
176
     0
 90
        1
176
     0
 40
0.0
176
     0
 90
        0
176
     0
290
     0
176
     1
290
     1
176
     1
290
     1
176
     1
290
     0
176
     1
290
     0
176
     1
290
     0
176
     1
290
     0
176
     1
290
     0
176
     1
290
     0
176
     1
 90
       50
176
     0
 40
0.0
176
     0
 40
1.0
176
     0
 90
        0
176
     0
 62
    18
176
     0
 90
       50
176
     0
 90
        3
176
     0
 62
     5
420
      255
176
     0
290
     0
176
     1
 90
       50
176
     0
 90
       50
176
     0
 90
       50
176
     0
290
     0
176
     1
 90
       50
176
     0
 62
   256
176
     0
 40
1.0
176
     0
 90
        2
176
     0
  1
strokes_ogs.tif
176
     0
290
     0
176
     1
 40
1.0
176
     0
 40
1.0
176
     0
1001
ACAD
1000
AcDbSavedByObjectVersion
1070
     0
  0
VISUALSTYLE
  5
86EA7
102
{ACAD_REACTORS
330
86E99
102
}
330
86E99
100
AcDbVisualStyle
  2

 70
    14
177
     3
291
     1
 70
    58
 90
        2
176
     1
 90
        2
176
     1
 90
        0
176
     1
 90
        0
176
     1
 40
0.6
176
     1
 40
30.0
176
     1
 62
     7
420
 16777215
176
     1
 90
        1
176
     1
 90
        4
176
     1
 62
     7
176
     1
 62
   257
176
     1
 90
        7
176
     1
 90
        7
176
     1
 40
1.0
176
     1
 90
        8
176
     1
 62
     7
176
     1
 40
1.0
176
     1
 90
        1
176
     1
 90
        6
176
     1
 90
        2
176
     1
 62
     7
176
     1
 90
        5
176
     1
 90
        0
176
     1
 90
        0
176
     1
290
     0
176
     1
 90
        1
176
     1
 40
0.0
176
     1
 90
        0
176
     1
290
     0
176
     1
290
     1
176
     1
290
     1
176
     1
290
     0
176
     1
290
     0
176
     1
290
     0
176
     1
290
     0
176
     1
290
     0
176
     1
290
     0
176
     1
 90
       50
176
     1
 40
0.0
176
     1
 40
1.0
176
     1
 90
        0
176
     1
 62
    18
176
     1
 90
       50
176
     1
 90
        3
176
     1
 62
     5
420
      255
176
     1
290
     0
176
     1
 90
       50
176
     1
 90
       50
176
     1
 90
       50
176
     1
290
     0
176
     1
 90
       50
176
     1
 62
   256
176
     0
 40
1.0
176
     0
 90
        2
176
     1
  1
strokes_ogs.tif
176
     1
290
     0
176
     1
 40
1.0
176
     1
 40
1.0
176
     1
1001
ACAD
1000
AcDbSavedByObjectVersion
1070
     0
  0
VISUALSTYLE
  5
86EB0
102
{ACAD_REACTORS
330
86E99
102
}
330
86E99
100
AcDbVisualStyle
  2

 70
    21
177
     3
291
     1
 70
    58
 90
        2
176
     0
 90
        2
176
     0
 90
        0
176
     0
 90
        0
176
     0
 40
0.6
176
     0
 40
30.0
176
     0
 62
     7
420
 16777215
176
     0
 90
        1
176
     0
 90
        4
176
     0
 62
     7
176
     0
 62
   257
176
     0
 90
        1
176
     0
 90
        1
176
     0
 40
1.0
176
     0
 90
        9
176
     2
 62
     7
176
     0
 40
1.0
176
     0
 90
        1
176
     0
 90
        6
176
     0
 90
        2
176
     0
 62
     7
176
     0
 90
        5
176
     0
 90
        0
176
     0
 90
        0
176
     0
290
     0
176
     0
 90
        1
176
     0
 40
0.0
176
     0
 90
        0
176
     0
290
     0
176
     1
290
     1
176
     1
290
     1
176
     1
290
     0
176
     1
290
     0
176
     1
290
     0
176
     1
290
     0
176
     1
290
     0
176
     1
290
     0
176
     1
 90
       50
176
     0
 40
0.0
176
     0
 40
1.0
176
     0
 90
        0
176
     0
 62
    18
176
     0
 90
       50
176
     0
 90
        3
176
     0
 62
     5
420
      255
176
     0
290
     0
176
     1
 90
       50
176
     0
 90
       50
176
     0
 90
       50
176
     0
290
     0
176
     1
 90
       50
176
     0
 62
   256
176
     0
 40
1.0
176
     0
 90
        2
176
     0
  1
strokes_ogs.tif
176
     0
290
     0
176
     1
 40
1.0
176
     0
 40
1.0
176
     0
1001
ACAD
1000
AcDbSavedByObjectVersion
1070
     0
  0
VISUALSTYLE
  5
86EA3
102
{ACAD_REACTORS
330
86E99
102
}
330
86E99
100
AcDbVisualStyle
  2

 70
     8
177
     3
291
     0
 70
    58
 90
        2
176
     1
 90
        3
176
     1
 90
        0
176
     1
 90
        2
176
     1
 40
0.6
176
     1
 40
30.0
176
     1
 62
     7
420
 16777215
176
     1
 90
        0
176
     1
 90
        0
176
     1
 62
     7
176
     1
 62
   257
176
     1
 90
        1
176
     1
 90
        1
176
     1
 40
1.0
176
     1
 90
        8
176
     1
 62
   257
176
     1
 40
1.0
176
     1
 90
        1
176
     1
 90
        6
176
     1
 90
        2
176
     1
 62
     7
176
     1
 90
        3
176
     1
 90
        0
176
     1
 90
        0
176
     1
290
     0
176
     1
 90
       13
176
     1
 40
0.0
176
     1
 90
        0
176
     1
290
     0
176
     1
290
     1
176
     1
290
     1
176
     1
290
     0
176
     1
290
     0
176
     1
290
     0
176
     1
290
     0
176
     1
290
     0
176
     1
290
     0
176
     1
 90
       50
176
     1
 40
0.0
176
     1
 40
1.0
176
     1
 90
        0
176
     1
 62
    18
176
     1
 90
       50
176
     1
 90
        3
176
     1
 62
     5
420
      255
176
     1
290
     0
176
     1
 90
       50
176
     1
 90
       50
176
     1
 90
       50
176
     1
290
     0
176
     1
 90
       50
176
     1
 62
   256
176
     0
 40
1.0
176
     0
 90
        2
176
     1
  1
strokes_ogs.tif
176
     1
290
     0
176
     1
 40
1.0
176
     1
 40
1.0
176
     1
1001
ACAD
1000
AcDbSavedByObjectVersion
1070
     0
  0
VISUALSTYLE
  5
86EAE
102
{ACAD_REACTORS
330
86E99
102
}
330
86E99
100
AcDbVisualStyle
  2

 70
    27
177
     3
291
     0
 70
    58
 90
        2
176
     1
 90
        2
176
     1
 90
        1
176
     1
 90
        2
176
     1
 40
0.6
176
     1
 40
30.0
176
     1
 62
     7
420
 16777215
176
     1
 90
        0
176
     1
 90
        4
176
     1
 62
     7
176
     1
 62
   257
176
     1
 90
        1
176
     1
 90
        1
176
     1
 40
1.0
176
     1
 90
        8
176
     1
 62
   257
176
     1
 40
1.0
176
     1
 90
        1
176
     1
 90
        6
176
     1
 90
        2
176
     1
 62
     8
420
  7895160
176
     1
 90
        3
176
     1
 90
        0
176
     1
 90
        0
176
     1
290
     0
176
     1
 90
        5
176
     1
 40
0.0
176
     1
 90
        0
176
     1
290
     0
176
     1
290
     1
176
     1
290
     1
176
     1
290
     0
176
     1
290
     0
176
     1
290
     0
176
     1
290
     0
176
     1
290
     0
176
     1
290
     0
176
     1
 90
       50
176
     1
 40
0.0
176
     1
 40
1.0
176
     1
 90
        0
176
     1
 62
    18
176
     1
 90
       50
176
     1
 90
        3
176
     1
 62
     5
420
      255
176
     1
290
     0
176
     1
 90
       50
176
     1
 90
       50
176
     1
 90
       50
176
     1
290
     0
176
     1
 90
       50
176
     1
 62
   256
176
     0
 40
1.0
176
     0
 90
        2
176
     1
  1
strokes_ogs.tif
176
     1
290
     0
176
     1
 40
1.0
176
     1
 40
1.0
176
     1
1001
ACAD
1000
AcDbSavedByObjectVersion
1070
     0
  0
VISUALSTYLE
  5
86EAD
102
{ACAD_REACTORS
330
86E99
102
}
330
86E99
100
AcDbVisualStyle
  2

 70
    26
177
     3
291
     0
 70
    58
 90
        2
176
     1
 90
        2
176
     1
 90
        1
176
     1
 90
        2
176
     1
 40
0.6
176
     1
 40
30.0
176
     1
 62
     7
420
 16777215
176
     1
 90
        1
176
     1
 90
        2
176
     1
 62
     7
176
     1
 62
   257
176
     1
 90
        2
176
     1
 90
        1
176
     1
 40
1.0
176
     1
 90
        8
176
     1
 62
   257
176
     1
 40
1.0
176
     1
 90
        1
176
     1
 90
        6
176
     1
 90
        2
176
     1
 62
     7
176
     1
 90
        3
176
     1
 90
        0
176
     1
 90
        0
176
     1
290
     0
176
     1
 90
        5
176
     1
 40
0.0
176
     1
 90
        0
176
     1
290
     0
176
     1
290
     1
176
     1
290
     1
176
     1
290
     0
176
     1
290
     0
176
     1
290
     0
176
     1
290
     0
176
     1
290
     0
176
     1
290
     0
176
     1
 90
       50
176
     1
 40
0.0
176
     1
 40
1.0
176
     1
 90
        0
176
     1
 62
    18
176
     1
 90
       50
176
     1
 90
        3
176
     1
 62
     5
420
      255
176
     1
290
     0
176
     1
 90
       50
176
     1
 90
       50
176
     1
 90
       50
176
     1
290
     0
176
     1
 90
       50
176
     1
 62
   256
176
     0
 40
1.0
176
     0
 90
        2
176
     1
  1
strokes_ogs.tif
176
     1
290
     0
176
     1
 40
1.0
176
     1
 40
1.0
176
     1
1001
ACAD
1000
AcDbSavedByObjectVersion
1070
     0
  0
VISUALSTYLE
  5
86EAA
102
{ACAD_REACTORS
330
86E99
102
}
330
86E99
100
AcDbVisualStyle
  2

 70
    23
177
     3
291
     0
 70
    58
 90
        2
176
     1
 90
        2
176
     1
 90
        3
176
     1
 90
        0
176
     1
 40
0.6
176
     1
 40
30.0
176
     1
 62
     7
420
 16777215
176
     1
 90
        2
176
     1
 90
        2
176
     1
 62
     7
176
     1
 62
     7
176
     1
 90
        1
176
     1
 90
        1
176
     1
 40
40.0
176
     1
 90
        8
176
     1
 62
     7
176
     1
 40
1.0
176
     1
 90
        1
176
     1
 90
        6
176
     1
 90
        2
176
     1
 62
     7
176
     1
 90
        3
176
     1
 90
        0
176
     1
 90
        0
176
     1
290
     0
176
     1
 90
        1
176
     1
 40
0.0
176
     1
 90
        0
176
     1
290
     0
176
     1
290
     1
176
     1
290
     1
176
     1
290
     0
176
     1
290
     0
176
     1
290
     0
176
     1
290
     0
176
     1
290
     0
176
     1
290
     0
176
     1
 90
       50
176
     1
 40
0.0
176
     1
 40
1.0
176
     1
 90
        0
176
     1
 62
    18
176
     1
 90
       50
176
     1
 90
        3
176
     1
 62
     5
420
      255
176
     1
290
     0
176
     1
 90
       50
176
     1
 90
       50
176
     1
 90
       50
176
     1
290
     0
176
     1
 90
       50
176
     1
 62
   256
176
     0
 40
1.0
176
     0
 90
        2
176
     1
  1
strokes_ogs.tif
176
     1
290
     0
176
     1
 40
1.0
176
     1
 40
1.0
176
     1
1001
ACAD
1000
AcDbSavedByObjectVersion
1070
     0
  0
VISUALSTYLE
  5
86EAB
102
{ACAD_REACTORS
330
86E99
102
}
330
86E99
100
AcDbVisualStyle
  2

 70
    24
177
     3
291
     0
 70
    58
 90
        1
176
     1
 90
        2
176
     1
 90
        2
176
     1
 90
        0
176
     1
 40
0.6
176
     1
 40
30.0
176
     1
 62
     7
420
 16777215
176
     1
 90
        2
176
     1
 90
        2
176
     1
 62
     7
176
     1
 62
     7
176
     1
 90
        1
176
     1
 90
        1
176
     1
 40
40.0
176
     1
 90
       11
176
     1
 62
     7
176
     1
 40
1.0
176
     1
 90
        1
176
     1
 90
        6
176
     1
 90
        2
176
     1
 62
     7
176
     1
 90
        6
176
     1
 90
        0
176
     1
 90
        0
176
     1
290
     0
176
     1
 90
        1
176
     1
 40
0.0
176
     1
 90
        0
176
     1
290
     0
176
     1
290
     1
176
     1
290
     1
176
     1
290
     0
176
     1
290
     0
176
     1
290
     0
176
     1
290
     0
176
     1
290
     0
176
     1
290
     0
176
     1
 90
       50
176
     1
 40
0.0
176
     1
 40
1.0
176
     1
 90
        0
176
     1
 62
    18
176
     1
 90
       50
176
     1
 90
        3
176
     1
 62
     5
420
      255
176
     1
290
     0
176
     1
 90
       50
176
     1
 90
       50
176
     1
 90
       50
176
     1
290
     0
176
     1
 90
       50
176
     1
 62
   256
176
     0
 40
1.0
176
     0
 90
        2
176
     1
  1
strokes_ogs.tif
176
     1
290
     0
176
     1
 40
1.0
176
     1
 40
1.0
176
     1
1001
ACAD
1000
AcDbSavedByObjectVersion
1070
     0
  0
VISUALSTYLE
  5
86EA6
102
{ACAD_REACTORS
330
86E99
102
}
330
86E99
100
AcDbVisualStyle
  2

 70
    13
177
     3
291
     1
 70
    58
 90
        2
176
     1
 90
        2
176
     1
 90
        0
176
     1
 90
        0
176
     1
 40
0.6
176
     1
 40
30.0
176
     1
 62
     7
420
 16777215
176
     1
 90
        1
176
     1
 90
        4
176
     1
 62
     7
176
     1
 62
   257
176
     1
 90
        1
176
     1
 90
        1
176
     1
 40
1.0
176
     1
 90
       12
176
     1
 62
     7
176
     1
 40
1.0
176
     1
 90
        1
176
     1
 90
        6
176
     1
 90
        2
176
     1
 62
     7
176
     1
 90
        5
176
     1
 90
        0
176
     1
 90
        0
176
     1
290
     0
176
     1
 90
        1
176
     1
 40
0.0
176
     1
 90
        0
176
     1
290
     0
176
     1
290
     1
176
     1
290
     1
176
     1
290
     0
176
     1
290
     0
176
     1
290
     0
176
     1
290
     0
176
     1
290
     0
176
     1
290
     0
176
     1
 90
       50
176
     1
 40
0.0
176
     1
 40
1.0
176
     1
 90
        0
176
     1
 62
    18
176
     1
 90
       50
176
     1
 90
        3
176
     1
 62
     5
420
      255
176
     1
290
     0
176
     1
 90
       50
176
     1
 90
       50
176
     1
 90
       50
176
     1
290
     0
176
     1
 90
       50
176
     1
 62
   256
176
     0
 40
1.0
176
     0
 90
        2
176
     1
  1
strokes_ogs.tif
176
     1
290
     0
176
     1
 40
1.0
176
     1
 40
1.0
176
     1
1001
ACAD
1000
AcDbSavedByObjectVersion
1070
     0
  0
VISUALSTYLE
  5
86EA0
102
{ACAD_REACTORS
330
86E99
102
}
330
86E99
100
AcDbVisualStyle
  2

 70
     5
177
     3
291
     0
 70
    58
 90
        0
176
     1
 90
        2
176
     1
 90
        0
176
     1
 90
        0
176
     1
 40
0.6
176
     1
 40
30.0
176
     1
 62
     7
420
 16777215
176
     1
 90
        1
176
     1
 90
        4
176
     1
 62
     7
176
     1
 62
   257
176
     1
 90
        1
176
     1
 90
        1
176
     1
 40
1.0
176
     1
 90
        0
176
     1
 62
   257
176
     1
 40
1.0
176
     1
 90
        1
176
     1
 90
        6
176
     1
 90
        2
176
     1
 62
     7
176
     1
 90
        3
176
     1
 90
        0
176
     1
 90
        0
176
     1
290
     0
176
     1
 90
        1
176
     1
 40
0.0
176
     1
 90
        0
176
     1
290
     0
176
     1
290
     1
176
     1
290
     1
176
     1
290
     0
176
     1
290
     0
176
     1
290
     0
176
     1
290
     0
176
     1
290
     0
176
     1
290
     0
176
     1
 90
       50
176
     1
 40
0.0
176
     1
 40
1.0
176
     1
 90
        0
176
     1
 62
    18
176
     1
 90
       50
176
     1
 90
        3
176
     1
 62
     5
420
      255
176
     1
290
     0
176
     1
 90
       50
176
     1
 90
       50
176
     1
 90
       50
176
     1
290
     0
176
     1
 90
       50
176
     1
 62
   256
176
     0
 40
1.0
176
     0
 90
        2
176
     1
  1
strokes_ogs.tif
176
     1
290
     0
176
     1
 40
1.0
176
     1
 40
1.0
176
     1
1001
ACAD
1000
AcDbSavedByObjectVersion
1070
     0
  0
VISUALSTYLE
  5
86EAC
102
{ACAD_REACTORS
330
86E99
102
}
330
86E99
100
AcDbVisualStyle
  2

 70
    25
177
     3
291
     0
 70
    58
 90
        2
176
     1
 90
        2
176
     1
 90
        1
176
     1
 90
        1
176
     1
 40
0.5
176
     1
 40
30.0
176
     1
 62
     7
420
 16777215
176
     1
 90
        1
176
     1
 90
        0
176
     1
 62
     7
176
     1
 62
   257
176
     1
 90
        1
176
     1
 90
        1
176
     1
 40
1.0
176
     1
 90
        8
176
     1
 62
     7
176
     1
 40
1.0
176
     1
 90
        1
176
     1
 90
        6
176
     1
 90
        2
176
     1
 62
     7
176
     1
 90
        3
176
     1
 90
        0
176
     1
 90
        0
176
     1
290
     0
176
     1
 90
       13
176
     1
 40
0.0
176
     1
 90
        0
176
     1
290
     0
176
     1
290
     1
176
     1
290
     1
176
     1
290
     0
176
     1
290
     0
176
     1
290
     0
176
     1
290
     0
176
     1
290
     0
176
     1
290
     0
176
     1
 90
       50
176
     1
 40
0.0
176
     1
 40
1.0
176
     1
 90
        0
176
     1
 62
    18
176
     1
 90
       50
176
     1
 90
        3
176
     1
 62
     5
420
      255
176
     1
290
     0
176
     1
 90
       50
176
     1
 90
       50
176
     1
 90
       50
176
     1
290
     0
176
     1
 90
       50
176
     1
 62
   256
176
     0
 40
1.0
176
     0
 90
        2
176
     1
  1
strokes_ogs.tif
176
     1
290
     0
176
     1
 40
1.0
176
     1
 40
1.0
176
     1
1001
ACAD
1000
AcDbSavedByObjectVersion
1070
     0
  0
DICTIONARYVAR
  5
86EDB
102
{ACAD_REACTORS
330
86ED5
102
}
330
86ED5
100
DictionaryVariables
280
     0
  1
1:1
  0
DICTIONARYVAR
  5
86ED7
102
{ACAD_REACTORS
330
86ED5
102
}
330
86ED5
100
DictionaryVariables
280
     0
  1
STANDARD
  0
DICTIONARYVAR
  5
86ED6
102
{ACAD_REACTORS
330
86ED5
102
}
330
86ED5
100
DictionaryVariables
280
     0
  1
STANDARD
  0
DICTIONARYVAR
  5
86ED8
102
{ACAD_REACTORS
330
86ED5
102
}
330
86ED5
100
DictionaryVariables
280
     0
  1
Metric50
  0
DICTIONARYVAR
  5
86ED9
102
{ACAD_REACTORS
330
86ED5
102
}
330
86ED5
100
DictionaryVariables
280
     0
  1
Metric50
  0
DICTIONARYVAR
  5
86EDD
102
{ACAD_REACTORS
330
86ED5
102
}
330
86ED5
100
DictionaryVariables
280
     0
  1
1
  0
DICTIONARYVAR
  5
86EDE
102
{ACAD_REACTORS
330
86ED5
102
}
330
86ED5
100
DictionaryVariables
280
     0
  1
15
  0
DICTIONARYVAR
  5
86EDC
102
{ACAD_REACTORS
330
86ED5
102
}
330
86ED5
100
DictionaryVariables
280
     0
  1
0
  0
DICTIONARYVAR
  5
86EDA
102
{ACAD_REACTORS
330
86ED5
102
}
330
86ED5
100
DictionaryVariables
280
     0
  1
0
  0
DICTIONARY
  5
A72C9
102
{ACAD_REACTORS
330
A72C7
102
}
330
A72C7
100
AcDbDictionary
281
     1
  0
DICTIONARY
  5
A72C8
102
{ACAD_REACTORS
330
A72C7
102
}
330
A72C7
100
AcDbDictionary
281
     1
  3
2017973398048
350
A72C2
  3
2017973398064
350
A72C3
  3
2017973398080
350
A72C4
  3
2017973398096
350
A72C5
  3
2017973398112
350
A72C6
  0
DICTIONARY
  5
A7069
102
{ACAD_REACTORS
330
A7062
102
}
330
A7062
100
AcDbDictionary
281
     1
  0
DICTIONARY
  5
A72CC
330
86ECC
100
AcDbDictionary
280
     1
281
     1
  3
ACAD_XREC_ROUNDTRIP
360
A72CD
  0
DICTIONARY
  5
A72D0
330
87813
100
AcDbDictionary
280
     1
281
     1
  3
ACAD_XREC_ROUNDTRIP
360
A72D1
  0
DICTIONARY
  5
86E8A
330
86E89
100
AcDbDictionary
280
     1
281
     1
  3
ACAD_XREC_ROUNDTRIP
360
8A5EE
  3
BUMPTILE
360
86E8C
  3
DIFFUSETILE
360
86E8B
  3
OPACITYTILE
360
86E8F
  3
REFLECTIONTILE
360
86E8E
  3
REFRACTIONTILE
360
86E90
  3
SPECULARTILE
360
86E8D
  0
DICTIONARY
  5
86E82
330
86E81
100
AcDbDictionary
280
     1
281
     1
  3
ACAD_XREC_ROUNDTRIP
360
8A5ED
  3
BUMPTILE
360
86E84
  3
DIFFUSETILE
360
86E83
  3
OPACITYTILE
360
86E87
  3
REFLECTIONTILE
360
86E86
  3
REFRACTIONTILE
360
86E88
  3
SPECULARTILE
360
86E85
  0
DICTIONARY
  5
86E92
330
86E91
100
AcDbDictionary
280
     1
281
     1
  3
ACAD_XREC_ROUNDTRIP
360
8A5EF
  3
BUMPTILE
360
86E94
  3
DIFFUSETILE
360
86E93
  3
FBXASSET
360
A4DDC
  3
OPACITYTILE
360
86E97
  3
REFLECTIONTILE
360
86E96
  3
REFRACTIONTILE
360
86E98
  3
SPECULARTILE
360
86E95
  0
DICTIONARY
  5
A72CA
330
86ECA
100
AcDbDictionary
280
     1
281
     1
  3
ACAD_XREC_ROUNDTRIP
360
A72CB
  0
DICTIONARY
  5
A72CE
330
87812
100
AcDbDictionary
280
     1
281
     1
  3
ACAD_XREC_ROUNDTRIP
360
A72CF
  0
DICTIONARY
  5
86F00
330
86EB4
100
AcDbDictionary
280
     1
281
     1
  3
ACAD_ROUNDTRIP_2008_TABLESTYLE_CELLSTYLEMAP
360
A72C0
  0
XRECORD
  5
A72C2
102
{ACAD_REACTORS
330
A72C8
102
}
330
A72C8
100
AcDbXrecord
280
     1
  1
AcDb_Thumbnail_Schema
102
{ATTRRECORD
341
A72C3
  2
AcDbDs::TreatedAsObjectData
280
     1
291
     1
102
ATTRRECORD}
102
{ATTRRECORD
341
A72C4
  2
AcDbDs::Legacy
280
     1
291
     1
102
ATTRRECORD}
  2
AcDbDs::ID
280
    10
 91
        8
102
{ATTRRECORD
341
A72C5
  2
AcDs:Indexable
280
     1
291
     1
102
ATTRRECORD}
102
{ATTRRECORD
341
A72C6
  2
AcDbDs::HandleAttribute
280
     7
282
     1
102
ATTRRECORD}
  2
Thumbnail_Data
280
    15
 91
        0
  0
XRECORD
  5
A72C3
102
{ACAD_REACTORS
330
A72C8
102
}
330
A72C8
100
AcDbXrecord
280
     1
  1
AcDbDs::TreatedAsObjectDataSchema
  2
AcDbDs::TreatedAsObjectData
280
     1
 91
        0
  0
XRECORD
  5
A72C4
102
{ACAD_REACTORS
330
A72C8
102
}
330
A72C8
100
AcDbXrecord
280
     1
  1
AcDbDs::LegacySchema
  2
AcDbDs::Legacy
280
     1
 91
        0
  0
XRECORD
  5
A72C5
102
{ACAD_REACTORS
330
A72C8
102
}
330
A72C8
100
AcDbXrecord
280
     1
  1
AcDbDs::IndexedPropertySchema
  2
AcDs:Indexable
280
     1
 91
        0
  0
XRECORD
  5
A72C6
102
{ACAD_REACTORS
330
A72C8
102
}
330
A72C8
100
AcDbXrecord
280
     1
  1
AcDbDs::HandleAttributeSchema
  2
AcDbDs::HandleAttribute
280
     7
 91
        1
284
     1
  0
XRECORD
  5
A72CD
102
{ACAD_REACTORS
330
A72CC
102
}
330
A72CC
100
AcDbXrecord
280
     1
102
DISPLAYNAME
  1
Imperial24
102
FLAGS
 90
        0
  0
XRECORD
  5
A72D1
102
{ACAD_REACTORS
330
A72D0
102
}
330
A72D0
100
AcDbXrecord
280
     1
102
DISPLAYNAME
  1
Metric50
102
FLAGS
 90
        0
  0
XRECORD
  5
8A5EE
102
{ACAD_REACTORS
330
86E8A
102
}
330
86E8A
100
AcDbXrecord
280
     1
102
MATERIAL
148
0.0
149
0.0
149
0.0
 93
        0
 94
      127
282
     0
 72
     0
 77
     0
171
     0
175
     0
179
     0
273
     0
  0
XRECORD
  5
86E8C
102
{ACAD_REACTORS
330
86E8A
102
}
330
86E8A
100
AcDbXrecord
280
     1
270
     1
271
     1
  0
XRECORD
  5
86E8B
102
{ACAD_REACTORS
330
86E8A
102
}
330
86E8A
100
AcDbXrecord
280
     1
270
     1
271
     1
  0
XRECORD
  5
86E8F
102
{ACAD_REACTORS
330
86E8A
102
}
330
86E8A
100
AcDbXrecord
280
     1
270
     1
271
     1
  0
XRECORD
  5
86E8E
102
{ACAD_REACTORS
330
86E8A
102
}
330
86E8A
100
AcDbXrecord
280
     1
270
     1
271
     1
  0
XRECORD
  5
86E90
102
{ACAD_REACTORS
330
86E8A
102
}
330
86E8A
100
AcDbXrecord
280
     1
270
     1
271
     1
  0
XRECORD
  5
86E8D
102
{ACAD_REACTORS
330
86E8A
102
}
330
86E8A
100
AcDbXrecord
280
     1
270
     1
271
     1
  0
XRECORD
  5
8A5ED
102
{ACAD_REACTORS
330
86E82
102
}
330
86E82
100
AcDbXrecord
280
     1
102
MATERIAL
148
0.0
149
0.0
149
0.0
 93
        0
 94
      127
282
     0
 72
     0
 77
     0
171
     0
175
     0
179
     0
273
     0
  0
XRECORD
  5
86E84
102
{ACAD_REACTORS
330
86E82
102
}
330
86E82
100
AcDbXrecord
280
     1
270
     1
271
     1
  0
XRECORD
  5
86E83
102
{ACAD_REACTORS
330
86E82
102
}
330
86E82
100
AcDbXrecord
280
     1
270
     1
271
     1
  0
XRECORD
  5
86E87
102
{ACAD_REACTORS
330
86E82
102
}
330
86E82
100
AcDbXrecord
280
     1
270
     1
271
     1
  0
XRECORD
  5
86E86
102
{ACAD_REACTORS
330
86E82
102
}
330
86E82
100
AcDbXrecord
280
     1
270
     1
271
     1
  0
XRECORD
  5
86E88
102
{ACAD_REACTORS
330
86E82
102
}
330
86E82
100
AcDbXrecord
280
     1
270
     1
271
     1
  0
XRECORD
  5
86E85
102
{ACAD_REACTORS
330
86E82
102
}
330
86E82
100
AcDbXrecord
280
     1
270
     1
271
     1
  0
XRECORD
  5
8A5EF
102
{ACAD_REACTORS
330
86E92
102
}
330
86E92
100
AcDbXrecord
280
     1
102
MATERIAL
148
0.0
149
0.0
149
0.0
 93
        0
 94
      127
282
     0
 72
     0
 77
     0
171
     0
175
     0
179
     0
273
     0
  0
XRECORD
  5
86E94
102
{ACAD_REACTORS
330
86E92
102
}
330
86E92
100
AcDbXrecord
280
     1
270
     1
271
     1
  0
XRECORD
  5
86E93
102
{ACAD_REACTORS
330
86E92
102
}
330
86E92
100
AcDbXrecord
280
     1
270
     1
271
     1
  0
XRECORD
  5
A4DDC
102
{ACAD_REACTORS
330
86E92
102
}
330
86E92
100
AcDbXrecord
280
     1
 70
     1
 90
652598616
 71
     1
  1
76ADC862-16A1-406E-ACB9-35901C3E1955
311
504B0304140006080800546847509F773A9F32010000A80100004F00000046374544374238412D464434432D344233312D383532342D3136353931383633363537372F4173736574446174612F446566696E6974696F6E4974657261746F7250726F706572746965732E62696E3590BF4EC33010C60D4311030308C4DA81D5
311
246E1C3B4142C8F9C7C4020F80DC60DA486E5AD589583B32F2087D843E042B2FC04285606081174082330E96CEBFBBFBECF327DF23847EBA0529DA8058C0BE033C57B59A57E555395613897AB6A3A743A98F20E303CE7241124C8220C734230C8B84705CD024F699A0599C934D38B70591A95BD9EAC68EBCA84CA9B496B59A
311
B666171ADD1BFD896CE02DA98FEDA56D842C1610E85F3076D2C839B226EF20E4CDECE44C1AA39A53AFE079C69348E022A329A6494070140E28262C8C49C4021672EE5D2A336DE7A5321E67224B2336005D104C7D96639126310EC2D827699093380CBD66DCDAAFD9B73686B5ACB4E77B9D85EB593D7A061FFDA7F18BE5FAB0
311
FAE3B2E7880E1C57AF4EEFBF392EBFBA7ACFE9EB0F573FBC77FC765C3C3AFA9F8EBF504B030414000608080054684750BAF191EA14010000300200004500000046374544374238412D464434432D344233312D383532342D3136353931383633363537372F4173736574446174612F496E7374616E636550726F7065727469
311
65732E62696EEB606060F80F0540260323103700495E20ED9E9A975A94991C9C9C919A9BA802143037737471B63033D235347334D435313073D5757476B2D43536B5343074367635B43435654768046931363471713532B5D435353131D635313332D475727372D13534373670367376B67474B5042A03DBCBA019D37FE8AB
311
C6157B20CD04146B0062181F4C03F940F0C11EA29A8141C08141002C0426541C106CAC2CA046088033B02A030AC2157C6006F21A8018AAF50194E6010A610250382264E08660284CD9E98021862280A91564B406929A0FF62C401E28B6F88038B83CB1243943D7A928312F25350524C30FC460E09278FF165059C3D555A130
311
21100D970F85C843E5B4616AE0F245F929A5C925F17989B9A9203900504B03041400060808005468475088E57597CD3F0000904100006B00000046374544374238412D464434432D344233312D383532342D3136353931383633363537372F5265736F75726365732F37364144433836322D313641312D343036452D414342
311
392D3335393031433345313935352F7468756D626E61696C2F302F67656E657269635F706E67355B773CD4FF1FBF73E71C0E67EF7576C9DEF3EC995D46C6A1EC5046649CBDF79E192942562825CE965D8A868C2842C8DE9FDFD1F7E7F138F7078FCF6B3F5FCFD7EBFDFEC41B196891913091804020321D6D7513FC77D8C507
311
0EC3FFEE51B21F068154CC75D455CC028A3EA68992803810109FDDE5D5CEC5521B28A1B422BF80741695D5B529DA1C2D058AD2388BDA9F476F7C2CADC939304173DBF48A452BF8A700C0C70C3D121C1AA15A5270C22E2B9E28763651F7DA0D12CE11077B2ECD0D560B5E3DE2368B1E65C5E1C87384A4CC5F2D9FB8BE39E9B7
311
7C753783A37998F5CEF1B4FEE553463245C9712270880DF339E0B882A6BA713D865F6F384C842D440934EF264F4A304F8DE4EEFA1E2BF5E2D91F5ADD9613D6E31DDB33ED31DB1D7916CAF091286EA3D31B9CFECB78BB0060245B943C4C040119FF780A74DD308BA9D028678674EB5504ECF284EE814DAED07440BAF649BE4B
311
55DA2890F4D73E2D489A59EE54FDB0A85B59F2F52C4858A02705C4815A792B0C4A996A2023ECB195073E115E3E3647F64243A8338F2000BCB58DA5692C7E7C3D413F963FEDF3CF00FBB0F831A9D51360FECA43819F527B89FA260EB63C5DA676830AA3626A3693B23F1A17A0DFFCE3EE164E31B5365EDF0C89EF64D8E38AB0
311
BA9A1117D7C3A0EC44F44F4023095E80BA610DE336D0F99593A88BFC5306E72DF98F7FD132ED95878DF2964EA7E43071359FD83B2BDF9C6B5BDF768F0F3C0FC351199526F53D9460A34511F75D1B63E488178569472C91A94497807A3FD4A390C6558F26D416365C3656DE6E769DA9D8FC73774E1709812842DD8EF96AED19
311
60F79D21B395CDDFE6F92CB4EB962A4668C76990E2EF29798C8941D67DA50F4A5F947872460F1F6FDB794E8A29FD7AC0C0D6E0714339CE258FB17AE8535221E3464A10F29A0BE5EEECEFC5675926A89F49EB14E5711894F6586DB5754EB4D5DA9C6437EBA57DB97A24F8B8A8DB295FFD73266CF57E82694DF5166DDF93573A
311
FE9C9C5EB05F8FEF8E89E0A8917B0B3724DB7BEBB53252581EFC3E38166BA131A3A5B42FE2AD00A769BBFA4458D2DE7822F8C4F63D0B8E21B285AE13325F3410A435C648C9D91FDEB109E73CEDA7BC796961AF79175E1A3CE4C5E8B0D009B0C9E29EFD98BC8E97554E3D8D838424E270F7685226E5AC268E021EDE3522D583
311
E8F20C0BDE2959EF5BBFEEDAB32FE9A3ED0E39F211A86AA9DEBFC68182EDED132AB8BB794442D2D7EA9F4D8BFF52BC4D55BB165124EE90A42D101E67BBBB292FFB4F66DE5BF2300E44546757DA7CEF8932BFC9F92A0707953491A55C5A5ACEDABD9FA1AEA01BAC3DC5A24E22E7C47213493996EFBC369D086ED9397C9BA6C7
311
F9855C7BD5E15BFC8C53DB3D2A4C5901A57ACD2FBDF4D1676E95338B2C2BCE65FDA4C64F5FEFDC7D9CA5AA1FCF11E193F2FDABF0F4916BF13FB916A224380E6462A9815F2300DC49CC4DF8D055CEF76462F4B7A7ACA7365C2707891370BC1D0AA6203C44CCAB47084FEC057F27FFCD57F89B8B9852459798A675C66BD7CE57
311
2CAF71FF7E6D7ECF7BF62CAB7B3F1107DCD04DC55A3F9961700286141C94A4F771FEB2BCDA2DDEE0CB0BAE402FF1DB0100F8E475DFFFC074DDB4498AB7D186A7654DDB1CB680D703D47CEB4E72F8CB13D86A4AA68116E26387B93FD6738779B34FEDB8E517EDF2BAF28D9BE93A1D3A164320E07D42E514725C29515FF36175
311
4213EDE06B079A2E99EB1CA82A02019EADEEB87B9AF005BD04BBCECB14AACD6B24EFBE482194A97DD32400685FF1FEF1544D1B14EFB1E7F08E6D2CD2AF52DE757F35F5E62332EE88EA26417AD5C3E0E319D68F25414E6D672BD4522B278C57D18F0113921C71D96527E091F00CEB15AE23D24667369BD3CEFA10C7549D9308
311
90BA4366F4EBC55F01F746109F98ABCDD5A3EE06619C6AD78AB33E48E4C9BD21BF7478B385EC05C4F8987E2C1BFA0A60EBEDAA0AE0B015C2720ECE180FB6F2DEFBEB822D96338C9B63822183BBF52FB664A7AE57003AABCE512BF77E7E31BDA2E739AC4C131657DDFE5225E900FB56CC01CDE808FA4A9C9DA16AC679656BB6
311
4796283D89812B8F91136AE18EE5EBBAF47A73BE3C153EB5D4CD491B4BFB4FE690A4CF9ABA08C0D8AA64220C438C96EA6CA80B58FE5761E697B3A292EB9FBDA502FA863E49FE694ADDFFF9D62C520BDD1A22014147A0903A05B9B729F54272EF83931FEEC057BFF8C8055C279EAC5C0011804828734024F6CFA319C9CC6867
311
C727184465CD9BB7ED386AFFD96B294A85E3802FAE47244602D8273615952B98C4F23F7EAE4463D9D638EEE374A20959E0FE519C4CFB0FBFE5DD80C2AA3F9DB961D1BDE57E67C9BB47B77FDD74EE3094F5DBBE3EBC1FBDB7393F5116263009E2EFE1AF9A221B2AE234C902BF70E9F280ED23E73908361565964333A3F01D0B
311
006AF32FB21AA1316744B489D5A198E85299241735BE559675130955C902A8ED761FC0DBE337A9F91919AF5CE32AF902ADF9AB2615E00E8A94586BA1A90839B61832FF1BFB76D2EFADE6DB1BA04CCAD3DA649E7E2A0219F592E22F2AD54847EEA8E42271011E9074F8F3DD9FBA6CDF88FFC9FC7E811AD1CA8F4557CE4AFC7B
311
BEDCF0114A48689F20A584520C74DA8127124B767E2FB91A6B186246727BE63C9445BAE02088D58B8EFDC0F1072407CD9B89A13F6303B4A928F593AD489B58E6869325790ADC406036C591729FE14021F94B7796BB11848D463536A092A26F077F94639F7CEEE2A724C66EC885F4A24F8B8A0AC321F8FD149BA529460FAA34
311
E4663C02D41FDF80BCA222D42F0ABFF8490F4FA74C673807C2051D8E467B47B616072860069A9A303ABA9B319D58404461401B0A0F9BE5E1E151C14BC33B32ABE03DDE91708DFAEB15E7C0D593C86BB7D7EC17BE56E57975F077BFD5525F3A1A361D584A75E08CF29FC7B44B2B3085014F3A5A14517377C3F6B8F37E59514C
311
3B12F8AACDEDDA4DFC49BE5710101534CD6FB6DE15B50F11A09472AABA727F0C49D9CB906B158030065F48EB3625E010CEC1D511D0053474B11E6A4F01C0D6EF1BED3A944FDEC70E0DDCDC756C86545910E0DAE3BE3AA9A404574C2995CD5CAF9549226BC94B4F4F0F5F9086F418F6B32346464610D8BC7391D3C3A3CCF04C
311
FC1FB2A3A3170E369511868F14EEA4E5E438CC73DB1F3248AA94B6B2FF33B222FF3D1E7BF146CAD229770158063BCE4F5391964DF62F7E52A7BE0EEA829C9E13C4C147D6F93FE59E111DAB5E4594D6F3CD1AD375EE039930EFE5AF2BB2D41C83C7DABD8C659BAFBE8FAB392CA634F3D15C1D945DB4588D2B0824A4EC928AAC
311
565557CA2F0DAA588CA5BE30B3A8004F7BF005E96CBF891D7F18112A3619FDF530DC8AA64954258E1811789B5189B49B4EB53F5F89F7D37523894F3EB57B373763C91E502F52CC99EB7BDDF933FC324C4FFC2561DFFA7339FAFDD0A4BFBE6D3A8FF9ED1FC49898139864602458968913181918F719CCF5A68B2EE9C1FF050E
311
34E63107003B8120FA982C21B30A874E4F5E4B38D5A8290C4B8D9BE48A0BE31EA995BDC37AC6DE90BA17D259DEF53605D55922FEB1855D915B659FBEB350EE0DFB2F9F766E1C84CC8964B75D08667445EAB966015F63A18A9E0A325C1B3DC628C0D3CB60F767FA93CC65F25458BD23C3B312716E5F40E5858AC06EBA9AB14F
311
95DB99147B832069201541D09A0D856E12C629CF32683760EE855537D1901988D5EBC156676C7DD51D7207CF3267AF1D76C2AD867315E44618015313A98B19941C696FED3461CAA9B5415F918556D7802EDACEFD6B2E45853A9735DFC9DBF7E440F9319F8B6805A973BCCDC76C069A9144E51F187EDCC12FC31B5DEAAF0A76
311
137199B106EC84ADA6B6EE697D4E6A96E007417F4E880E8B1E89B4BCE9D81EF611E2ED8F0C1A6C25F620FAFAAB656A7C42D464880E8AFAB0E0FC8EA38CA9A8AEEAEE3E4648BA4680270A89743CDD3E6C6CBF34B7B640EFA285ABC7EA0A1E28F3CC963D114A80123EE66D0AF7D5380EB41909B605AB4765B709B80859045815
311
7E69BA1378FEC4B48CAF6A730E3BE3C5EF2DD1A5EAF94B1DDE50CEB55DDFD7EE9A16747FA4B223359FB1FCC69E1194892BABB93A1D5C4E807AC0EA2E30180811E77A2291F6E7F7FAA5E0F60215BC6024E48DE436C511F0628B8CA189982D4D83CCA17D305A7E923C37941CFDFDCD93ACAF735EF5F0E61BBD3E6C41A59B2427
311
90D3A3BAC7064DCD89AA2E37214EC839820949D5CAA31E240D2948E48F690298974A96BA9A8432BC90F5071D6537C9666EA4564796B7AFFFA548077BEEA75F63083435074BA182F3699557397F71548383FDA8CA34D99B981E72835ECDA5DDDC151315173D05A21F651AAF8524E88209E2E7A737ED1045800CE3390050BCFB
311
8BE588DF111617874C62575039CA588EEFDEFEFE319B739DE2EDC147092A262611E159650E787917885EF08F1F51B8F2D8A71D60B58B190FEF9541A1BE94BC19FEA50784DA1419FE4B0FB51B8D36B5FF8E1286FD8AF42B91E59A5F1CC4D60174E764045FD8C57B18209B217F89A62252BD20BE0E63E12B8E8F029FE19E0E8D
311
0870F58721A557082250D5424F7909369376E41666C0EE77CD87CB283F661D5FB6D0DA023CB67320A20DC7BE661E9E1BFE5463085C557DA1FF9BE835733766C3D139F2CF9E2208873AD0EB4814DE9E6BF2CAF81614D4D43906ED1C05A3265CABBFE192770FC2F64F940CB6B17B5F166F133C9AEEAD2641807C3E69515171DD
311
74C4A85311513D6EC9530B3B601B6BA3EBFF3B5C3D2F7D69765141E345F75433953D013ADDF8F6AA7DC3F4A7563FE5C7D367937E2900D7EAD0F9FC9A4A1A9B5BDF1FEF08532660C01C5D6DE22199AA774383E306DAB87E301ABB7D213887F9869D4942D0D71E94B27EDF216A318BD488D45DF84529EF575AF3C3938C0AAA02
311
15B01994153E2054A0B894DA5C784980633AAD48576957CF4AEAEAFADC7C587368551C73DBE1E57C58AC713303A8BFC258BD04B51724459FF9E24C03A81E0E0679CEB9B348C0DC998FEB9C6D6EFA77D247CC8F92D3848599ED89A23218D0636465AD1CEEB7DC140D7426F83491C4E8E8281C2FB35240918FFECE880CA2A42D
311
70E8B20B34DF5221C7DB0CF90ECCB9C745B37A47E9B716FF7A97B7A252C1F3814DC7B1E1A7F72B8751D524EF7CAE45B0C73B3BE7D08ED39781B380DDFC9AA4A4749C9493DB5BAD07A6EA6C092FBD0E85DB004DF06B8C9D3089C5320187E4CE1846158C7EA7DDAE8AD9AFFF21AA3A1026BB06A259845E8232DEE62811A4DA9C
311
EAB3A4887320B76E2AE5615EAB7BDF738CBDD01F1E64064BC13D9EC53576751CA8CACD58B3CEB0E6CA585BD089B2A59B9FC101403387AADBDBE70586B93D64BF3AD4453EF9C3B6A93817E8346991798601344F79A83C51F3D50F7BF2683A3605F51A72449489E0EE6169C749C60B1035651103AEE24D24E51A759C840DD3FC
311
6504DA6FE107510E447B43461C79D22970B75DE5E1BD3007D1AFC619A4A4A69B5626AF5E9B8374E20677F77E2F8E73DF868E8BEC7EBA7B6A75EEF7205E1AB9486CB642741D6E03FF13FCCEDB1C4AC129886268B01CDF4B124AF797CF784F3C6DEC97A17D4B558070A0F1C04DA4FF9BDBF34159AEFE958479824B3F58EBD1E1
311
9088A2AFDE501B6F2052368A3FD0E650A179EFAB1561E1D27527077136E652676C3670F42DCB3352F48F6BC86D2C3B0051727E41A0A4DC6CE2BE9D47F5CAA2935A3C0539AF080665997194ABECD723B08129CC5B6B21D2E7D54CD4D12610E7E9FB8306771A89576C7A982002775ED44F3F744CF21EEBB27A631671D921938A
311
AEE3EB0D19CD1E083727F607823E817BF599DCED5394E37EEBC2E88782E638920CA641EF74D4CDFCDEF06F4278ECB18E31E7E9876F2D783C8BF429C75395F57E98C2B495A3DA077EB3AC3C158608B6B57FE3EA48484D9A480096FCEE0DE880950E7E5A5714131C5C41AAA29FD19AE81AC145FA1B9E85C7169A5AB837B21349
311
3DF7E9AA4B5FBF9CDEB36EBD21EF1181B7CF7366AB2A951D01E37AF4EB835D1BE8C117CFBE7625D2EBCDB0B20C5A4B45CED0BCDE3EE8DA9DA78C2E21DEAAFFD1197E463C33CC6A80FB785669B856EFF7A8CCCA2841B5A5369173320B1170C368B2748D81062EA0296E5E2D95D7667A4A46D98A6FF475C76AAB0A8C8D45E226
311
FAFC9FE0133EA9F60111F99CA81ACE03A1D14C89E8B0D69079C91464FA1D99E651D0EAF606F345C42A8A1AA9BA391031582B96D5B4176A77AADB01F12FD298A75DEEBB2C82F0B8650E880722F8DDD90C56A7A058E5FDEF1AC93545BA27367C76F5D8F9690CB6F8DAE141EDD7971F0FB548A2AE435F224D6E5954CA155512F7
311
332029D5A1230854B79F258EC5FFDB09F5F6343A8EB193229B7F7E79B3E48F8E183860B38C8269D1B53738FF1E0BACF6AADA6D4869E9DE708E79B5DADCC09B1BC76F649731CFAF59A83FD8BAE4C749D66FA87A3810D4D62FFE826FA400C0F325D2BC0F3CA35F5847B82A2ACC7961745C823E4D863D54460AF792CE6F79B5C7
311
A33B25C3AEA6CDE15A919B6367D781E9D44F61BF828672594A3E1D9EDD6DF179A81F27EAC05B936575D73E05C209DDD2115CFB705DF9BBF3C911589B3640735E9E618FC9C36A7326C82B2205E244C55D56FDB9D5DC93CE958D4BF8174D2B3DA54CB3C09F2C2A6DFF73D23B2197355761AD421EC581284A7EF8DE2CE3497C0C
311
804D49B41DFD6A7360844E5BEFFB495CFCDB97A4595911CDBA623274CE852B5E278AF0BEB1770E9D37CD977B2766A7DED0E94B840E1E95E8C77DE5CB6354AF7871427C28ADBEEF7BA0A28E19DE9ACD75F379FE373EAE6DDDAE3834692F9C2B03B4FCA8FCA9ABE8EEEBEBB725B88A7C90941E850682CA04061A7DF0CE82ED49
311
BFAFFD42C309818FAE14755CAAE78B0F73243ECCCAD7DF58FCB9CDFAE7A4D3E6671A613639130D056C8383C8F4FCF4808C331E544DD26E4755D09EA05253B3049A1E32587CC25D72E073E2CD96D04A71BBCB0038FEC3F53D254199C3CDC67CD66640269431860225392B2CB3ECD0B4498AAE78BA1994246AE1EE78F2EDFB79
311
F6C6CB6B5E279C4D373FBC21CB2698C9ACBBEB6A4BB6B39E16AB0E421CCBFC7654D81ED86022F9BB522146F9F4772E2D0E4FA70120C95A85A417BF5078B232F4754363EB1750B2AC2148EB46B1EA72AD9B4D23ADCBC589D70106C3EC2ABEEED84DFE28E718C6C83502C28E9FDD3B09DA0A6F6F7B72B706A31C9E2A331EE70D
311
A56A083D2177BFD63C55B11D8D949FAFCF90B23A1E24B9B5018B9A17E99F2890EC302F330FE7936E2C23F0D237EC8916F5166AB84B62A21BB0B950146962D754F92CC2C8877BED8FC7B7B25726DD19545392570B3A2C66B58F027BEF412E552D12A588C4A3CC5C3193FCB3485EFFF700D0B9EEC077754A33DC1FB9E25AF814
311
628F91DDFECB667D3F7690803F38D13F8AE39353523BB08FC6760144AFA2CE28236F65EDBB3D5F59A57D612B99E3D7E5F8A851666BF9B5A6658EFC96EEB37A378ABB0EB3FDDF1303AF32C41BD1C8560745D7BD81066B0D6313359CF488563D3BA3F8E2185D1FAA3EBA1397C9D0E3DD232180A4DCADB6AF25DB3AC3CC26589C
311
8239E66E81547BC7E2F328F9884764CA37EB5DBE390DFC03A5246B456A7C3684C4377D0EEF9A350680FA9A077E8B2957B489E09AB1AD41316944C2254B5984830F691C93CAA767EECF976FA5647538830B5E63236A6F0365C1E0F3E327F24FE35EDDBD7360B0F7374837409F7A6311BECC12B7026D4FA1AE204FA3F5FE904B
311
1F420C7A9044AE58E403E7C4848E7DA25DC9EDAC79DD756FAA26B9EA83ACE8A214A2612A22AFA19DAE7DBAC5F8CDE1292A485F98DAC731A29FE01A3966E96BCB9FB5A4C8830E1B9AF0C54B87FBE221A097036E5D28D1F869F810C06A9BB0AC0612F69AEBAF893C6E7AD59460208BAB3A6B09CA4F6BDDAB8CF0D1F84B724874
311
98395A70DCD754796E271099A567A55CF242BBED64696378BB6CF25EF0FCDB589F3A82F1116D010A9AB9FA4358809EE0C973A2B4229BAA876A70B03AB49CBA7FBE71DB1832FFD32F9BF2C8E98075CACAFB36921235D0F552B6A67E94E094097A5D7DF681B40623DA535ADA7A9AD8E9A62407D7C9A5AE51D62A17A83A23728D
311
E86BB56115804D3F2675F2C6B87541A0FC497BF0CA86420F558C9859EBE9FAD62747E323E3AADC03FDCDDFE7407B09DA90B44E3185723C5381EAEF589765E2F7A099BA46695BAD60CEF3491B8A171F5F56444F7CE9455312C3498C74173AEA0214EC029833B34B650CBB5A5508D5091665309642791708ECF27CF11DB3D797
311
D6CFE474453BD4BFADB768094B2147814D81C7CBAF8228DCAF5564B5891F5EF6A860EB2E323CB82AB868D8EA048880D63B0DE5341F1B3D53297B928A11E15F25E5148990F710747C3509ED14909C552EBE3973246FCE55D00564D8310BC3EBC5085D08D806799B77D6C57FDF5E55837F9E934F09C03C729271B64F12D0A9F9
311
E938107CAF7BF1EC8CF1BB9B42363D33070F4CACB425E605DDB0A34A12BB936DE286B9887A4E2E558F0886498BFF49C311D96C277CF6A9FC0D75AD0ECC5226D7E0E3572012E56D7FDE4410CEC7A6D0F997F225A2055B8B92E3956E875AE4993CB3D4C9063AF98FD45E1BAB165640A43439A2C9181A7C355B297C0A0CCFFAE1
311
9B6FA3C2BA238A885FBC98B8F6DAF4B94B97304878DF4D8BFF6A4AEDF79E90ED4E68F00CD7299F4E0D83E35601AF0CBEF18C1E870E74758FA91F5131075004DB3CFCF09AE1DABC11957FD9808C92E8A678CE9DBE40DDA0E0D1D505AAFBCBA208232BFB6FB3704E8985E61ADE53DE74152F5C7DE74B1DEDCD37DC3E8FB30D7E
311
BA8B9EFFC3606BF90B8D438279CB7709FC7C00D327F41817EEA71CD9E49FE9C8C9A81C70915D9F0F15958EC5AA4C3BBFAF46986B90F188BDB24B89DE3C6F29EC3E6F66D84856EE96A35E657CA41B41EFD8DBFA16AD6E91439EA92B40B21C053249F51AE50EB0B24C770FFAF40DF12C8436366819C48E36547D4E7B72FE2BBF
311
10828583057814A668BDF183F6B2E58DFB151103E56303E63D00F39C27C4661605DB644D19175D02E3F0241E8FC3458D17AAAADB117CE9EEA690D0DB01E634878C04C2C9310B69FCAB831151E3AD293BEF6E46B0ABCECB50F5939B39C613D41E81FAE8D34CAE3C4566B761D37185FE864AC32FCB71AEF39DAA5BAB88609BB9
311
80CD2F07A8F941653B529567726E2B2A58D079DD57E1E5E31426CF184A04D7B03B985F276D47406AF276FE32E3328BA866EB1FD39BEF57863A317634AA5FE467409B3873F5069EF0D71AF00AD189D17BA1974ECDB2D623E9E14086386A6AAB5807825C37B015BFE892AFD154920EC437EB945D958E18622E1E0FE2FA06557C
311
E4BB9BBD05A2D40E774DA2B65473791E314B7D6C886820B2FCFE4AA272B3B8B15E7344A145E8AF919B5454D89D36D413E87211186BF6F645E5EC94DCCE8E1C799022E4EC9BC86D7A0F2AFB1FC4B2CE48F84B3F49ECE65BAD24CADCC07EFF39AB06BE9E6B27A059938EA7208838455383DDBCFCD967DDE4650EF92A14FF933C
311
975DB20BD7FEEBC4487576485963D757D16340D9599FEB362F775F38CA4185A86F74B629C81B133644A3B18FD056E997E0734F9BE26D11C0AAFC669E2AC9FC41D281F8B2E1C35AE27BCE05F3DA295488096688719D974DF1B5D182DB7792288697F8763CFB43562C1CDEE11C4AABD5C22B6E33F6F389CFC3477C5919DC0D53
311
3F8A7A1846B7ADB60ABDC26C43D0CFC8910B7C15EE22675BD02702ED39DB77A87A192CA7A543E6205B979B9F5A6B512A3CA799E198B2D5797C0AF8D1D872CA455D4D431A7879D4DD76110B5FF7F4176B54477A9EB5E4A5D11214FDA585F0382751D8E2582BA5D2075053298FEB8F1537304E32CB22C2E2B693DC0A760B1DFC
311
A751BDC445AFDCBB12820ED85F6D5298933C7EF1211E9E057684056CDA3FEF3BB6052355E162DF27C59E965A8DDB7F9437EB72CDDA3A090DE65A5B2F50326247B7EC67B73ACC7047FC9B353D6EE990F772207C6EC52B39DC2F3C0754821DAB559F7C1809C7D0DD5B0499D0442E0A6E391B3D5DB46D11E731E6794EC77523FB
311
DAA242ED67F9FA1FB684255671F63C9BCFE6E7E896D51001A6113EF2298BA494E0B0980D1FA5B9D60796554C02256B1E0345FB7C6186B6A19D2DCA270416262845FA4F42DB5D9B0A0B6F07FCA2E56C242522E001E0CEB734AF310FC8BFB57E38E03AACE93B3326A2197891E68452B26A6307FDABFEE0223D3C03C3C73D2D5B
311
C054C8311F12004CAE488E5C29287F8156A2CAA4AD0D7BE6B97264E4139F437CE73ADF52E5134C52B819777C18B323A5924E4F67AFD13B1CDC3A61793A79FAF5C0CEB718E441071E797C6DCCB9EFCF7E4A1E9F3DF3C2F9C9E8294E9586868788C972857FB0556D7A26941A7EEB9B580AD78EC40B85DC906B4120A563CA3B87
311
797ED612D3B035962BB75F6515A393F4CB057F564CDF54F2E5A024514E6A1F901DB80C7E70B1FC05E356A7E72FABF4775B3E3FB8F70A2A8E7B6A94542BB304157978CCC999E707A29CC795E67A59CC546A5D47B368954CA7B6E75EC9E1F6FC73CE3B4F71F8CB1A6B15923D61EAAEB14626AAA9D04A26EB9C66CD1BE86CA31A
311
5D8703DE04CD1EBCE4F5CCB62F93909AD11E55799A781A956ED27D3E738F4538CB04ADABC7DAEF20BC35BA6A90BCC1DC61BA05F20D8832FFB9BC9B15E2DB838A0AFBB7E0C82A562127E0446894F427794C3037186F622BF24DE1B00AA10A23BFA47B2A180D6DA5AD6F7326FEB8C100C2D7142EB2A0B2A9D1008A09BA343D70
311
E054AB69E2A7EDB783CBD92537FAF4A44D1296AC2792729104B3276C276C951D0CF3CF3F1E6B017720A7B8505A5FF9589365979678C36F1BAF759EAF57C60F1FF5FE9DCF5F8E764FF25A2D06CF25117A8FED51884C13B2B750DB0E4F5E3D64124FCF11F0AD8F1CC3B3DA4B38ED22BF1CB2585EE6BFEBBA63FBFD44F9537B9B
311
37BDD6B358720F98A8125AED4349CCFEB0E135F19E208A04CA7E2B10711185D72E381F448036EF57C9F874E54A971CA37A639E986AC0226DC5AA00D5B14FEA9192234B3DE617814FC221C92F33F1D392F297731B567FD98FD91D989379AF567A65B8ADF177591DB90FBEA99BF4ED11B16E50A0AB1DBF1156D034BBE04D69D0
311
8F939D8E92BF525A1DDAFF80ECBC95D8F45D3FDD289FD23F7D8B452F8EBB34EC082DEEE68E18EDDF072060FAD2AB1504DD4879BF67099FC58F6E9DEFBF645D16334A3E9A127C6F1AF6132CF287E433B43A0EE93812B4AA0B194E03EE3FF91EF9C6ED0074A2F6EB18A96A7C9890B1FCDA1F2095E944DB911ED54C60DF16FB74
311
C8CE9BDC7C54C4F14078CF73C2FFF1F1BBCCD7CF64F71407EA1683DBC410D226627F66E509060D5C0AFD611DE681D509DB8DD12FB1265B03C6F5C55FF4C30BD94187FF692B4F152982502F193098A789526A038AB529A52BC0DC4FB6285CBAC10A8B8DB75DCD9BDABBB221E27D1F8DA9F5EE5926A1C8AA9BA9BC09239C6A7F
311
12914EA3B59EFF7AAEC3FFCCE56F1C5C2980AD072793527565E774F4631DB178CEEC691B1F367BEA0CF2907E1D6B854D527065979DDEF002D8B2ACEA7CE21AE297737EDE1D45B31233B73FEA35BCFDD0B09721FDBAF6432681F2FD10C3E9EFB246FD6E854B344ACC9D8A0EEF876A7314B49B6A499FC650B099D650DBFEC763
311
8ADFD245E2B7839DA5AC5F7D5623FC0ECEEC8653FC9B2BDD1AD4D00A566FBA7186DD3C9CD26512551637498CADB950FEC71ADB9A5524285DE328B8EC7EC75D2345AEC6A27C42AF6D9B92155315C80DBFCABBB7DA0FAE425C4FB896B15C9BFAC4FE67DF5A23D30C93DA4D8F36FB15D100050DA6062E22AEC5F4DAC4F6FEEF97
311
AE05DE63C6D38F9E068A20BC5E3B6BCD75320C5090924E7F93640A7735B1A43451C2D91EE62C6238B797349E59890AF3A520DF4A87095F3ABEC2E61F0593416CE46CDCBE0E00E2523FCCD04408588B5B6C9DB6459C786CE378770B54F51DA3A5E1DF2A3349BEAAC234A6CF8993B598B3B25B4B113E353A4D750FA753474943
311
0F3EBF2512E7EA3FD43C6AB9A1F765A58463B306721A15D224FAFE8C6F5E3432D57EE697DA0DD5A9D4866A8BCCAAA9DFF1F06047851408FEC060471D0E3EB86BFAF46E4B5E60311DC3E3CEA147C75CF971BE74689507154FF2D2E92F15CDB2B9182B11459FD8ACAC5A85F174BC94A7F4EE4C4F5CAFA7C02E37BF0BC77B7DCD
311
0C047BC316F562A01A441AFA7931CC84A28CB9F4AA367EB515778F29BFE61195FA671F4352E5E46E3A64773F1F76EE5EB36D7BCE9BCEAD837A4D77F8DB8C92AEEF6711920D7C7D0F76B0FD0EB7AB83724CD35BCA7D36DDDF5FBB7FF6F04A91F3E2BB3B8F1A43CD659639507FF6331C5F697BCC782AE57D757A27D97F1AB9E0
311
AEDB43F92F1B2AACDF5FEC8ADBAF9F814E2027003BA2F9E144B1938A7A04050AE5D953B82C45619165C813A10E76DD6906B3C16438064D14CDA713AEC420034613E1AC7241904A49FBF87409AFB1FCB9B72FE7933A87D8FBEDACECE4EDCF6A4FE9FB94D5DEB74FAB7CFEAE17EE965DF980DCCA2D04134994F9A2E94D2265DA
311
4FE6AA7B7AC15FACAC2B5ABBCD7DFF542C5314FDAB2E1B9D8B65220B8E2B638BE008E8DCA22678C820C5053664D15E89F2D735B51A84955E81A443545E9FF787BE0FA700A76D136C27DA179A7C6E8939E01BE756E19CB292798063D8B97F44E8A27BCF3A614FEB8BE974A718E86F7EC99B53CA35FA24F61F2B07266684623A
311
3D4CF073E511F3A10A8FDAFAF0078C577F4DF9D339FE7862E5FA47CF4344209E5BF76D783B1B48E152AD281B15FCB934DCDA49CEC5706B1EE8B460F435324A5CAD154725E21AB8044B75A557A79F6C807B9340AA3D92503E866F4274412926C8C504E4D5EF8C0E68DD0B028781A6B4054F11CF18941F101C57CCC796773ABC
311
8DED9CD91FE5788806C05E548895354AEAC96546D55B0E94A59F148D061F42AA398D822CDECA4CDE79E13469BDCC44FDC990F366BA5978C15F97ED80CBFD73B0CD9B8B83A4F6845BDFBFAF034019473FB9A63BD55D3A4A7284757071574029A4D016DCCBE95DD679EF3C4880BF169422F8C89B68A988D2B13793CAED4F74DE
311
7486C72DC94DF46B8E93D8E02EFCB1FF9B3BA10C8AE7F653DF94F4AF466CDDCEF5776687F7C4C14B63E4EED1719DC2EC482D7DBCC7AE518CDE3D5FF86D39000EC3673C0044E1D308BF05F74D1B5F033A7D1BE7F74BC55BBE3E4A20F920946CA0271EB17BD2B80E5660ACB8A29A79F5E4BBA49D4D945B6EEF4A7EFEAA65E555
311
5BBB57A7E15D2F83C69F30BBB978D2B39F1F26FC097424D39BB33CA3D87ABF64E307938B685BAD44F71556A30B7E712CA4FE600613C3E554B69ADE949A7CFE214DF1FFF05CB82151EC6FC31950239F94CF7AD39DC473F6EA356E5EC2C4EFA04383CEFE985A127484366FBEE3C0EC4FEA363E4F6632AE781392FD45D67B63FB
311
8DF70E82734F431FD3443172A0E30A83D60982D55FA6A2CF86DBA8382502ACC6CDEF3B907982EED1160E14863FA242F9757347E1544275CCDCF71ECD5F8621CBEA326B8BA884AD7F825781923E66971F04010D574C541D8427A438A37EEF8AF88240EED7362C953F5A81DE2D56109CDE2524EA0F5D2F87308C0C47BD97AD60
311
5878AB8589E17CA83930CB5E0DCCD75853D68B1AB136594926DE426C367428E9334AFAFF90ECE221BB5DC9E5BB53D2CDEF954EAA9CD814F0E5725F1965DD458E5F8487683AD86B9D0076BE3EE91EB1CECC5331A67A3F79D8B27587C12EC2A6A70474749F27B4C0BBAFB94B34189E88DC18964BE4121B9137FD516C7755356E
311
50D6714E31ACD222621EBBCD1CFF81D87479056A9DA0E0B8EA19D24CF937DA89F78E8650CCBDC110AAB6C4E46DCBFD0446BA9E2060E81F314AC2031E88135E5476AC0160EF5C0DD2EEF1B8B5CB2D198BE9A554A9093B5F7D7E4B5407DDFCA1D9C152FD97F55BFFFDFE802954DFEC8995B983E28AC92F1971E28F531DC407A1
311
280EB125F64A72E617EFB27DFBCEDCDA2D6F2BDADA36873EE46B9BE1782998C63DA7182BC383FB6FD15DA472B175D7E8B4FC88F38D6E07FEAA3FA3CBB8F6B449ECF14D2175E5C5CCA3A42ABF24CA6C9395AF74535F4DDB38CB84F56614B0FD32D7E19CA5CF988DB4449C40E23DF2B16772594554579094450F56F253CD25EA
311
7F77366FB1CFE79696C428BB64D5A41E986189427E5E4D7E2DAE3D5BB4972B3DC44EAABDDDD63A2264ECFA5C786EB0EE1FDC5BE34FA0F08376869FD1E61EA06CAE15191135445EE8F0394161C3266A596AA035572BB0C8876180D8B9C77D307DF9DCDF7365ABDA6F3A2366436457A4DFC1F259666569A9E4A79C817BDD5610
311
E5200FCE894A358EC72858D50EF67545DA81C6FACE3D457BAF70367E1E6BDD9A952FB4F56247F58F523B97E640246051A72F79BE42FFA0B3187F63097F91C48B868586F714B0EBD5A00A8412C1236E1298F60C72BE6C96B82B404CADAA304AE9F303176B14BA53FBC2D5E86377E35542019E24D97B96A49B2C0E5006E77959
311
54DEAF5DA58958839043C6C70BD3B1B33B6DC5C31316D8A6923F142E26F6711A2258AF977DDF1F970ECC4F1F2B434B96D81BEB6E89BF3BBB3C7C8CC80505070723D6D7D7D3C8CA27CA164A26024FED94B12A86031867241DA53D929636DA600F050BC40CE48B8BA03D69224720DEE2ED2127390BDF5E6EA64527BBD4C4C63F
311
A76BB801FEEC0E61218EC98A8A86CD8313781617877E66692839B9468CF4DB8E50A73986E558E309C0D6F676F921BE02F1185454DC75B111572FF9D27D85EA14C05AD7271225B391C4275659CA4A43759D0BA44639BE4C30A84DB7F67A41399FB95CBF923B1B1672ABC807C1590557FB18D811983FA97F5E609516D62281D3
311
8B1281F68FC75528C35E4CD7DF0F7DBB5E5DD69C414EBEA2F4A5B241B996BA77AE6C772E367408C633EA3E438B68563EA8BE7667F3A4C4FDEEA52ABD78A2820F443B7914A15F180018D231E64519C56A12F6CA7C8DAE18F06F6B769DBF92329EF6A5D18FBCE600F36BD8E8198DE5CDAA96181F3A756EBA5501CEE58F497EA4
311
F418A2B82565B9BCC611713C0B708CCA1F398B78C5F7D03B3437CC18F13061F55C7BEDADD5ACB1DB0E36D3CE47FF6EA1A563A57E9649EA5D14D1A50EAA457463381C073777EF1600607BAF6428A7DDC079D47A204EF1E1F1F0589FB054D45E02CE623B3823C317C601E589E22B1E88B448524B86A82828E32345EC18AE1721
311
4B42F8C41C6D428016D9BA31DDCB47572561E5A402E5BA4FCE55F78AF7268524AA04130F3A20BA5D1E9F9948EA48FC8F5314FDB35E21898198060034ACE5E3E2BBCA34092518F275190AF65F45867FF0900AA4B81F25427414C372BF51DC29AA855C5428EE1EEDD6B849AD60F6E73475C2D2523F8A2772C840A478DED18A8C
311
5C91B085F255DC4F54EA7AA8947354FD17ECF8FB3B4A0DE7B483CAF3A1165EE05BBA413E5C1FEF3DE1D6B8F2F3F3251C17D9FCAB48A9AAF63AC773A0E413BBC46A9ADF84A566FC920E4D8C52C9769EE3301CADEEEDD92B312E02E2A7E35B7F1E7D203FE5A7D75578B06E99D0E46FFADB8FDA17ED8880390DA29094202D6F64
311
5F76F6F96409CDA05495A96E84B04A00D1A6C6C81D7F3DE9376E828CCF144EE50E364ACCE7237EA0BFB5607ED1AC3CFE73794E5B61739D14DF1743441B1AC98F00ECEDE9E7301FA29755FBEFA68C91EF2B314CF510537EF1ABFC9A762496280B546F5EDAAF8A5B387D469FC9A878A92828C88608453ACEC6094DCA54111E7A
311
D5B2663DFE2DD151B7F123B9F4FEF8EE36AB125FD7AD52A59B1B765B3E3F73E3F73DEA93875004D2AFFE3CDE9493B87A9904DD052028949041A91DC0E1BA47BA714343FD5B25E0A6A09503AFC17C790058A836A324FE31D7893512E28230332F153181C1E018E1124EBE1BA262AA428A518237D1EA7275E48C5C561BD19ED6
311
912EDD8367DA0F31E40EEAE9683DA9257525AEA7B632B97119E17145A90231768A4F3B9120FF32E8319B015E3CBE26F1A754177D8185345817C096B0CE443A955D13AC15E1FB5DEEA0239EC32A3C92241A237B0B02FFCB4F93CF2B02570C8D192E2F2A68CEEB42F12E6F8CEEFF46C251E22B4341C56FB08CCE550E7A9D6F4D
311
6564B9EA52A83D5BF2C6E03FA19D2775E15A8A7ACF30A13C259EE7F5EF2AC3BA354F1500E1A07FC63FB4686E2F12EC69719F9ECF5FE3F35598DF2CE944008CE78F0911BA5BE5D0A34E0098FF038669C26030BA9B300303039852A8F6F496341737CA7E0D2E3AAA36DE0A70AA7D9CA0D54D9AD84B18A44C9E625475E1C97B93
311
BEBB38DCE7D227E67A2D00F531436136355F243D1FC0D712C5765754FA22FCFFAE97919161F46D6E61ACB37D83777B385889770B50765B127768443A5C4D3A4E35A3151111F146B7CA116F918A049F1C272F2CD7976C69A0068773451659A97E0F4A08FE604C3FF6CE7385DB19F4D3ABC8A0D80DA8A42096AC377DB49382B3
311
6E270B6FA7570188B4B7D1DDDDA82ACA487CCA5D38BD3BD039ADBAFA4ACFF27809239B722081E2EB9F145320553D183F28471C388BC8814E5045676767AB58A8E72D1CED2CA731379515D2E533E4CF0B39DFC625F97AC4836831A4DE330E87A8126FA17EBE583D614E71E22A8DBF2825599743E0640037303E8E1B1E8EA4E1
311
ABFA4F62907B5E4E0E5DCFDAB417C36C6848A2B8D15F1E505434C0707E16B1CFC2A1C36A42BBF55734F8F4301DDC2A5110CEE8C0747F69519265012A2174BF4E955ECD4FDE095A3ABC70536B7AD0B9D7892F81287D667C108703C9B66A221E9A0929D030008F77FF6F5D2108EF5706FC87A3069B976F7C9FC3239D13D283CD
311
EA83597461079FEEE049B0F392889898B7D87D31F8D60ED7B56B91823A8E4EDDB36C6172ECEE42BD42B12CD67994FA0F0DFAE9389356F4CD4425A4B8AA55CBF7ECD585C6A2C2316791E43D5C06841ADBB226A87FD61515FFBB0167B74E56BD7F3E90A57A97FEDCBDF483A0D6699A8C0849CAEB4947FAA90D8E332D9DEBD9F4
311
738C37DA0CAF9CF3DAA68BCB67C420459C7A64498D6E848E5CADE92BB6901F607AA331104A67F7CD650EE169B1DAE94D2C31C2F993632259B6957E246EFE4C5481107B07118607700040E5812A2A2A38DA0076875258C753F60E0F2662C748EDD5F3F3686B8FC3BD6FE631ECCAA1E8B1C1E565AD117E54893E79F4672E32F9
311
E46B2A183DFDCF3EECB4D4D077DBEA0DA254D256045109670050129E9B9B1A9E4A11344D61497A992778095151510C4BB7EF2009B63AA4360635312E4CF668B7E0D3D85A8688E2BD83B569439892ADB63461930D428E0DE42E4AC57CE48DA5CC1449530D8BD3D6A0F08DF20C8E8F570F2CFFFCEA286E30969B4654D498A58D
311
9DA782E19FE3F002181838925592C4A1EF0B332D88B61A92C644547BED490D3A42CFFAB70E36D961F694F6307F72FF15A1C79D5B1B5CEFD353D9E2B52566DEC8F8F09CB3E8359C0F68EBBB7898243E34E12A015B2685AB303C04D3A9E00671FF3DFF0A184E4A2ABEB2B666AF5B3A209C73D8EF29DCDB069C9F391EEE9DD0F7
311
4C7BCDE16F8F02E3B8816122BBEB50665775B600549D8BB33A54A6BF940C028118BC6878C79958D6784F9DEAA6E26748386FFAF8D0D0101E2847B6563F5D8DC1D78F787BE00E2C941AE12148D4A81599FE8F68D4DA5CDED75530ADE138240300EE13B0FC13A1687FED6774662C05A2B7DFB186732F0D7A93545D8B0A6390AE
311
5054D9CB582DA846D7A061B3358B45E2B52DDE63E114397EDB7E09233A579155D795BE76102CF277F4DF8B188C4F2879BEAE3C08347124BF9ED23B128259FE107D31E34A652F090B30B39E0D9AF917B76A2806135621A8A60681F16AF216514BBD02711585B5B1AE823F4B2D0369EA5B6BCB863072727FFC871CA6C9AB79A8
311
14D989057E9470A3D238BC87CBB4A0EA49AFE2B86F22E499793CAA9047080450166BDC357524561E258C77CB697F1ABB32562CF87C3B7AA12F911EF19FB3E5C02222E887D08202A60A17151F5E053A86B437771088B4FEE14D652C43E8D939995D34545E12E2FF93D4E366EAD25F10CB7DED141563C3D0C447AF06078A9113
311
5FD4B9611583CB4BF3BD167F2399CEAB0E0100F8FFC305F00F1711717173138B4B48C83022295DE657EFEDD97F238ECA80F528AFB4F8D67AD4E2594B9A3AA86D7487EFC313BA95745C186F0CDD84CC12DC9CB0424B42203D351FD9C0A3AF10CC7F388E0329279087386421F194F4A29464C1DEF7EF8BE515E4A199DCD5B909
311
342598D8FE6A231F71336248D5CEC5454455C7BE383B3BC7B260FED27F703FDC39A170F3827239102F59D4DEE7FEF82EAA1A5E4BA94DCC4CC44E7E2EDE20F24244E4454369D2E87C3F823F193FD4FD27E1C23984B01898D15ABC20711A8A558054951A6AE280096BA36CBA439603B7B0B4C45F248C14B2383B4B5CD8ECECE4
311
FF859AD4A6CA2326D020EF090F4041D28DB66E5256B56232CC52829DE8060BAE6BBF37D4B7469B822454FE93210A3E8D15E69FFCF01123222611C51C4FD0A041A0CFA2471CF6BE38D2B20FA4C3525B5B8B586759475CF80ADFE67A284AC24651E52B8E683D24C2622642F27E7C3C22783BCF63648BC398BD6CD0D9C97E7E7E
311
3EACB6126DB7A6C1FD9F1031302EE67ED96F22B77C7CA0239BB324207559B105E4693EB26EC46182A92C9C0DBD24F29B31C5C5AC1F84300E0E17CEEAC15F5736FA4A98971E2F1423BFCD68D4BBD5F86E74B40A369F39507C88FCDB35D2DD8DEBEA4AF999E23CF2816D204200DF6E611781B9884C1AC8888B4DE39732047295
311
9434323A5A36B22A8E1F721A270DF3BD65E4A31C11FF048AFB0D8B7B6881423793963A23CFCE935FC189ED36FAE35C46DA3574C979E4394BE52084F3081837BE033396D2EBD80F1F691B273F660D2B32FA27A33B1DE4ADA5F0FA4651511102DFA410DDA86E065272CA314D5249DF91B06BB92807B28EFD54F08F7B52525278
311
2CD276DD02E6B0319B13DF87B1F6361AD6B28FC0D711CF445429B9E5A433CD493051C49A9E03DDB1B147D880253514A5DED88009018620EE229101C041950E2D8AA8E1F5F5438E0C0C0C60EEDEE9E3E0C051948C69F84BB7B2A48A1F3C8EB9E6864687F4F4F6F6E2FA87608ADAF9C5E117B7C1A737E710769DA1D15ECE6A84
311
502AA855398712D5FB51BE92E4EF824969CE18278798AC303C2C7980DD2500ADF8FB1E6D6C2FAAFF9987178923334A244758BAA01A9A1B70FA5097D01E1CC2A58DAD0EC94CE6430AA9B0C10D75E3C6BAC670EFBADEE1607739CE0FC18A2587E3EC3058562014C64219C69BC269082D5C2F4A659278D585755912176D78A1B6
311
41719C2A394CED495A1AC5D583FD2F5EDD93308EA7EAE8A6DD396598BDBD3D4CFED62D18A5BDFDE0DD5C80D1A89BA62697B131AE7CE9A6594138582F1B37D68F1749AC7CB67A70695D48A4A056AC1FBD4E82358CEAE38F54B95A9016F9000F9879C0D9D131768635CA798895F27D6F1614F11F2838A83611AA51C9A3DDB539
311
D42979C29F10465655C17BEC3E2760B80DCBF609198C7B171A531905F3EC218D696025975E986C6B4C666666787271F202805577DD5A3EF0CAFAF91B62DC4B2DB4217A7606282F31D8DDBC290593BAA93EA6353AFA9939B877978481E15CFC9F2755CDC00C538F63A4BA3E80AE009B73CA0185687D339A507D165B74290D6E
311
E46D5C58148F020C3668ABE9EF2F7549170DC80DB41FFC1D678FF19AEB10C7133832B104B80F691B3138F97A92D26E551F1F110400D45AC71A9B9AC41A1A1B1DAEED0B0810638EFFB511D46B121C6FEA0F38CD00E03CFFEB9713FE1F9C263E4DDEC160D0497FA9A132BA608584057FB15380825DE6C7FC3C667EE947D488A0
311
9898D8E939C4953BF4EC9836344D2CC6B2971B2A21A572B06096F4982D2CC7232D46E8EA69DC83722E267754D777F97F96D5DA74E1E75178084D0E70F12AD33E5F71EF2AFA599B2BEBF60A5BE475F444F240CBFE8143C334E7ED9150FEEFEF7EB020C4DBED388DD1D6A167A76F3CBF119B578AE8CFA7736ACAFA4440A1C471
311
85638A0D2F3EB5BDDEFDA958FB13CE4AA4923D5BF840392D45544329525749734866684BF7F8D9D54D892E19BCA9F829A0F8BFCBEEA6CFDFC61D74EA1A645ED7A1FF241739F15694BD835B66FEC5677E40FE69BD3F91AE402F036537218A401CB0828604AD189E575015C6F3F6BBC8AC79CF6C70653847254B31551EFCBEB5
311
978B9DB85D58D0FA41A9DFE9C624834AA04949D24B5AE6D299E072D152D12097920F14AA92C31C3B97E28B6C2E6E9C23D63043ECBBC0A60FDF5BD0C33C127EA8A3308B8B6AFFEB28B4455BF6E7AF4FC6222728357EB8E46E85053E6A8843AB23295BF838ABDA94658FEF3F832F147046B4ACD6F7D48E8FCC9618582961C898
311
D1C7A253C91BFECBDA6BA18A1FCF70755DCCEE2222F41B76D23CA98D0CB3D95F0CF66D57FFF65E2A90F5DF40FC3187621E981BD0BC1D992787212688976B94A8F0C6EF646624B570B78E068826F87CE27041A95C9A4871FF65CC17FCB1639629AD6A9517000D63AC231F3D741CB8430777E7ECF80CE7A3F73C0F162F7E56AA
311
71F4DA80A33CD6ACEE78E2C11FAC03DAFCE929B106F8F6B3ED2DC71FF994BD9CEF4E9A94896EF1B6E2B7B4978168BCF0847A3D2A4F1B0500B926E634B174548E9FBAD27153FB5FC36799B1E6C7C38A94E1F9E996796D7B485E635D5287A2AE76FBD11A341DB3F8F810385BB7296391973DC6C37C452A9305AEBBE0CDB6C566
311
DB59FE60C8E94B1FD090354BF51439FFD1B48D725228FFA88C84F686F547107A7A235665A4593B7C34D748C1AC8D56DD5DA861EEFBADDECBBD65117E65851F90351AEB65F0EFCFF4BCFEF24CB7A5879699FAC437A7AF9099186CF006BB923A59E37D7A36A29FD8D2CBB914A5E9D0A8FD212FBF796AE9A67958FF1D5D8B85F7
311
8F96219D4714EB919929241B6C018AAE0C02069F8D919961EC5DDFBFB7573E3AC8E08BFB7C8534BE6DE045B3CD63DBD71F7638BA2309CAE398EA3A7D8F98BBBC7AEB367EFA5CFA27A9F8F2F52FE878058E6209C026453F8E7E8A237DFC389E9590F6059B397CFD65183BBF936E86896612A5B5FEE49DAC8455D026218AFEBE
311
C12B3523A45B57B82C9C97E02ACFA1184DB18E48CF615DBF39C3CC6F0B4AE6BBEEA2E39D944E290302FA3DE33FA7E40296E2EF7BF1CD855BBECFAD0FD622BEE9746FC4FDFDE545AE6E3BC234CADF83A0FB76DFB145BF3828AE3436368AC24989454F8FF70A177672C711CAA1A76107218CF948CA01F873520E7A2B118EBB16
311
1ABAD432932029628B6761590C98AB590C8C8C79798CE9F715BA696E839E9131A4BB68BE923F1747FBFF165331FFDD4D05997ACD168F12CA75348DAC04C7F509FE83898A8B421181AF492861CE81E4A2DD0A30850CFA95E05F097FF70F9E777310D584A75BA7018922E271DAB1D785671157685B7D383D3E074DDB4F1E44EF
311
04B07BAAC75A062077C54B9752C738C9D804D402E02851F3F89605AF189738C18C021D2139EAF72513824E10DDD3047BACC8521ED7E98B257D1166903B1B08FA6F918FD7E162913FEC7D0EF4787E29C35FBA8C6E2C9C20E9AB30AE42CA2A01A090E7D010C1B5BF9CEE2A304BF3A987FB40D836979B79E18D70F257DA61E808
311
472DD85B82761825779D6B90CAEB0F23360C6F80A7D7D77545E95B3DFF0CF96A827F9B5BCECD2C9698718417EF80FEEDEE938AFF55859D0D540B7FE09435583A6F04874A0C7E8CF234DF4879722000167F5872CEC6BF3EF7E5A8CC8121E6A359227C8A29C95212F9F735BC72A887D56B8F309FC525BFB4FD767AAEC4AEFF24
311
9CFBBD2DE1AB9969A6155C7D8DABC307E47324C1F916C7BCFF40ABA5644E9FFB9238D19ADADA49D9610F01ABBA57E4DFCBDCCBB2B93C8953206C91DE01B0E2651A6D6C31721915B31F7B7CBCE55466F6D70402788FA91D73BE4ADCBA99A35F17D6B83383704917D6833F0FA3CD45C926ADB8BC17999A4A0AFBCE2541F7B8CF
311
4C2F5FBA611B3E626D64407CB32C122DFF4EF8674D6EDBB86C8F7C6A16D50FA685E2CCA34F8F7D1D8265BB0042E9D7F1F666F7BE5FAA5184DF58E12122A42EF02F461B3F369AC746F96528AD208512AB56844CF75B97F352DF7995024FB02855385854F3798670D01CAC771AC3E1889EC25F61A20C1F8CAB46898817F9C47E
311
2CDA1F286BF2F358298709FE567C91133E2638C8B53975E753EA8BFD3578B5F7186B7BF084EBA3F77BAC3132A5779902EC22AF2D2E79F42D324E083386DAEE9810D1B44A5DAA54513C7A71E52A4AB9257D975B621308FE4D2141CC3DCFE946C154A3C1DFCCA7629EC69ACFA831634ADDA93C0388D2A9A2DDAFCF957C6995BC
311
E7FBB6DC4EBAE79E63EB08E9A25F52F67076F7093CA545CA3053B5BF576DEAD4E0017143C5F759F32B2D6F145B52B67B48909B7C7FCA6586EE385A2189C16932CB6DDFD9152AE317C430492A578ED27B72D85D40C7C93C097939E1B50F4D67F05334FE9DC362C30B7FF561B95259138ECFD9274C8D695C31B14D4EAA9F3D7F
311
A8DDF652F8C5DEFA23284C799B7D94416DEE81E05A866302DC70192A5368EA65E1CED8BF107A1E2D3119A71E85DC1A7B0C1E93274CE04DD0F2ABC8AC7C987FDB002B6F81757B43502EF7A0D92E416494FAEEA4C9C090CD9557AA4D532F4996A272B94355C5A0E4974EEA9627476F30809B94D8D8D860062E02204643BEC7D0
311
438AF800FC7E2B26955D595421E83C69E1A07E0E3122285835F014AD538188CF9737CE76D464A353FA55A001AB2526B84E985083693BC76FE211CA1D000679C889E3C009832C87E1AC2EDD05C302557422DF0800E316FCAC86978A371F025A6C7DAA9F333E7BD160403A1A06EA75AA9888FF01504B03041400060808005468
311
475028BB58AF800100009E0500003D00000046374544374238412D464434432D344233312D383532342D3136353931383633363537372F536368656D61732F436F6D6D6F6E536368656D612E786D6CBD544D4FC23018BEFB2B96DE15493C78601010A34B880709DEDFB52FD0D8B54BD70DF6EFED3AC0B12E6442E2716BFB3C
311
EFF3D18E26FB440405EA8C2B1992E1C323095052C5B8DC842437EBFB673219DF8DA659866649B798C078B48AE6410122242F2A4994AC7F93815DF85C049C8564CA0A901499DD886B2EB9B1E02448F358701A9235880C49A0119892A20C89D1B9FD768815CAD268CB5E0355B40B1E47F3E37A2020464BED06AA57CE8FCC20C3
311
C3446D46761A2632A8C1283D07031EFF2AE7CCB1BFEEE916E406DFAC8E36FFD99A9D60A6944090EEDC3B670C7DC13DE86B6B2C5C240D6E503BB85ACD579D513F1B9F9A69DC9CC22AFA80C426D40AF0B21EA168559156B6276F0F726A6BFF04DCD513A87A62CAD41FB24FCB2858B3952E3D852084DA25B9303C15687973CC8E
311
8AAE11DF2836C38C6A9E765E8C1BA1BFB1DC29CDFE518C8B5A7655A4ED7E77291ABEB80DBD82EC866ADE1B8D05AF9E35CF09D7A061F38A986D9EC412B8F0F65E5D81534D9B231D1E5A8FE577A241F3A5FD01504B030414000608080054684750E336299B9F040000341300003E00000046374544374238412D464434432D34
311
4233312D383532342D3136353931383633363537372F536368656D61732F47656E65726963536368656D612E786D6CD5585B6FE238147EDF5F61E5BD1498E9A895A02398AA5D1E2A5665BAAF96710C78D6B9C87168D95FBFE7F81242134A968E469A4855437C72AEDFB965F4F53551642B7421B3741C0D7AFD88889467B14C
311
D7E3A834AB8BEBE8EBED1FA3495108B3E01B91B0DBD1F3EC8E6C991A470F22155A72F73CBABC1D4D5921DCD1934863A11F990102A6F61466977B8AC49FB13C174CB3940BE4504A22E3713489B7F82406516225536940BD88E4E552493E8E564C1522225AB0384BD56E1C195DC26FAB13882C2EBD62E1FF9E5B0FCC453132C9
311
9548446A1872B62267078F1EF14C3DB1DD1952DDBBB384AD456779F387C51992E0ADCE12FED2622BC5CB1952FC9BDF3295E9206E961AB116DA7ACE45F76F07A26EFC3FD762FD7362FC3C0BAA4DB34C09E682CA5167BADCD16CF94370E331E2F1A3D852008AAD5D64BA2373478338AEB1583B905396D158182655E1B938D079
311
26CF007CC7E85E6709999B0D3827C0BF406BEF55C68CF5579DA32C8C85BE03EFE788787E8FEC95DC85C3E31A615658D81F9A34499612004CE69CAB12531B15A887ACA642C110F8C1A8C1974A85853F407794695C905C688E69B116550ACA946B9B4785FC179E0E229240B62665328E86D5BD2C800CF5D80289F35AC25E3DD5
311
1508F4BF9A74A0F5A557BB3D284BC6FF59312E282F956A75C5D453906F48D11A876599E49425602400842995BDF02C4D012E226658F78A710416AC552831FDDEF0E6F0BABEBEA9DC36718CCEF4DAC5A0DF871AECBDD8F448F015F8DA113A473609D1751672B723874B2CAB21ECD6E284E51DCC7D1A47A00F60EC21DC4CC3CD
311
C406DC03760A4E6C772F2F4D561A9AE58C4B03F5B4838701472139EDCB36819A66C472B52AB1139C648956F43E0DAEC067B56B0818F5961D3D446B8F1E1E78C0EAD7EE02AF2895D813E88AC5014A7B436DBB20F778D40A1D9737EFE45B47D49CC8360F9966B15AABAC802C1005548A93EE469F5D55317CD8BF0AA86CABADB2
311
A009D4D6F60CFE53AE370AFE8C45415B15D362A5A038E766E34B00F8C2E3E7098E2093B1C96349FDAEA158903B4BDAEA665F473FECE72186E3BDDCACCADA31839CD6D4FA7D47DF5469006ED340EBE71DF960DDEE88A3E17557039B58C278A1795BA8079419DA8FC5BA1BAA1A66238BF69C7B2BE4E6274839122B7D00BE8B7D
311
52CF61B2D63216046008C8B330FC10F8907787DEF061F47965BBA02FD8F53BA12F9827614979F53563D0BB1AD67A03DC0E00E2FB2CF3EFB457E70E65A3D7C78E7D700DBB45132AE9BBA5E468CD861408961AD8B00A55C2FCC677F4456039FD9F1907A5B3E2D0EE845FDBA2DAFA88C64195671AD6D282DA2E45B1F50A0D632B
311
0D0B6718757DCC7C84A70A3656F222CDA6DBF07E204AB358961D1BE31E53A82C2C0D56DBF61A5608B5A252A932A1DC6E32462430853353EA30417C8199A662E946A4EF352268B8CDB9A9C6762515ACE8E09BBC031C608A02C4BA89C9DDC074E46E0E26A17BCBD4ED43270D03E3645ADB81F6D62CC07A3243EB81C07E01681D
311
DF2DB4730631E6DDA6CBBD048BE9F06AEB3CF06B31DD6C9575E37E9FF17161342C4C76D95519672A6509E0F5C4E71B4B1916440059F57D0921F496237E473A83E3E4E06353BD9D27593594D7B6707C08D22FEBDFBFFE03504B0304140006080800546847508DFFFC99640100009B0300004500000046374544374238412D46
311
4434432D344233312D383532342D3136353931383633363537372F536368656D61732F52656E6465724D6174657269616C536368656D612E786D6CA5535D6BC230147DDFAF08799F5FDB600FADA20EA430D968A7AF12D36B1B481349529DFF7EF9A85A718860DFDA73EFB987734EA3D16FC5D10E946652C4B8DFE9610482CA
311
9C8922C6B5D93CBFE3D1F0291A6B0D26A3255464182D920FB4233CC629881CD49C18508CF000E3EE309A100D61622AAB4A8A33B2483F11CB639C545B0E1508438C3D3C0361192846DB7ACD198DF186700D182920B914FC1063A36AFBEE8FBA03FFD3CC1D1F4FC9E151A2AF59F628C5B7821D83FDFD3489305080F2EE04BF96
311
2195FB285E9D2DD352320A9E827AE357594914E42B1F5FE35F83688F60C4C91A6C946ED0668E8F244BC2EB0BA6E3BCCFC0B6A4B507F9F9F8D51EB315D9BA9E08D308E89F96931666E577837E2B4172199C68C4FE306156D47DF51C698C7B9D97FE5BEFE2190C3C38BB054E6E8163FB039CB4B993C80BF18D969203116D6BBD
311
26238B821F9BB909AD6D9C71B85BCD8C33D66FEA3D31B4BC0AD45BEA46BBEDDFEC0F504B0304140006080800546847501DC7EF9E51000000570000004700000046374544374238412D464434432D344233312D383532342D3136353931383633363537372F4173736574446174612F41737365745461626C654F66436F6E74
311
656E74732E62696E536160603037737471B63033D235347334D435313073D5757476B2D43536B5343074367635B434351502AACB4D2C492DCA4CCC492C28484D2C4ACC4B4E050A82012F90744FCD03CA26072767A4E6260200504B030414000608080054684750C55C66365600000068000000450000004637454437423841
311
2D464434432D344233312D383532342D3136353931383633363537372F4173736574446174612F53747265616D56657273696F6E5461626C652E696E665D8CBD0A80300C06F73E4B29FE6CDD8A2E82A083B8B7F209014925C9FBA3AEAEC7DD2555D896CB85E51C2A1BD834F6A1F56EC4494C4695278364ABB24ABD2146F88C
311
CEBB89D5321FF8F3F43D672A3B44DF3CB6A1710F504B030414000608080054684750DF665F3136010000A20400003600000046374544374238412D464434432D344233312D383532342D3136353931383633363537372F4173736574446174612F636E782E786D6CCD94314FC3301085FF4A648931B113904095E30AC1D209
311
242A06B6AB7329561D3BB22F08FE3D769A0154C4D4A1EBE9BBBBE727BF93EBCFC1161F18A2F1AE65752558814EFBCEB87DCB26EACB3B56AC950CDED30F8C150E066C592E3325F7C14FE352EAB087C9E6AA35EEB014EF6344DAC2CEE253FFE01DA1A3C80A6D21C69645FD8E03543091EF301EAA0E08AABA0A18FD1434A64964
311
065C26E98040D831D5884694A229C5EDB6BE5E89667553BF499E492577DEDB85376959F0E35523F4712F5342F20C283905B350F9354CFDA5B2DA19277922958C14922B4B077D8DA903C6D11A0D94CCE35E135299208441F223AC24CF2EFCF2E2117BE34C6ED92469403E3C278118C8E0057AF29FDAF37BB37191C069BC6447
311
4E359EDF8797F917BD1E6339E7E6F2D272AAB132AE3F4356F87C4E5274F27551DF504B0304140006080800546847504CDCAE2DE6000000600100006700000046374544374238412D464434432D344233312D383532342D3136353931383633363537372F5265736F75726365732F37364144433836322D313641312D343036
311
452D414342392D3335393031433345313935352F7468756D626E61696C2F302F636E782E786D6C4D90C16EC4200C447F2542EA3181A4955AAD1CF6277ADA4B458937454B3002536DFFBED072D8D358E327CB3370BE1F7EF8C6941D8555CC931203064B9B0BFB2A0A5FC737319C3524227EC0C410CC81AB68B6D0B0272AB15B
311
1B5E4DF1CDF52EDCBAB963C0E4EC470CBB18AC3739AF22DB2F3CCC640AD386F9366D86CD344F09339564B11E6077603F60131AC64DE8452D6A54CBA85EDFE7E7935A4E2FF3056423357C12F9CEBBC098283E2DCA521D43FD47816C8086925CA75A08A11F9E0359971A32A79ABF43FC132B6462F4CE1AAE3549B28C3C5608CD
311
01F21FD6205BDE2A7F65546DDDE85F504B030414000608080054684750A233C2345D000000800000006500000046374544374238412D464434432D344233312D383532342D3136353931383633363537372F5265736F75726365732F37364144433836322D313641312D343036452D414342392D3335393031433345313935
311
352F7468756D626E61696C2F636E782E786D6C4D8B490E80201004BF42E6EE76F3C0F216234B883063108CCF170C074F95AE5473F5C4C06E932E4F28601967600677D21E9D8092EDB002539227A2FCCB80E1168D80A6417297A89C5D6963B7129A0D1E8F2EE73AA7B62BBEB8B27DE50B504B030414000608080054684750BE
311
89762363000000880000005B00000046374544374238412D464434432D344233312D383532342D3136353931383633363537372F5265736F75726365732F37364144433836322D313641312D343036452D414342392D3335393031433345313935352F636E782E786D6C4DCC3B0E80201004D0AB90EDFD75167CCE820A4A84
311
5D83603CBE602CAC26799919AEEEE0D965E2E908050C6D0FCCE04C8BC355404EB6198129C92351FAD580A10E464065907C8D948F8F166375F655BDC3FDC3B4E530A176BE7057BDC43B2A593FE403504B0304140006080800546847501868F6877E000000A30000003600000046374544374238412D464434432D344233312D
311
383532342D3136353931383633363537372F5265736F75726365732F636E782E786D6C4D8CD10AC22018465F45FE7B4B5BDA84E930DB838CE686E4346C468F9FC62EBAFAE0F09DD3F59FD5A3B74D2F1783047A20806CB8C7C9854542DE66DC02EA559762DCFE6E80C2B85A091583EA9614F37347939DC7EC2BF52E3C7678E1
311
FA665A7EC2946B8ACF840F589BABC00D13849A66A082B1621CAB52E6D72B5BF3EA0B504B0304140006080800546847502A311FFA0A010000550300003400000046374544374238412D464434432D344233312D383532342D3136353931383633363537372F536368656D61732F636E782E786D6CCD93BD4E042114855F6542
311
6239C08C269A0DC3161656366A65877077250BDC093F46DF5E582976133B2DB683932F37E71CB862FBE9DDF00131590C0B99282703048DC686FD424ADE8D7764D84A1111F3094686A03C2CA4C9448A7DC4B276C9C04E15D75467C3A18BF7E83D8667FD0E5E91413B95D242D2F14A55C968201DA85159D189464858A2863A21
311
5B0F7D828EA0321822673EF391CF23BF7D99AE377CDEDC4CAF8235528A3744D7791B32445CAF66AEB11E4335C4056B801425DA4EB514449EBAA3B50FC12A2145CAB1B6D0C9FCB55652ADABB35AE55A163B823F8C14AC853D8BFC0001A2D5979AF9CCDEBF857E8260203ED6978A56B94BCDFE9BCBBF55C08E1B50BF415B08F9
311
0D504B030414000608080054684750E3603EBE7A000000C20000002C00000046374544374238412D464434432D344233312D383532342D3136353931383633363537372F636E782E786D6C6DCD410EC2201085E1AB90D9DBEACE05D09878023D01A1D34A8419C380F1F82DA68B9AB8FDFEC93C3D7C52546FCC12980C9CBA23
311
2824CF63A0D9402DD3E10C6AB03A3397DD192872090D3406ABE7CCF5B5D18893ABB1690CF4DCF02282E5EA8A5BB96FFE536F285CB347F95BEFFE81C9ED5AFF9D5B1FB575BB00504B0304140006080800546847506B02FE197F000000A300000007000000636E782E786D6C4D8CDF0E82201C465F85FDEEA948FEB5012E33DF
311
C3253A274223693D7ED0BCE8EADBCEBE7354FD591D7ADBF89A83D7400E2740D63FC230FB4943DA462C01D546C510B6BF1B20DFAF5643C160D414437AEE68B0639F5CA16EF6CB0E3B716F4523AFB86BE90DD3A62258B233C584B30B91BCE24C886C1C8B92E7D7CB5BF2E60B504B030414000608080054684750CA1DF9C9A900
311
000073010000130000005B436F6E74656E745F54797065735D2E786D6CA590410EC2300C04BF12E5DEBA70400835E500FC800F84E0B411AD13252E2ABF27A55740421CEDDDD9B55CEFA7A117778CC979527255565220197F75D42A39B22DB652EC9BFAFC089844F65252B2630E3B80643A1C742A7D40CA8AF571D09CC7D842
311
D0E6A65B8475556DC07862242E78CE904D7D44ABC79EC569CAEBA537E3521C16DF5CA5A40EA17746733E0B6615DE7217475F386F18B9481C510F1F021CD9FF027EA0E1F5C4E609504B0304140006080800546847503DEE336E64000000790000001B0000006175746F6465736B2D64657369676E2D7061636B6167652E786D
311
6C35CBC10E83200C00D05F21DCA56CA76D41FC96062B120735B69A7DBE268BB7777961F8D5AF396893C2ADB70FE7ADA196782C2DF776D7A97B5933C430F15651E5469C55D70F80A4992A3ADC954792C525AE70A1E4D6AD9816CC044FEFDF01FE3FDE907802504B0304140006080800546847507782F7A7F900000096010000
311
3700000046374544374238412D464434432D344233312D383532342D3136353931383633363537372F4173736574446174612F636F72652E786D6C8550CB6E833010FC15B477830D883C641CD142BEA0A7DE2CDBA156828DFCA8FAF9B50395DA534FBB9A9D99DD1D7AF95A1EC5A7725E5BD303293114CA082BB5997B88E186
311
8E505C1875D6865F34280C5F540F1906466767E3BA43C29AA04C468D956A07B9F72A40211EA9E9C18B0FB5F092C79018FE5EAE5CDCF9AC4A526E3C4663D472976A99DCF44D2B076C3A1C4F5DDB7568225D83DAA1BBA2612447F43A35D3CB70C5E3894CB4CA6246835E7EB60BA7785012588D6B8C708DF0E18D34675C9F5BF2
311
4EABCC64D407977EDE97E6EF800DF9EA91074EAB6DFAC735AEF27FD7A84D68EADD75537860241DF91C305AE594527946986A4E947D03504B030414000608080054684750E138F7F1F40000008E0100006800000046374544374238412D464434432D344233312D383532342D3136353931383633363537372F5265736F7572
311
6365732F37364144433836322D313641312D343036452D414342392D3335393031433345313935352F7468756D626E61696C2F302F636F72652E786D6C8550CB6E833010FC15B477830D8890C838A20DF9829E7AB36C875A0936F2A3EAE7D70E546A4F3DED6A76667677E8F96B79149FCA796DCD00A4C4502823ACD4661E20
311
861BEAA13833EAAC0DBF685018BEA801320C8CCECEC67587843541998C1A2BD50E72EF5580423C523380171F6AE1258F2131FCBD5CB9B8F35995A4DC788CC6A8E52ED532B9E99B560ED874E88F5DDB7568225D83DAB1BBA2F1427AF43A35D3CB78C59723996895C58C06BDFC6C174EF1A024B01AD718E11AE1C31B694EB83E
311
B5E49D5699C9A80F2EFDBC2FCDDF01C3B4DAD03F6E7195FFBB456D4253EF6E9BC20323E9B8E780D12AA793CA33BA547392EC1B504B030414000608080054684750174CC6A5FA000000960100006600000046374544374238412D464434432D344233312D383532342D3136353931383633363537372F5265736F7572636573
311
2F37364144433836322D313641312D343036452D414342392D3335393031433345313935352F7468756D626E61696C2F636F72652E786D6C8550CB6E833010FC15B477830D8890C838A20DF9829E7A738D43AC808DFCA8FAF9B50395DA534FBB9A9D99DD1D7AFE5AE6EC535AA78CEE80E41832A98519959E3A08FE865AC8CE
311
8C5A63FC2F1A649A2FB2830403A3933561DD2161B4973AA1DA8C7207B973D24326E6D874E0C45D2E3CE7C147867BE42B170F3EC99CE41B8FD110D4B84BD518DDD44D490B6C38B4C7A66E1A3490A64275DF5C517F212D7A1DAAE1A5BFE2CB910CB4486246BD5A7EB60B2BB99723B0129718E112E1C31BA94EB83CD5E49D1689
311
C9A8F336FEBC2F4DDF01F3F7B07C68AE665A6CD33FAE611DFF770D4AFBAADC5D37850346E291CF01A3454A29966784B1A644D937504B030414000608080054684750A8A4EDC10E010000B10100005C00000046374544374238412D464434432D344233312D383532342D3136353931383633363537372F5265736F75726365
311
732F37364144433836322D313641312D343036452D414342392D3335393031433345313935352F636F72652E786D6C8590516F83201485FF8AB9EF28A8A5DA208DB5F417EC696F44A923ADD0082CFBF983D625DBD39E2E399CC3C73DECF8B5DCB34FB53A6D4D0724C7902933DA499BB983E0AFA881ECC8D96AADFF6583CCC8
311
45759064E06C5E6D786CD2688D5726A9C64E6A13A573CA4336DEE3A103377EA845E632F8E870B7FC21C79B9C554EF2978FB310F4B445F5145FD357AD56E062DFB4B4A61409422B54F7F482FA3369D0202A71EA2FF8DC12C18A14E6CCEBE5873EAE4A7A35012F7189112E11DEBF91EA80CB434DDE59919C9C39BFC69D3768DA
311
0EF89EF6E7A1A12522B427A8C654A07E38B5A8DAB5980C9520ED6EC78A57F00F303CA6FF81411B5F951BF09570C049FCFFF382B3221518C7B3DD3853D9FC1B504B030414000608080054684750E3DE90FAFB000000960100003700000046374544374238412D464434432D344233312D383532342D31363539313836333635
311
37372F5265736F75726365732F636F72652E786D6C8550CB6E833010FC15B477830D883C641CA50DF980AAA7DE2CB32156821DF951F5F36B072AB5A79E76353B33BB3BFCF035DF8B4F745E5BD3032B291468941DB5997A88E142B6501C0477D6865F34288C9CB1870C83E093B3F1B142CA9A8026A3C68EB882D27B0C50A87B
311
6A7AF0EA8AB32C650C89E16FE543AA9B9CB064E5C2133C463DAE523D26377DD1E8400C9BEDAE6BBB8E0CAC6B487BECCEE478625BF23A34C3CBF14C4F3B36F02A8B050F7AFED9AE1CCA8023889AD694D09AD0CD3B6BF6B4DEB7EC83579929B80F2EFDBC2ECDDF8178436FA353E879B54CFFB8C6C7F8BF6BD42634F5EABA283C
311
08968E7C0E04AF724AA93C234C35272ABE01504B030414000608080054684750F4E89563F8000000940100003500000046374544374238412D464434432D344233312D383532342D3136353931383633363537372F536368656D61732F636F72652E786D6C8550CB6E833010FC15B477830D8890C838A20DF981F6D49B651C
311
6225D8C88FAA9F5F1BA8D49E7ADAD5ECCCECEED0F3D7FCCC3EA575CAE80E488E21935A9851E9A983E06FA885ECCCA835C6FFA241A6F92C3B4830303A5913961D12467BA913AACD2877903B273D64E2199B0E9CB8CB99E73CF8C8708F7CE1E2C12799937CE3311A821A77A91AA39BBA2969810D87F6D8D44D8306D254A8EE9B
311
2BEA2FA445AF4335BCF4577C3992811649CCA857F3CF766125F7720456E212235C227C7827D50997A79A7CD022311975DEC69FF7A5E93B606FEB9D8E16DBEC8F6758C6FF3D83D2BE2A77CF4DE1809178E23A60B44819C5B206186BCA937D03504B0304140006080800546847501917259603010000D80100002D0000004637
311
4544374238412D464434432D344233312D383532342D3136353931383633363537372F636F72652E786D6C9591C152C32010865F25B377122049133B848EB5F6093C79C3B08D4C1BC804707C7C8989A3DEF404F3F3FDBBFCBBE2F03EDEB2379CBD71B6039653C8D0F64E1B3B7410C385B4901DA4989D0B3F30C8AC1AB18345
311
062986D9C569937A6703DA45B54EE3262AEF3140D6DFD2A503DFBFE2A872154322FC359F547F5503E62C5F39298219BFACFD8C2AA006C929A78472429B2756EE29DF57EC59140B29453436947C6B86E30BEACC4D2145025997A2589F13168DDE20A3D327CDC5E00CF2DC3C9E9A637B4FCEA7EA8154C79291B6E61561BBFA8E
311
B5BB7257374D2A92CC52F830A7D16C459621FCD5BE1A7F458B93FE67B4D5E141B2EF50C53267298ACF25A473D989FC00504B030414000608080054684750F6C5E4E108010000B201000008000000636F72652E786D6C8D50CB6EC32010FC15B4776CB02DE7214CE436CE17F4D41B35C441B1C1021CB57F5F885DA9BDF5B468
311
6676671876FA9C46F450CE6B6B1AA01901A44C6FA53643034BB8E23DA01367CEDAF04B06C88849359060E06C70769937A8B72628935063A5DA40E1BD0A80FA313E1AF0FD4D4D22134B880A7FCF66D1DFC5A0329AAD3ACE829E7E567BA744501278410A824981C9EE8D9647521C2BFACEF2A4E46C59B4DCACB48CEEFAAA9503
311
DEEDF687BAAA6BDCD1BAC4555B5F707BA67BFCDA95DD4B7B21E703ED589E9639F3C1C53F6F4762CE80BC78245F96AF14671FD68E9B208692C89AF10B38617922FE845E66F98FD0DA84B2D80EAE1B1E388D819E44344E0DC6F1AC37CED436FF06504B01021400140006080800546847509F773A9F32010000A80100004F0000
311
00000000000000000000000000000046374544374238412D464434432D344233312D383532342D3136353931383633363537372F4173736574446174612F446566696E6974696F6E4974657261746F7250726F706572746965732E62696E504B0102140014000608080054684750BAF191EA14010000300200004500000000
311
0000000000000000009F01000046374544374238412D464434432D344233312D383532342D3136353931383633363537372F4173736574446174612F496E7374616E636550726F706572746965732E62696E504B010214001400060808005468475088E57597CD3F0000904100006B00000000000000000000000000160300
311
0046374544374238412D464434432D344233312D383532342D3136353931383633363537372F5265736F75726365732F37364144433836322D313641312D343036452D414342392D3335393031433345313935352F7468756D626E61696C2F302F67656E657269635F706E67504B010214001400060808005468475028BB58
311
AF800100009E0500003D000000000000000000000000006C43000046374544374238412D464434432D344233312D383532342D3136353931383633363537372F536368656D61732F436F6D6D6F6E536368656D612E786D6C504B0102140014000608080054684750E336299B9F040000341300003E00000000000000000000
311
0000004745000046374544374238412D464434432D344233312D383532342D3136353931383633363537372F536368656D61732F47656E65726963536368656D612E786D6C504B01021400140006080800546847508DFFFC99640100009B0300004500000000000000000000000000424A000046374544374238412D464434
311
432D344233312D383532342D3136353931383633363537372F536368656D61732F52656E6465724D6174657269616C536368656D612E786D6C504B01021400140006080800546847501DC7EF9E51000000570000004700000000000000000000000000094C000046374544374238412D464434432D344233312D383532342D
311
3136353931383633363537372F4173736574446174612F41737365745461626C654F66436F6E74656E74732E62696E504B0102140014000608080054684750C55C663656000000680000004500000000000000000000000000BF4C000046374544374238412D464434432D344233312D383532342D31363539313836333635
311
37372F4173736574446174612F53747265616D56657273696F6E5461626C652E696E66504B0102140014000608080054684750DF665F3136010000A20400003600000000000000000000000000784D000046374544374238412D464434432D344233312D383532342D3136353931383633363537372F417373657444617461
311
2F636E782E786D6C504B01021400140006080800546847504CDCAE2DE6000000600100006700000000000000000000000000024F000046374544374238412D464434432D344233312D383532342D3136353931383633363537372F5265736F75726365732F37364144433836322D313641312D343036452D414342392D3335
311
393031433345313935352F7468756D626E61696C2F302F636E782E786D6C504B0102140014000608080054684750A233C2345D0000008000000065000000000000000000000000006D50000046374544374238412D464434432D344233312D383532342D3136353931383633363537372F5265736F75726365732F37364144
311
433836322D313641312D343036452D414342392D3335393031433345313935352F7468756D626E61696C2F636E782E786D6C504B0102140014000608080054684750BE89762363000000880000005B000000000000000000000000004D51000046374544374238412D464434432D344233312D383532342D31363539313836
311
33363537372F5265736F75726365732F37364144433836322D313641312D343036452D414342392D3335393031433345313935352F636E782E786D6C504B01021400140006080800546847501868F6877E000000A300000036000000000000000000000000002952000046374544374238412D464434432D344233312D3835
311
32342D3136353931383633363537372F5265736F75726365732F636E782E786D6C504B01021400140006080800546847502A311FFA0A010000550300003400000000000000000000000000FB52000046374544374238412D464434432D344233312D383532342D3136353931383633363537372F536368656D61732F636E78
311
2E786D6C504B0102140014000608080054684750E3603EBE7A000000C20000002C000000000000000000000000005754000046374544374238412D464434432D344233312D383532342D3136353931383633363537372F636E782E786D6C504B01021400140006080800546847506B02FE197F000000A30000000700000000
311
0000000000000000001B550000636E782E786D6C504B0102140014000608080054684750CA1DF9C9A9000000730100001300000000000000000000000000BF5500005B436F6E74656E745F54797065735D2E786D6C504B01021400140006080800546847503DEE336E64000000790000001B00000000000000000000000000
311
995600006175746F6465736B2D64657369676E2D7061636B6167652E786D6C504B01021400140006080800546847507782F7A7F90000009601000037000000000000000000000000003657000046374544374238412D464434432D344233312D383532342D3136353931383633363537372F4173736574446174612F636F72
311
652E786D6C504B0102140014000608080054684750E138F7F1F40000008E01000068000000000000000000000000008458000046374544374238412D464434432D344233312D383532342D3136353931383633363537372F5265736F75726365732F37364144433836322D313641312D343036452D414342392D3335393031
311
433345313935352F7468756D626E61696C2F302F636F72652E786D6C504B0102140014000608080054684750174CC6A5FA000000960100006600000000000000000000000000FE59000046374544374238412D464434432D344233312D383532342D3136353931383633363537372F5265736F75726365732F373641444338
311
36322D313641312D343036452D414342392D3335393031433345313935352F7468756D626E61696C2F636F72652E786D6C504B0102140014000608080054684750A8A4EDC10E010000B10100005C000000000000000000000000007C5B000046374544374238412D464434432D344233312D383532342D3136353931383633
311
363537372F5265736F75726365732F37364144433836322D313641312D343036452D414342392D3335393031433345313935352F636F72652E786D6C504B0102140014000608080054684750E3DE90FAFB000000960100003700000000000000000000000000045D000046374544374238412D464434432D344233312D3835
311
32342D3136353931383633363537372F5265736F75726365732F636F72652E786D6C504B0102140014000608080054684750F4E89563F8000000940100003500000000000000000000000000545E000046374544374238412D464434432D344233312D383532342D3136353931383633363537372F536368656D61732F636F
311
72652E786D6C504B01021400140006080800546847501917259603010000D80100002D000000000000000000000000009F5F000046374544374238412D464434432D344233312D383532342D3136353931383633363537372F636F72652E786D6C504B0102140014000608080054684750F6C5E4E108010000B20100000800
311
000000000000000000000000ED600000636F72652E786D6C504B0506000000001A001A00210B00001B6200000000
310
504B030414000608080054684750000000000000000000000000370000006662782F30374138423930412D424246422D343742382D383031332D3935343138463739333942452F617474726962757465732E62696E504B030414000608080054684750000000000000000000000000350000006662782F3037413842393041
310
2D424246422D343742382D383031332D3935343138463739333942452F76657274696365732E62696E504B030414000608080054684750F270F1330600000004000000360000006662782F30374138423930412D424246422D343742382D383031332D3935343138463739333942452F747269616E676C65732E62696E6366
310
60600000504B03041400060808005468475088E57597CD3F000090410000420000006662782F30374138423930412D424246422D343742382D383031332D3935343138463739333942452F7265736F75726365732F322F305F67656E657269632E706E67355B773CD4FF1FBF73E71C0E67EF7576C9DEF3EC995D46C6A1EC50
310
46649CBDF79E192942562825CE965D8A868C2842C8DE9FDFD1F7E7F138F7078FCF6B3F5FCFD7EBFDFEC41B196891913091804020321D6D7513FC77D8C5070EC3FFEE51B21F068154CC75D455CC028A3EA68992803810109FDDE5D5CEC5521B28A1B422BF80741695D5B529DA1C2D058AD2388BDA9F476F7C2CADC939304173
310
DBF48A452BF8A700C0C70C3D121C1AA15A5270C22E2B9E28763651F7DA0D12CE11077B2ECD0D560B5E3DE2368B1E65C5E1C87384A4CC5F2D9FB8BE39E9B77C753783A37998F5CEF1B4FEE553463245C9712270880DF339E0B882A6BA713D865F6F384C842D440934EF264F4A304F8DE4EEFA1E2BF5E2D91F5ADD9613D6E31D
310
DB33ED31DB1D7916CAF091286EA3D31B9CFECB78BB0060245B943C4C040119FF780A74DD308BA9D028678674EB5504ECF284EE814DAED07440BAF649BE4B55DA2890F4D73E2D489A59EE54FDB0A85B59F2F52C4858A02705C4815A792B0C4A996A2023ECB195073E115E3E3647F64243A8338F2000BCB58DA5692C7E7C3D41
310
3F963FEDF3CF00FBB0F831A9D51360FECA43819F527B89FA260EB63C5DA676830AA3626A3693B23F1A17A0DFFCE3EE164E31B5365EDF0C89EF64D8E38AB0BA9A1117D7C3A0EC44F44F4023095E80BA610DE336D0F99593A88BFC5306E72DF98F7FD132ED95878DF2964EA7E43071359FD83B2BDF9C6B5BDF768F0F3C0FC351
310
199526F53D9460A34511F75D1B63E488178569472C91A94497807A3FD4A390C6558F26D416365C3656DE6E769DA9D8FC73774E1709812842DD8EF96AED1960F79D21B395CDDFE6F92CB4EB962A4668C76990E2EF29798C8941D67DA50F4A5F947872460F1F6FDB794E8A29FD7AC0C0D6E0714339CE258FB17AE8535221E346
310
4A10F29A0BE5EEECEFC5675926A89F49EB14E5711894F6586DB5754EB4D5DA9C6437EBA57DB97A24F8B8A8DB295FFD73266CF57E82694DF5166DDF93573AFE9C9C5EB05F8FEF8E89E0A8917B0B3724DB7BEBB53252581EFC3E38166BA131A3A5B42FE2AD00A769BBFA4458D2DE7822F8C4F63D0B8E21B285AE13325F3410A4
310
35C648C9D91FDEB109E73CEDA7BC796961AF79175E1A3CE4C5E8B0D009B0C9E29EFD98BC8E97554E3D8D838424E270F7685226E5AC268E021EDE3522D583E8F20C0BDE2959EF5BBFEEDAB32FE9A3ED0E39F211A86AA9DEBFC68182EDED132AB8BB794442D2D7EA9F4D8BFF52BC4D55BB165124EE90A42D101E67BBBB292FFB
310
4F66DE5BF2300E44546757DA7CEF8932BFC9F92A0707953491A55C5A5ACEDABD9FA1AEA01BAC3DC5A24E22E7C47213493996EFBC369D086ED9397C9BA6C7F9855C7BD5E15BFC8C53DB3D2A4C5901A57ACD2FBDF4D1676E95338B2C2BCE65FDA4C64F5FEFDC7D9CA5AA1FCF11E193F2FDABF0F4916BF13FB916A224380E6462
310
A9815F2300DC49CC4DF8D055CEF76462F4B7A7ACA7365C2707891370BC1D0AA6203C44CCAB47084FEC057F27FFCD57F89B8B9852459798A675C66BD7CE572CAF71FF7E6D7ECF7BF62CAB7B3F1107DCD04DC55A3F9961700286141C94A4F771FEB2BCDA2DDEE0CB0BAE402FF1DB0100F8E475DFFFC074DDB4498AB7D186A765
310
4DDB1CB680D703D47CEB4E72F8CB13D86A4AA68116E26387B93FD6738779B34FEDB8E517EDF2BAF28D9BE93A1D3A164320E07D42E514725C29515FF361754213EDE06B079A2E99EB1CA82A02019EADEEB87B9AF005BD04BBCECB14AACD6B24EFBE482194A97DD32400685FF1FEF1544D1B14EFB1E7F08E6D2CD2AF52DE757F
310
35F5E62332EE88EA26417AD5C3E0E319D68F25414E6D672BD4522B278C57D18F0113921C71D96527E091F00CEB15AE23D24667369BD3CEFA10C7549D930890BA4366F4EBC55F01F746109F98ABCDD5A3EE06619C6AD78AB33E48E4C9BD21BF7478B385EC05C4F8987E2C1BFA0A60EBEDAA0AE0B015C2720ECE180FB6F2DEFB
310
EB822D96338C9B63822183BBF52FB664A7AE57003AABCE512BF77E7E31BDA2E739AC4C131657DDFE5225E900FB56CC01CDE808FA4A9C9DA16AC679656BB64796283D89812B8F91136AE18EE5EBBAF47A73BE3C153EB5D4CD491B4BFB4FE690A4CF9ABA08C0D8AA64220C438C96EA6CA80B58FE5761E697B3A292EB9FBDA502
310
FA863E49FE694ADDFFF9D62C520BDD1A22014147A0903A05B9B729F54272EF83931FEEC057BFF8C8055C279EAC5C0011804828734024F6CFA319C9CC6867C727184465CD9BB7ED386AFFD96B294A85E3802FAE47244602D8273615952B98C4F23F7EAE4463D9D638EEE374A20959E0FE519C4CFB0FBFE5DD80C2AA3F9DB961
310
D1BDE57E67C9BB47B77FDD74EE3094F5DBBE3EBC1FBDB7393F5116263009E2EFE1AF9A221B2AE234C902BF70E9F280ED23E73908361565964333A3F01D0B006AF32FB21AA1316744B489D5A198E85299241735BE559675130955C902A8ED761FC0DBE337A9F91919AF5CE32AF902ADF9AB2615E00E8A94586BA1A90839B618
310
32FF1BFB76D2EFADE6DB1BA04CCAD3DA649E7E2A0219F592E22F2AD54847EEA8E42271011E9074F8F3DD9FBA6CDF88FFC9FC7E811AD1CA8F4557CE4AFC7BBEDCF0114A48689F20A584520C74DA8127124B767E2FB91A6B186246727BE63C9445BAE02088D58B8EFDC0F1072407CD9B89A13F6303B4A928F593AD489B58E686
310
9325790ADC406036C591729FE14021F94B7796BB11848D463536A092A26F077F94639F7CEEE2A724C66EC885F4A24F8B8A0AC321F8FD149BA529460FAA34E4663C02D41FDF80BCA222D42F0ABFF8490F4FA74C673807C2051D8E467B47B616072860069A9A303ABA9B319D58404461401B0A0F9BE5E1E151C14BC33B32ABE0
310
3DDE91708DFAEB15E7C0D593C86BB7D7EC17BE56E57975F077BFD5525F3A1A361D584A75E08CF29FC7B44B2B3085014F3A5A14517377C3F6B8F37E59514C3B12F8AACDEDDA4DFC49BE5710101534CD6FB6DE15B50F11A09472AABA727F0C49D9CB906B158030065F48EB3625E010CEC1D511D0053474B11E6A4F01C0D6EF1B
310
ED3A944FDEC70E0DDCDC756C86545910E0DAE3BE3AA9A404574C2995CD5CAF9549226BC94B4F4F0F5F9086F418F6B32346464610D8BC7391D3C3A3CCF04CFC1FB2A3A3170E369511868F14EEA4E5E438CC73DB1F3248AA94B6B2FF33B222FF3D1E7BF146CAD229770158063BCE4F5391964DF62F7E52A7BE0EEA829C9E13C4
310
C147D6F93FE59E111DAB5E4594D6F3CD1AD375EE039930EFE5AF2BB2D41C83C7DABD8C659BAFBE8FAB392CA634F3D15C1D945DB4588D2B0824A4EC928AAC565557CA2F0DAA588CA5BE30B3A8004F7BF005E96CBF891D7F18112A3619FDF530DC8AA64954258E1811789B5189B49B4EB53F5F89F7D37523894F3EB57B373763
310
C91E502F52CC99EB7BDDF933FC324C4FFC2561DFFA7339FAFDD0A4BFBE6D3A8FF9ED1FC49898139864602458968913181918F719CCF5A68B2EE9C1FF050E34E63107003B8120FA982C21B30A874E4F5E4B38D5A8290C4B8D9BE48A0BE31EA995BDC37AC6DE90BA17D259DEF53605D55922FEB1855D915B659FBEB350EE0DFB
310
2F9F766E1C84CC8964B75D08667445EAB966015F63A18A9E0A325C1B3DC628C0D3CB60F767FA93CC65F25458BD23C3B312716E5F40E5858AC06EBA9AB14F95DB99147B832069201541D09A0D856E12C629CF32683760EE855537D1901988D5EBC156676C7DD51D7207CF3267AF1D76C2AD867315E44618015313A98B19941C
310
696FED3461CAA9B5415F918556D7802EDACEFD6B2E45853A9735DFC9DBF7E440F9319F8B6805A973BCCDC76C069A9144E51F187EDCC12FC31B5DEAAF0A76137199B106EC84ADA6B6EE697D4E6A96E007417F4E880E8B1E89B4BCE9D81EF611E2ED8F0C1A6C25F620FAFAAB656A7C42D464880E8AFAB0E0FC8EA38CA9A8AEEA
310
EE3E4648BA4680270A89743CDD3E6C6CBF34B7B640EFA285ABC7EA0A1E28F3CC963D114A80123EE66D0AF7D5380EB41909B605AB4765B709B808590458157E69BA1378FEC4B48CAF6A730E3BE3C5EF2DD1A5EAF94B1DDE50CEB55DDFD7EE9A16747FA4B223359FB1FCC69E1194892BABB93A1D5C4E807AC0EA2E30180811E7
310
7A2291F6E7F7FAA5E0F60215BC6024E48DE436C511F0628B8CA189982D4D83CCA17D305A7E923C37941CFDFDCD93ACAF735EF5F0E61BBD3E6C41A59B242790D3A3BAC7064DCD89AA2E37214EC839820949D5CAA31E240D2948E48F690298974A96BA9A8432BC90F5071D6537C9666EA4564796B7AFFFA548077BEEA75F6308
310
3435074BA182F3699557397F71548383FDA8CA34D99B981E72835ECDA5DDDC151315173D05A21F651AAF8524E88209E2E7A737ED1045800CE3390050BCFB8BE588DF111617874C62575039CA588EEFDEFEFE319B739DE2EDC147092A262611E159650E787917885EF08F1F51B8F2D8A71D60B58B190FEF9541A1BE94BC19FE
310
A50784DA1419FE4B0FB51B8D36B5FF8E1286FD8AF42B91E59A5F1CC4D60174E764045FD8C57B18209B217F89A62252BD20BE0E63E12B8E8F029FE19E0E8D0870F58721A557082250D5424F7909369376E41666C0EE77CD87CB283F661D5FB6D0DA023CB67320A20DC7BE661E9E1BFE5463085C557DA1FF9BE835733766C3D1
310
39F2CF9E2208873AD0EB4814DE9E6BF2CAF81614D4D43906ED1C05A3265CABBFE192770FC2F64F940CB6B17B5F166F133C9AEEAD2641807C3E69515171DD74C4A85311513D6EC9530B3B601B6BA3EBFF3B5C3D2F7D69765141E345F75433953D013ADDF8F6AA7DC3F4A7563FE5C7D367937E2900D7EAD0F9FC9A4A1A9B5BDF
310
1FEF08532660C01C5D6DE22199AA774383E306DAB87E301ABB7D213887F9869D4942D0D71E94B27EDF216A318BD488D45DF84529EF575AF3C3938C0AAA0215B01994153E2054A0B894DA5C784980633AAD48576957CF4AEAEAFADC7C587368551C73DBE1E57C58AC713303A8BFC258BD04B51724459FF9E24C03A81E0E0679
310
CEB9B348C0DC998FEB9C6D6EFA77D247CC8F92D3848599ED89A23218D0636465AD1CEEB7DC140D7426F83491C4E8E8281C2FB35240918FFECE880CA2A42D70E8B20B34DF5221C7DB0CF90ECCB9C745B37A47E9B716FF7A97B7A252C1F3814DC7B1E1A7F72B8751D524EF7CAE45B0C73B3BE7D08ED39781B380DDFC9AA4A474
310
9C9493DB5BAD07A6EA6C092FBD0E85DB004DF06B8C9D3089C5320187E4CE1846158C7EA7DDAE8AD9AFFF21AA3A1026BB06A259845E8232DEE62811A4DA9CEAB3A4887320B76E2AE5615EAB7BDF738CBDD01F1E64064BC13D9EC53576751CA8CACD58B3CEB0E6CA585BD089B2A59B9FC101403387AADBDBE70586B93D64BF3A
310
D4453EF9C3B6A93817E8346991798601344F79A83C51F3D50F7BF2683A3605F51A72449489E0EE6169C749C60B1035651103AEE24D24E51A759C840DD3FC6504DA6FE107510E447B43461C79D22970B75DE5E1BD3007D1AFC619A4A4A69B5626AF5E9B8374E20677F77E2F8E73DF868E8BEC7EBA7B6A75EEF7205E1AB9486C
310
B642741D6E03FF13FCCEDB1C4AC129886268B01CDF4B124AF797CF784F3C6DEC97A17D4B558070A0F1C04DA4FF9BDBF34159AEFE958479824B3F58EBD1E19088A2AFDE501B6F2052368A3FD0E650A179EFAB1561E1D27527077136E652676C3670F42DCB3352F48F6BC86D2C3B0051727E41A0A4DC6CE2BE9D47F5CAA2935A
310
3C0539AF080665997194ABECD723B08129CC5B6B21D2E7D54CD4D12610E7E9FB8306771A89576C7A982002775ED44F3F744CF21EEBB27A631671D921938AAEE3EB0D19CD1E083727F607823E817BF599DCED5394E37EEBC2E88782E638920CA641EF74D4CDFCDEF06F4278ECB18E31E7E9876F2D783C8BF429C75395F57E98
310
C2B495A3DA077EB3AC3C158608B6B57FE3EA48484D9A480096FCEE0DE880950E7E5A5714131C5C41AAA29FD19AE81AC145FA1B9E85C7169A5AB837B213493DF7E9AA4B5FBF9CDEB36EBD21EF1181B7CF7366AB2A951D01E37AF4EB835D1BE8C117CFBE7625D2EBCDB0B20C5A4B45CED0BCDE3EE8DA9DA78C2E21DEAAFFD119
310
7E463C33CC6A80FB785669B856EFF7A8CCCA2841B5A5369173320B1170C368B2748D81062EA0296E5E2D95D7667A4A46D98A6FF475C76AAB0A8C8D45E226FAFC9FE0133EA9F60111F99CA81ACE03A1D14C89E8B0D69079C91464FA1D99E651D0EAF606F345C42A8A1AA9BA391031582B96D5B4176A77AADB01F12FD298A75D
310
EEBB2C82F0B8650E880722F8DDD90C56A7A058E5FDEF1AC93545BA27367C76F5D8F9690CB6F8DAE141EDD7971F0FB548A2AE435F224D6E5954CA155512F7332029D5A1230854B79F258EC5FFDB09F5F6343A8EB193229B7F7E79B3E48F8E183860B38C8269D1B53738FF1E0BACF6AADA6D4869E9DE708E79B5DADCC09B1BC7
310
6F649731CFAF59A83FD8BAE4C749D66FA87A3810D4D62FFE826FA400C0F325D2BC0F3CA35F5847B82A2ACC7961745C823E4D863D54460AF792CE6F79B5C7A33B25C3AEA6CDE15A919B6367D781E9D44F61BF828672594A3E1D9EDD6DF179A81F27EAC05B936575D73E05C209DDD2115CFB705DF9BBF3C911589B3640735E9E
310
618FC9C36A7326C82B2205E244C55D56FDB9D5DC93CE958D4BF8174D2B3DA54CB3C09F2C2A6DFF73D23B2197355761AD421EC581284A7EF8DE2CE3497C0C804D49B41DFD6A7360844E5BEFFB495CFCDB97A4595911CDBA623274CE852B5E278AF0BEB1770E9D37CD977B2766A7DED0E94B840E1E95E8C77DE5CB6354AF7871
310
427C28ADBEEF7BA0A28E19DE9ACD75F379FE373EAE6DDDAE3834692F9C2B03B4FCA8FCA9ABE8EEEBEBB725B88A7C90941E850682CA04061A7DF0CE82ED49BFAFFD42C309818FAE14755CAAE78B0F73243ECCCAD7DF58FCB9CDFAE7A4D3E6671A613639130D056C8383C8F4FCF4808C331E544DD26E4755D09EA05253B3049A
310
1E32587CC25D72E073E2CD96D04A71BBCB0038FEC3F53D254199C3CDC67CD66640269431860225392B2CB3ECD0B4498AAE78BA1994246AE1EE78F2EDFB79F6C6CB6B5E279C4D373FBC21CB2698C9ACBBEB6A4BB6B39E16AB0E421CCBFC7654D81ED86022F9BB522146F9F4772E2D0E4FA70120C95A85A417BF5078B232F475
310
4363EB1750B2AC2148EB46B1EA72AD9B4D23ADCBC589D70106C3EC2ABEEED84DFE28E718C6C83502C28E9FDD3B09DA0A6F6F7B72B706A31C9E2A331EE70DA56A083D2177BFD63C55B11D8D949FAFCF90B23A1E24B9B5018B9A17E99F2890EC302F330FE7936E2C23F0D237EC8916F5166AB84B62A21BB0B950146962D754F9
310
2CC2C8877BED8FC7B7B25726DD19545392570B3A2C66B58F027BEF412E552D12A588C4A3CC5C3193FCB3485EFFF700D0B9EEC077754A33DC1FB9E25AF814628F91DDFECB667D3F7690803F38D13F8AE39353523BB08FC6760144AFA2CE28236F65EDBB3D5F59A57D612B99E3D7E5F8A851666BF9B5A6658EFC96EEB37A378A
310
BB0EB3FDDF1303AF32C41BD1C8560745D7BD81066B0D6313359CF488563D3BA3F8E2185D1FAA3EBA1397C9D0E3DD232180A4DCADB6AF25DB3AC3CC26589C8239E66E81547BC7E2F328F9884764CA37EB5DBE390DFC03A5246B456A7C3684C4377D0EEF9A350680FA9A077E8B2957B489E09AB1AD41316944C2254B5984830F
310
691C93CAA767EECF976FA5647538830B5E63236A6F0365C1E0F3E327F24FE35EDDBD7360B0F7374837409F7A6311BECC12B7026D4FA1AE204FA3F5FE904B1F420C7A9044AE58E403E7C4848E7DA25DC9EDAC79DD756FAA26B9EA83ACE8A214A2612A22AFA19DAE7DBAC5F8CDE1292A485F98DAC731A29FE01A3966E96BCB9F
310
B5A4C8830E1B9AF0C54B87FBE221A097036E5D28D1F869F810C06A9BB0AC0612F69AEBAF893C6E7AD59460208BAB3A6B09CA4F6BDDAB8CF0D1F84B72487498395A70DCD754796E271099A567A55CF242BBED64696378BB6CF25EF0FCDB589F3A82F1116D010A9AB9FA4358809EE0C973A2B4229BAA876A70B03AB49CBA7FBE
310
71DB1832FFD32F9BF2C8E98075CACAFB36921235D0F552B6A67E94E094097A5D7DF681B40623DA535ADA7A9AD8E9A62407D7C9A5AE51D62A17A83A23728DE86BB56115804D3F2675F2C6B87541A0FC497BF0CA86420F558C9859EBE9FAD62747E323E3AADC03FDCDDFE7407B09DA90B44E3185723C5381EAEF589765E2F7A0
310
99BA46695BAD60CEF3491B8A171F5F56444F7CE9455312C3498C74173AEA0214EC029833B34B650CBB5A5508D5091665309642791708ECF27CF11DB3D797D6CFE474453BD4BFADB768094B2147814D81C7CBAF8228DCAF5564B5891F5EF6A860EB2E323CB82AB868D8EA048880D63B0DE5341F1B3D53297B928A11E15F25E5
310
148990F710747C3509ED14909C552EBE3973246FCE55D00564D8310BC3EBC5085D08D806799B77D6C57FDF5E55837F9E934F09C03C729271B64F12D0A9F9E938107CAF7BF1EC8CF1BB9B42363D33070F4CACB425E605DDB0A34A12BB936DE286B9887A4E2E558F0886498BFF49C311D96C277CF6A9FC0D75AD0ECC5226D7E0
310
E3572012E56D7FDE4410CEC7A6D0F997F225A2055B8B92E3956E875AE4993CB3D4C9063AF98FD45E1BAB165640A43439A2C9181A7C355B297C0A0CCFFAE19B6FA3C2BA238A885FBC98B8F6DAF4B94B97304878DF4D8BFF6A4AEDF79E90ED4E68F00CD7299F4E0D83E35601AF0CBEF18C1E870E74758FA91F5131075004DB3C
310
FCF09AE1DABC11957FD9808C92E8A678CE9DBE40DDA0E0D1D505AAFBCBA208232BFB6FB3704E8985E61ADE53DE74152F5C7DE74B1DEDCD37DC3E8FB30D7EBA8B9EFFC3606BF90B8D438279CB7709FC7C00D327F41817EEA71CD9E49FE9C8C9A81C70915D9F0F15958EC5AA4C3BBFAF46986B90F188BDB24B89DE3C6F29EC3E
310
6F66D84856EE96A35E657CA41B41EFD8DBFA16AD6E91439EA92B40B21C053249F51AE50EB0B24C770FFAF40DF12C8436366819C48E36547D4E7B72FE2BBF10828583057814A668BDF183F6B2E58DFB151103E56303E63D00F39C27C4661605DB644D19175D02E3F0241E8FC3458D17AAAADB117CE9EEA690D0DB01E634878C
310
04C2C9310B69FCAB831151E3AD293BEF6E46B0ABCECB50F5939B39C613D41E81FAE8D34CAE3C4566B761D37185FE864AC32FCB71AEF39DAA5BAB88609BB980CD2F07A8F941653B529567726E2B2A58D079DD57E1E5E31426CF184A04D7B03B985F276D47406AF276FE32E3328BA866EB1FD39BEF57863A317634AA5FE46740
310
9B3873F5069EF0D71AF00AD189D17BA1974ECDB2D623E9E14086386A6AAB5807825C37B015BFE892AFD154920EC437EB945D958E18622E1E0FE2FA06557CE4BB9BBD05A2D40E774DA2B65473791E314B7D6C886820B2FCFE4AA272B3B8B15E7344A145E8AF919B5454D89D36D413E87211186BF6F645E5EC94DCCE8E1C7990
310
22E4EC9BC86D7A0F2AFB1FC4B2CE48F84B3F49ECE65BAD24CADCC07EFF39AB06BE9E6B27A059938EA7208838455383DDBCFCD967DDE4650EF92A14FF933C975DB20BD7FEEBC4487576485963D757D16340D9599FEB362F775F38CA4185A86F74B629C81B133644A3B18FD056E997E0734F9BE26D11C0AAFC669E2AC9FC41D2
310
81F8B2E1C35AE27BCE05F3DA295488096688719D974DF1B5D182DB7792288697F8763CFB43562C1CDEE11C4AABD5C22B6E33F6F389CFC3477C5919DC0D533F8A7A1846B7ADB60ABDC26C43D0CFC8910B7C15EE22675BD02702ED39DB77A87A192CA7A543E6205B979B9F5A6B512A3CA799E198B2D5797C0AF8D1D872CA455D
310
4D431A7879D4DD76110B5FF7F4176B54477A9EB5E4A5D11214FDA585F0382751D8E2582BA5D2075053298FEB8F1537304E32CB22C2E2B693DC0A760B1DFCA751BDC445AFDCBB12820ED85F6D5298933C7EF1211E9E057684056CDA3FEF3BB6052355E162DF27C59E965A8DDB7F9437EB72CDDA3A090DE65A5B2F50326247B7
310
EC67B73ACC7047FC9B353D6EE990F772207C6EC52B39DC2F3C0754821DAB559F7C1809C7D0DD5B0499D0442E0A6E391B3D5DB46D11E731E6794EC77523FBDAA242ED67F9FA1FB684255671F63C9BCFE6E7E896D51001A6113EF2298BA494E0B0980D1FA5B9D60796554C02256B1E0345FB7C6186B6A19D2DCA270416262845
310
FA4F42DB5D9B0A0B6F07FCA2E56C242522E001E0CEB734AF310FC8BFB57E38E03AACE93B3326A2197891E68452B26A6307FDABFEE0223D3C03C3C73D2D5BC054C8311F12004CAE488E5C29287F8156A2CAA4AD0D7BE6B97264E4139F437CE73ADF52E5134C52B819777C18B323A5924E4F67AFD13B1CDC3A61793A79FAF5C0
310
CEB718E441071E797C6DCCB9EFCF7E4A1E9F3DF3C2F9C9E8294E9586868788C972857FB0556D7A26941A7EEB9B580AD78EC40B85DC906B4120A563CA3B87797ED612D3B035962BB75F6515A393F4CB057F564CDF54F2E5A024514E6A1F901DB80C7E70B1FC05E356A7E72FABF4775B3E3FB8F70A2A8E7B6A94542BB3041579
310
78CCC999E707A29CC795E67A59CC546A5D47B368954CA7B6E75EC9E1F6FC73CE3B4F71F8CB1A6B15923D61EAAEB14626AAA9D04A26EB9C66CD1BE86CA31A5D8703DE04CD1EBCE4F5CCB62F93909AD11E55799A781A956ED27D3E738F4538CB04ADABC7DAEF20BC35BA6A90BCC1DC61BA05F20D8832FFB9BC9B15E2DB838A0A
310
FBB7E0C82A562127E0446894F427794C3037186F622BF24DE1B00AA10A23BFA47B2A180D6DA5AD6F7326FEB8C100C2D7142EB2A0B2A9D1008A09BA343D70E054AB69E2A7EDB783CBD92537FAF4A44D1296AC2792729104B3276C276C951D0CF3CF3F1E6B017720A7B8505A5FF9589365979678C36F1BAF759EAF57C60F1FF5
310
FE9DCF5F8E764FF25A2D06CF25117A8FED51884C13B2B750DB0E4F5E3D64124FCF11F0AD8F1CC3B3DA4B38ED22BF1CB2585EE6BFEBBA63FBFD44F9537B9B37BDD6B358720F98A8125AED4349CCFEB0E135F19E208A04CA7E2B10711185D72E381F448036EF57C9F874E54A971CA37A639E986AC0226DC5AA00D5B14FEA9192
310
234B3DE617814FC221C92F33F1D392F297731B567FD98FD91D989379AF567A65B8ADF177591DB90FBEA99BF4ED11B16E50A0AB1DBF1156D034BBE04D69D08F939D8E92BF525A1DDAFF80ECBC95D8F45D3FDD289FD23F7D8B452F8EBB34EC082DEEE68E18EDDF072060FAD2AB1504DD4879BF67099FC58F6E9DEFBF645D1633
310
4A3E9A127C6F1AF6132CF287E433B43A0EE93812B4AA0B194E03EE3FF91EF9C6ED0074A2F6EB18A96A7C9890B1FCDA1F2095E944DB911ED54C60DF16FB74C8CE9BDC7C54C4F14078CF73C2FFF1F1BBCCD7CF64F71407EA1683DBC410D226627F66E509060D5C0AFD611DE681D509DB8DD12FB1265B03C6F5C55FF4C30BD941
310
87FF692B4F152982502F193098A789526A038AB529A52BC0DC4FB6285CBAC10A8B8DB75DCD9BDABBB221E27D1F8DA9F5EE5926A1C8AA9BA9BC09239C6A7F12914EA3B59EFF7AAEC3FFCCE56F1C5C2980AD072793527565E774F4631DB178CEEC691B1F367BEA0CF2907E1D6B854D527065979DDEF002D8B2ACEA7CE21AE297
310
737EDE1D45B31233B73FEA35BCFDD0B09721FDBAF6432681F2FD10C3E9EFB246FD6E854B344ACC9D8A0EEF876A7314B49B6A499FC650B099D650DBFEC7638ADFD245E2B7839DA5AC5F7D5623FC0ECEEC8653FC9B2BDD1AD4D00A566FBA7186DD3C9CD26512551637498CADB950FEC71ADB9A5524285DE328B8EC7EC75D2345
310
AEC6A27C42AF6D9B92155315C80DBFCABBB7DA0FAE425C4FB896B15C9BFAC4FE67DF5A23D30C93DA4D8F36FB15D100050DA6062E22AEC5F4DAC4F6FEEF97AE05DE63C6D38F9E068A20BC5E3B6BCD75320C5090924E7F93640A7735B1A43451C2D91EE62C6238B797349E59890AF3A520DF4A87095F3ABEC2E61F0593416CE4
310
6CDCBE0E00E2523FCCD04408588B5B6C9DB6459C786CE378770B54F51DA3A5E1DF2A3349BEAAC234A6CF8993B598B3B25B4B113E353A4D750FA7534749430F3EBF2512E7EA3FD43C6AB9A1F765A58463B306721A15D224FAFE8C6F5E3432D57EE697DA0DD5A9D4866A8BCCAAA9DFF1F06047851408FEC060471D0E3EB86BFA
310
F46E4B5E60311DC3E3CEA147C75CF971BE74689507154FF2D2E92F15CDB2B9182B11459FD8ACAC5A85F174BC94A7F4EE4C4F5CAFA7C02E37BF0BC77B7DCD0C047BC316F562A01A441AFA7931CC84A28CB9F4AA367EB515778F29BFE61195FA671F4352E5E46E3A64773F1F76EE5EB36D7BCE9BCEAD837A4D77F8DB8C92AEEF
310
6711920D7C7D0F76B0FD0EB7AB83724CD35BCA7D36DDDF5FBB7FF6F04A91F3E2BB3B8F1A43CD659639507FF6331C5F697BCC782AE57D757A27D97F1AB9E0AEDB43F92F1B2AACDF5FEC8ADBAF9F814E2027003BA2F9E144B1938A7A04050AE5D953B82C45619165C813A10E76DD6906B3C16438064D14CDA713AEC420034613
310
E1AC7241904A49FBF87409AFB1FCB9B72FE7933A87D8FBEDACECE4EDCF6A4FE9FB94D5DEB74FAB7CFEAE17EE965DF980DCCA2D04134994F9A2E94D2265DA4FE6AA7B7AC15FACAC2B5ABBCD7DFF542C5314FDAB2E1B9D8B65220B8E2B638BE008E8DCA22678C820C5053664D15E89F2D735B51A84955E81A443545E9FF787BE
310
0FA700A76D136C27DA179A7C6E8939E01BE756E19CB292798063D8B97F44E8A27BCF3A614FEB8BE974A718E86F7EC99B53CA35FA24F61F2B07266684623A3D4CF073E511F3A10A8FDAFAF0078C577F4DF9D339FE7862E5FA47CF4344209E5BF76D783B1B48E152AD281B15FCB934DCDA49CEC5706B1EE8B460F435324A5CAD
310
154725E21AB8044B75A557A79F6C807B9340AA3D92503E866F4274412926C8C504E4D5EF8C0E68DD0B028781A6B4054F11CF18941F101C57CCC796773ABC8DED9CD91FE5788806C05E548895354AEAC96546D55B0E94A59F148D061F42AA398D822CDECA4CDE79E13469BDCC44FDC990F366BA5978C15F97ED80CBFD73B0CD
310
9B8B83A4F6845BDFBFAF034019473FB9A63BD55D3A4A7284757071574029A4D016DCCBE95DD679EF3C4880BF169422F8C89B68A988D2B13793CAED4F74DE7486C72DC94DF46B8E93D8E02EFCB1FF9B3BA10C8AE7F653DF94F4AF466CDDCEF5776687F7C4C14B63E4EED1719DC2EC482D7DBCC7AE518CDE3D5FF86D39000EC3
310
673C0044E1D308BF05F74D1B5F033A7D1BE7F74BC55BBE3E4A20F920946CA0271EB17BD2B80E5660ACB8A29A79F5E4BBA49D4D945B6EEF4A7EFEAA65E5555BBB57A7E15D2F83C69F30BBB978D2B39F1F26FC097424D39BB33CA3D87ABF64E307938B685BAD44F71556A30B7E712CA4FE600613C3E554B69ADE949A7CFE214D
310
F1FFF05CB82151EC6FC31950239F94CF7AD39DC473F6EA356E5EC2C4EFA04383CEFE985A127484366FBEE3C0EC4FEA363E4F6632AE781392FD45D67B63FB8DF70E82734F431FD3443172A0E30A83D60982D55FA6A2CF86DBA8382502ACC6CDEF3B907982EED1160E14863FA242F9757347E1544275CCDCF71ECD5F8621CBEA
310
326B8BA884AD7F825781923E66971F04010D574C541D8427A438A37EEF8AF88240EED7362C953F5A81DE2D56109CDE2524EA0F5D2F87308C0C47BD97AD605878AB8589E17CA83930CB5E0DCCD75853D68B1AB136594926DE426C367428E9334AFAFF90ECE221BB5DC9E5BB53D2CDEF954EAA9CD814F0E5725F1965DD458E5F
310
8487683AD86B9D0076BE3EE91EB1CECC5331A67A3F79D8B27587C12EC2A6A70474749F27B4C0BBAFB94B34189E88DC18964BE4121B9137FD516C7755356E50D6714E31ACD222621EBBCD1CFF81D87479056A9DA0E0B8EA19D24CF937DA89F78E8650CCBDC110AAB6C4E46DCBFD0446BA9E2060E81F314AC2031E88135E5476
310
AC0160EF5C0DD2EEF1B8B5CB2D198BE9A554A9093B5F7D7E4B5407DDFCA1D9C152FD97F55BFFFDFE802954DFEC8995B983E28AC92F1971E28F531DC407A1280EB125F64A72E617EFB27DFBCEDCDA2D6F2BDADA36873EE46B9BE1782998C63DA7182BC383FB6FD15DA472B175D7E8B4FC88F38D6E07FEAA3FA3CBB8F6B449EC
310
F14D2175E5C5CCA3A42ABF24CA6C9395AF74535F4DDB38CB84F56614B0FD32D7E19CA5CF988DB4449C40E23DF2B16772594554579094450F56F253CD25EA7F77366FB1CFE79696C428BB64D5A41E986189427E5E4D7E2DAE3D5BB4972B3DC44EAABDDDD63A2264ECFA5C786EB0EE1FDC5BE34FA0F08376869FD1E61EA06CAE
310
15191135445EE8F0394161C3266A596AA035572BB0C8876180D8B9C77D307DF9DCDF7365ABDA6F3A2366436457A4DFC1F259666569A9E4A79C817BDD5610E5200FCE894A358EC72858D50EF67545DA81C6FACE3D457BAF70367E1E6BDD9A952FB4F56247F58F523B97E640246051A72F79BE42FFA0B3187F63097F91C48B86
310
8586F714B0EBD5A00A8412C1236E1298F60C72BE6C96B82B404CADAA304AE9F303176B14BA53FBC2D5E86377E35542019E24D97B96A49B2C0E5006E7795954DEAF5DA58958839043C6C70BD3B1B33B6DC5C31316D8A6923F142E26F6711A2258AF977DDF1F970ECC4F1F2B434B96D81BEB6E89BF3BBB3C7C8CC80505070723
310
D6D7D7D3C8CA27CA164A26024FED94B12A86031867241DA53D929636DA600F050BC40CE48B8BA03D69224720DEE2ED2127390BDF5E6EA64527BBD4C4C63FA76BB801FEEC0E61218EC98A8A86CD8313781617877E66692839B9468CF4DB8E50A73986E558E309C0D6F676F921BE02F1185454DC75B111572FF9D27D85EA14C0
310
5AD7271225B391C4275659CA4A43759D0BA44639BE4C30A84DB7F67A41399FB95CBF923B1B1672ABC807C1590557FB18D811983FA97F5E609516D62281D38B1281F68FC75528C35E4CD7DF0F7DBB5E5DD69C414EBEA2F4A5B241B996BA77AE6C772E367408C633EA3E438B68563EA8BE7667F3A4C4FDEEA52ABD78A2820F44
310
3B7914A15F180018D231E64519C56A12F6CA7C8DAE18F06F6B769DBF92329EF6A5D18FBCE600F36BD8E8198DE5CDAA96181F3A756EBA5501CEE58F497EA4F418A2B82565B9BCC611713C0B708CCA1F398B78C5F7D03B3437CC18F13061F55C7BEDADD5ACB1DB0E36D3CE47FF6EA1A563A57E9649EA5D14D1A50EAA45746338
310
1C073777EF1600607BAF6428A7DDC079D47A204EF1E1F1F0589FB054D45E02CE623B3823C317C601E589E22B1E88B448524B86A82828E32345EC18AE17214B42F8C41C6D428016D9BA31DDCB47572561E5A402E5BA4FCE55F78AF7268524AA04130F3A20BA5D1E9F9948EA48FC8F5314FDB35E21898198060034ACE5E3E2BB
310
CA34092518F275190AF65F45867FF0900AA4B81F25427414C372BF51DC29AA855C5428EE1EEDD6B849AD60F6E73475C2D2523F8A2772C840A478DED18A8C5C91B085F255DC4F54EA7AA8947354FD17ECF8FB3B4A0DE7B483CAF3A1165EE05BBA413E5C1FEF3DE1D6B8F2F3F3251C17D9FCAB48A9AAF63AC773A0E413BBC46A
310
9ADF84A566FC920E4D8C52C9769EE3301CADEEEDD92B312E02E2A7E35B7F1E7D203FE5A7D75578B06E99D0E46FFADB8FDA17ED8880390DA29094202D6F645F76F6F96409CDA05495A96E84B04A00D1A6C6C81D7F3DE9376E828CCF144EE50E364ACCE7237EA0BFB5607ED1AC3CFE73794E5B61739D14DF1743441B1AC98F00
310
ECEDE9E7301FA29755FBEFA68C91EF2B314CF510537EF1ABFC9A762496280B546F5EDAAF8A5B387D469FC9A878A92828C88608453ACEC6094DCA54111E7AD5B2663DFE2DD151B7F123B9F4FEF8EE36AB125FD7AD52A59B1B765B3E3F73E3F73DEA93875004D2AFFE3CDE9493B87A9904DD052028949041A91DC0E1BA47BA71
310
4343FD5B25E0A6A09503AFC17C790058A836A324FE31D7893512E28230332F153181C1E018E1124EBE1BA262AA428A518237D1EA7275E48C5C561BD19ED6912EDD8367DA0F31E40EEAE9683DA9257525AEA7B632B97119E17145A90231768A4F3B9120FF32E8319B015E3CBE26F1A754177D8185345817C096B0CE443A955D
310
13AC15E1FB5DEEA0239EC32A3C92241A237B0B02FFCB4F93CF2B02570C8D192E2F2A68CEEB42F12E6F8CEEFF46C251E22B4341C56FB08CCE550E7A9D6F4D6564B9EA52A83D5BF2C6E03FA19D2775E15A8A7ACF30A13C259EE7F5EF2AC3BA354F1500E1A07FC63FB4686E2F12EC69719F9ECF5FE3F35598DF2CE944008CE78F
310
0911BA5BE5D0A34E0098FF038669C26030BA9B300303039852A8F6F496341737CA7E0D2E3AAA36DE0A70AA7D9CA0D54D9AD84B18A44C9E625475E1C97B93BEBB38DCE7D227E67A2D00F531436136355F243D1FC0D712C5765754FA22FCFFAE97919161F46D6E61ACB37D83777B385889770B50765B127768443A5C4D3A4E35
310
A3151111F146B7CA116F918A049F1C272F2CD7976C69A0068773451659A97E0F4A08FE604C3FF6CE7385DB19F4D3ABC8A0D80DA8A42096AC377DB49382B36E270B6FA7570188B4B7D1DDDDA82ACA487CCA5D38BD3BD039ADBAFA4ACFF27809239B722081E2EB9F145320553D183F28471C388BC8814E5045676767AB58A8E7
310
2D1CED2CA731379515D2E533E4CF0B39DFC625F97AC4836831A4DE330E87A8126FA17EBE583D614E71E22A8DBF2825599743E0640037303E8E1B1E8EA4E1ABFA4F62907B5E4E0E5DCFDAB417C36C6848A2B8D15F1E505434C0707E16B1CFC2A1C36A42BBF55734F8F4301DDC2A5110CEE8C0747F69519265012A2174BF4E95
310
5ECD4FDE095A3ABC70536B7AD0B9D7892F81287D667C108703C9B66A221E9A0929D030008F77FF6F5D2108EF5706FC87A3069B976F7C9FC3239D13D283CDEA83597461079FEEE049B0F392889898B7D87D31F8D60ED7B56B91823A8E4EDDB36C6172ECEE42BD42B12CD67994FA0F0DFAE9389356F4CD4425A4B8AA55CBF7EC
310
D585C6A2C2316791E43D5C06841ADBB226A87FD61515FFBB0167B74E56BD7F3E90A57A97FEDCBDF483A0D6699A8C0849CAEB4947FAA90D8E332D9DEBD9F4738C37DA0CAF9CF3DAA68BCB67C420459C7A64498D6E848E5CADE92BB6901F607AA331104A67F7CD650EE169B1DAE94D2C31C2F993632259B6957E246EFE4C5481
310
107B07118607700040E5812A2A2A38DA0076875258C753F60E0F2662C748EDD5F3F3686B8FC3BD6FE631ECCAA1E8B1C1E565AD117E54893E79F4672E32F9E46B2A183DFDCF3EECB4D4D077DBEA0DA254D256045109670050129E9B9B1A9E4A11344D61497A992778095151510C4BB7EF2009B63AA4360635312E4CF668B7E0
310
D3D85A8688E2BD83B569439892ADB63461930D428E0DE42E4AC57CE48DA5CC1449530D8BD3D6A0F08DF20C8E8F570F2CFFFCEA286E30969B4654D498A58D9DA782E19FE3F002181838925592C4A1EF0B332D88B61A92C644547BED490D3A42CFFAB70E36D961F694F6307F72FF15A1C79D5B1B5CEFD353D9E2B52566DEC8F8
310
F09CB3E8359C0F68EBBB7898243E34E12A015B2685AB303C04D3A9E00671FF3DFF0A184E4A2ABEB2B666AF5B3A209C73D8EF29DCDB069C9F391EEE9DD0F74C7BCDE16F8F02E3B8816122BBEB50665775B600549D8BB33A54A6BF940C028118BC6878C79958D6784F9DEAA6E26748386FFAF8D0D0101E2847B6563F5D8DC1D7
310
8F787BE00E2C941AE12148D4A81599FE8F68D4DA5CDED75530ADE138240300EE13B0FC13A1687FED6774662C05A2B7DFB186732F0D7A93545D8B0A6390AE5054D9CB582DA846D7A061B3358B45E2B52DDE63E114397EDB7E09233A579155D795BE76102CF277F4DF8B188C4F2879BEAE3C08347124BF9ED23B128259FE107D
310
31E34A652F090B30B39E0D9AF917B76A2806135621A8A60681F16AF216514BBD02711585B5B1AE823F4B2D0369EA5B6BCB863072727FFC871CA6C9AB79A814D989057E9470A3D238BC87CBB4A0EA49AFE2B86F22E499793CAA9047080450166BDC357524561E258C77CB697F1ABB32562CF87C3B7AA12F911EF19FB3E5C022
310
22E887D08202A60A17151F5E053A86B437771088B4FEE14D652C43E8D939995D34545E12E2FF93D4E366EAD25F10CB7DED141563C3D0C447AF06078A91135FD4B9611583CB4BF3BD167F2399CEAB0E0100F8FFC305F00F1711717173138B4B48C83022295DE657EFEDD97F238ECA80F528AFB4F8D67AD4E2594B9A3AA86D74
310
87EFC313BA95745C186F0CDD84CC12DC9CB0424B42203D351FD9C0A3AF10CC7F388E0329279087386421F194F4A29464C1DEF7EF8BE515E4A199DCD5B909342598D8FE6A231F71336248D5CEC5454455C7BE383B3BC7B260FED27F703FDC39A170F3827239102F59D4DEE7FEF82EAA1A5E4BA94DCC4CC44E7E2EDE20F24244
310
E4454369D2E87C3F823F193FD4FD27E1C23984B01898D15ABC20711A8A558054951A6AE280096BA36CBA439603B7B0B4C45F248C14B2383B4B5CD8ECECE4FF859AD4A6CA2326D020EF090F4041D28DB66E5256B56232CC52829DE8060BAE6BBF37D4B7469B822454FE93210A3E8D15E69FFCF01123222611C51C4FD0A041A0
310
CFA2471CF6BE38D2B20FA4C3525B5B8B586759475CF80ADFE67A284AC24651E52B8E683D24C2622642F27E7C3C22783BCF63648BC398BD6CD0D9C97E7E7E3EACB6126DB7A6C1FD9F1031302EE67ED96F22B77C7CA0239BB324207559B105E4693EB26EC46182A92C9C0DBD24F29B31C5C5AC1F84300E0E17CEEAC15F5736FA
310
4A98971E2F1423BFCD68D4BBD5F86E74B40A369F39507C88FCDB35D2DD8DEBEA4AF999E23CF2816D204200DF6E611781B9884C1AC8888B4DE397320472959434323A5A36B22A8E1F721A270DF3BD65E4A31C11FF048AFB0D8B7B6881423793963A23CFCE935FC189ED36FAE35C46DA3574C979E4394BE52084F3081837BE03
310
3396D2EBD80F1F691B273F660D2B32FA27A33B1DE4ADA5F0FA4651511102DFA410DDA86E065272CA314D5249DF91B06BB92807B28EFD54F08F7B525252782CD276DD02E6B0319B13DF87B1F6361AD6B28FC0D711CF445429B9E5A433CD493051C49A9E03DDB1B147D880253514A5DED88009018620EE229101C041950E2D8A
310
A8E1F5F5438E0C0C0C60EEDEE9E3E0C051948C69F84BB7B2A48A1F3C8EB9E6864687F4F4F6F6E2FA87608ADAF9C5E117B7C1A737E710769DA1D15ECE6A84502AA855398712D5FB51BE92E4EF824969CE18278798AC303C2C7980DD2500ADF8FB1E6D6C2FAAFF9987178923334A244758BAA01A9A1B70FA5097D01E1CC2A58D
310
AD0EC94CE6430AA9B0C10D75E3C6BAC670EFBADEE1607739CE0FC18A2587E3EC3058562014C64219C69BC269082D5C2F4A659278D585755912176D78A1B641719C2A394CED495A1AC5D583FD2F5EDD93308EA7EAE8A6DD396598BDBD3D4CFED62D18A5BDFDE0DD5C80D1A89BA62697B131AE7CE9A6594138582F1B37D68F17
310
49AC7CB67A70695D48A4A056AC1FBD4E82358CEAE38F54B95A9016F9000F9879C0D9D131768635CA798895F27D6F1614F11F2838A83611AA51C9A3DDB539D42979C29F10465655C17BEC3E2760B80DCBF609198C7B171A531905F3EC218D696025975E986C6B4C666666787271F202805577DD5A3EF0CAFAF91B62DC4B2DB4
310
217A7606282F31D8DDBC290593BAA93EA6353AFA9939B877978481E15CFC9F2755CDC00C538F63A4BA3E80AE009B73CA0185687D339A507D165B74290D6EE46D5C58148F020C3668ABE9EF2F7549170DC80DB41FFC1D678FF19AEB10C7133832B104B80F691B3138F97A92D26E551F1F110400D45AC71A9B9AC41A1A1B1DAE
310
ED0B0810638EFFB511D46B121C6FEA0F38CD00E03CFFEB9713FE1F9C263E4DDEC160D0497FA9A132BA608584057FB15380825DE6C7FC3C667EE947D488A09898D8E939C4953BF4EC9836344D2CC6B2971B2A21A572B06096F4982D2CC7232D46E8EA69DC83722E267754D777F97F96D5DA74E1E75178084D0E70F12AD33E5F
310
71EF2AFA599B2BEBF60A5BE475F444F240CBFE8143C334E7ED9150FEEFEF7EB020C4DBED388DD1D6A167A76F3CBF119B578AE8CFA7736ACAFA4440A1C47185638A0D2F3EB5BDDEFDA958FB13CE4AA4923D5BF840392D45544329525749734866684BF7F8D9D54D892E19BCA9F829A0F8BFCBEEA6CFDFC61D74EA1A645ED7A1
310
FF241739F15694BD835B66FEC5677E40FE69BD3F91AE402F036537218A401CB0828604AD189E575015C6F3F6BBC8AC79CF6C70653847254B31551EFCBEB5978B9DB85D58D0FA41A9DFE9C624834AA04949D24B5AE6D299E072D152D12097920F14AA92C31C3B97E28B6C2E6E9C23D63043ECBBC0A60FDF5BD0C33C127EA8A3
310
308B8B6AFFEB28B4455BF6E7AF4FC6222728357EB8E46E85053E6A8843AB23295BF838ABDA94658FEF3F832F147046B4ACD6F7D48E8FCC9618582961C898D1C7A253C91BFECBDA6BA18A1FCF70755DCCEE2222F41B76D23CA98D0CB3D95F0CF66D57FFF65E2A90F5DF40FC3187621E981BD0BC1D992787212688976B94A8F0
310
C6EF646624B570B78E068826F87CE27041A95C9A4871FF65CC17FCB1639629AD6A9517000D63AC231F3D741CB8430777E7ECF80CE7A3F73C0F162F7E56AA71F4DA80A33CD6ACEE78E2C11FAC03DAFCE929B106F8F6B3ED2DC71FF994BD9CEF4E9A94896EF1B6E2B7B4978168BCF0847A3D2A4F1B0500B926E634B174548E9F
310
BAD27153FB5FC36799B1E6C7C38A94E1F9E996796D7B485E635D5287A2AE76FBD11A341DB3F8F810385BB7296391973DC6C37C452A9305AEBBE0CDB6C566DB59FE60C8E94B1FD090354BF51439FFD1B48D725228FFA88C84F686F547107A7A235665A4593B7C34D748C1AC8D56DD5DA861EEFBADDECBBD65117E65851F9035
310
1AEB65F0EFCFF4BCFEF24CB7A5879699FAC437A7AF9099186CF006BB923A59E37D7A36A29FD8D2CBB914A5E9D0A8FD212FBF796AE9A67958FF1D5D8B85F78F96219D4714EB919929241B6C018AAE0C02069F8D919961EC5DDFBFB7573E3AC8E08BFB7C8534BE6DE045B3CD63DBD71F7638BA2309CAE398EA3A7D8F98BBBC7A
310
EB367EFA5CFA27A9F8F2F52FE878058E6209C026453F8E7E8A237DFC389E9590F6059B397CFD65183BBF936E86896612A5B5FEE49DAC8455D026218AFEBEC12B3523A45B57B82C9C97E02ACFA1184DB18E48CF615DBF39C3CC6F0B4AE6BBEEA2E39D944E290302FA3DE33FA7E40296E2EF7BF1CD855BBECFAD0FD622BEE974
310
6FC4FDFDE545AE6E3BC234CADF83A0FB76DFB145BF3828AE3436368AC24989454F8FF70A177672C711CAA1A76107218CF948CA01F873520E7A2B118EBB161ABAD432932029628B6761590C98AB590C8C8C79798CE9F715BA696E839E9131A4BB68BE923F1747FBFF165331FFDD4D05997ACD168F12CA75348DAC04C7F509FE
310
83898A8B421181AF492861CE81E4A2DD0A30850CFA95E05F097FF70F9E777310D584A75BA7018922E271DAB1D785671157685B7D383D3E074DDB4F1E44EF04B07BAAC75A062077C54B9752C738C9D804D402E02851F3F89605AF189738C18C021D2139EAF72513824E10DDD3047BACC8521ED7E98B257D1166903B1B08FA6F
310
918FD7E162913FEC7D0EF4787E29C35FBA8C6E2C9C20E9AB30AE42CA2A01A090E7D010C1B5BF9CEE2A304BF3A987FB40D836979B79E18D70F257DA61E808472DD85B82761825779D6B90CAEB0F23360C6F80A7D7D77545E95B3DFF0CF96A827F9B5BCECD2C9698718417EF80FEEDEE938AFF55859D0D540B7FE09435583A6F
310
04874A0C7E8CF234DF4879722000167F5872CEC6BF3EF7E5A8CC8121E6A359227C8A29C95212F9F735BC72A887D56B8F309FC525BFB4FD767AAEC4AEFF249CFBBD2DE1AB9969A6155C7D8DABC307E47324C1F916C7BCFF40ABA5644E9FFB9238D19ADADA49D9610F01ABBA57E4DFCBDCCBB2B93C8953206C91DE01B0E2651A
310
6D6C31721915B31F7B7CBCE55466F6D70402788FA91D73BE4ADCBA99A35F17D6B83383704917D6833F0FA3CD45C926ADB8BC17999A4A0AFBCE2541F7B8CF4C2F5FBA611B3E626D64407CB32C122DFF4EF8674D6EDBB86C8F7C6A16D50FA685E2CCA34F8F7D1D8265BB0042E9D7F1F666F7BE5FAA5184DF58E12122A42EF02F
310
461B3F369AC746F96528AD208512AB56844CF75B97F352DF7995024FB02855385854F3798670D01CAC771AC3E1889EC25F61A20C1F8CAB46898817F9C47E2CDA1F286BF2F358298709FE567C91133E2638C8B53975E753EA8BFD3578B5F7186B7BF084EBA3F77BAC3132A5779902EC22AF2D2E79F42D324E083386DAEE9810
310
D1B44A5DAA54513C7A71E52A4AB9257D975B621308FE4D2141CC3DCFE946C154A3C1DFCCA7629EC69ACFA831634ADDA93C0388D2A9A2DDAFCF957C6995BCE7FBB6DC4EBAE79E63EB08E9A25F52F67076F7093CA545CA3053B5BF576DEAD4E0017143C5F759F32B2D6F145B52B67B48909B7C7FCA6586EE385A2189C16932CB
310
6DDFD9152AE317C430492A578ED27B72D85D40C7C93C097939E1B50F4D67F05334FE9DC362C30B7FF561B95259138ECFD9274C8D695C31B14D4EAA9F3D7FA8DDF652F8C5DEFA23284C799B7D94416DEE81E05A866302DC70192A5368EA65E1CED8BF107A1E2D3119A71E85DC1A7B0C1E93274CE04DD0F2ABC8AC7C987FDB00
310
2B6F81757B43502EF7A0D92E416494FAEEA4C9C090CD9557AA4D532F4996A272B94355C5A0E4974EEA9627476F30809B94D8D8D860062E02204643BEC7D0438AF800FC7E2B26955D595421E83C69E1A07E0E3122285835F014AD538188CF9737CE76D464A353FA55A001AB2526B84E985083693BC76FE211CA1D000679C889
310
E3C009832C87E1AC2EDD05C302557422DF0800E316FCAC86978A371F025A6C7DAA9F333E7BD160403A1A06EA75AA9888FF01504B03041400060808005468475051464CB48900000043010000360000006662782F30374138423930412D424246422D343742382D383031332D3935343138463739333942452F646972656374
310
6F72792E786D6C9D8F310EC2300C45AF127987122606C71DD918B841D4B851A43646695A717C52A85029031293A5A76FBF6FACEF7DA7264E43906840EF0FA03836E242F406C6DCEE4EA06AC22492573150D1F66C60C640E8938CB705396EEDD86DE9B5042FE27813D640EA63BB001C722AF6E55CB61E4863F58284D5D3F53D
310
D715CE1C3985E63FD7F1B7EBDD617E9F1E504B030414000608080054684750B9AB5F6A49070000541C0000340000006662782F30374138423930412D424246422D343742382D383031332D3935343138463739333942452F6F626A656374732E786D6CDD595B6FE23814FE2B56F665F721376E85116504B41DA15167468366
310
B56F9109867AEB5CE4242DDD5FBFC78E1DE234403A1769B55482D4718ECFF9CEFD64FAFE1031F444784693F8DAF21DCF42240E932D8DF7D75691EFECB185DECFD09427495EDB67A11847E4DA12CBD66CBAE74991AAA52DD9E1823557EF167FA12C2431B150C870965D5B59F84022ECE0224FB6247B74B638C7CE7E77707CA7
310
DC6892DD739C3E348E4A3127710EACC27A0C541407BEF92F88E4CEA6AED8606CEB77DBD63BB3CD95829B8CD238CB711CBEE2AA715CEF04578DE3FAFEE0E6B6379CD8C3C1A06F0F463DDF5EDC2D6E6CFFAAEF2D47CBE5647E3BB1D06CBA491256292025F116B4F862CDFCA92BEE54E22B14DAF80E933826A142B36DC39628BA
310
94644D4C0C607D295A4D21A5ACB5857E47E14F6CEB048AC19281B6164EFFD6AD37D9FC0D20645DAC94674458799673D0B5C2BEF4076FEA96AB865E6886229C134E31438C6E38E6A020D85A2AC82023BC4590420233A9454DAFCE2B18F6655F6AE372573026FCD79A494F0BC01F499E49CEE83F841FB9AF9F063C81B4058DF3
310
B112367F4981C464EACAC5F25EBFA76E9640A21DC37BB01610536CEAF71A782D452C58DD58B38F779BC35AC487F6C3539EA484E7C2F2A4332BBFD31AAC9916185F07504A5C4DDD1D51F90AD07F02E42B5ED01434C7E961701868D9398EB35DC223D00EF290EDC19787C4E5ABABA95B3D3C43C88895A73005B7FD49981A6218
310
67D7209D4D9FC0E813DE57C2AD43CCC0A6EF692CFC1C0C05B1049620DEEF36076BB682600A8BF01466203DFC4D5D7189E0A7A403F1A6A1A1B6F0DB4151DA619A7E76D4D507B0194EC34A55868CA7F01DFE147CE737EB8FEB82EF7048EE9563DF901D8D690EC9B49D210374C3E5BFAD3E498FFCC0920D66C7A78D4D211CB34F
310
44DC6851CB5AA90549BD0027220D979A912BF714BC9D311C93A4C8D47A5B9C0A1396F060F312942EDC7AD69FDA06CAC39401B4C63248EE21A7A9C0C49A296D5581D0A9090A1686B9B2C07DA9D56053446980A3A48845A87D6D8A4D3E20CE084B04AA929A366CEDB59AEC96EE764506C1AB95E4D20052F9B3265C5AF800E258
310
1BBF9CEC3886249AC401851C0CCED27A82714005DE799E33C2760165AC88821D6590478208A727E87794A09EB91EC9CB73C2B7AD044DCBD23EA96D4800AE80D520E96C55C67CA5534E9EA82833653ED3D9C0D8A1EA506B3638912E44A66801541BA334F3ABD1FC66391EF56C7F34F7ED8137BAB5E7CBC5C4EE0F279EBFECDF
310
FA9321B8BFB21289C0315AD5F31DA852943986FFE50F45B4893165704350C0DBF4DD7B993DAF5D088DAE77351F2F26DEDC5E4091660FAE16637BECF97D7B321CF8E3BBAB497FB2B87539C992828724737BAE1768934CE3FD29AEAA582AB216C80FDF0A52286B2E273BADAFA630FFE318DACC098612FFAB41B48A5D2D0561D7
310
202A1E6D86501C3E8A14158450F5B5BA4F238836F9688B736F8CCB9ED3F7E4C7F7273D6FD21B830F760C7BF2A41F8E746D3284D079167990A438A4797B4A6D20D391E5376517A7EF0F4B6CF477AF8700AFCEAB1553E73393622AA011DE936087455FD1124A2F49DC9AF5F62CC9321A934CF685AFEAC5064DCF39C65F95A55B
310
CC9666414472FC3D162B1B8D86174034670174B0B998215CAC232A17503DCB298AA25F86542FE57F09321CA5ACEC8D2F61E0F774B0D75D519B850AA6C5114F609F01CE036F4BE4A8E312F58A7D5D51B46AAD497DF2DDE44FC0A32BA15F088F3EA27BB1E50CFD89F88C210C8D867E7F7455A9E2125AFAB05CF47EAC806E357C
310
099E09DD3F742A4EBB69A556E69585784E22687D715EF04E1E3B8268A26D4B0BA42243C3256A27BDB1A0943D9FEEFAE030D9F49D2A896BC740ED4A63988D7512E49514AD462C7521E78062DCF506CFD6D85CA4FAC311F39757D975F78BA038EC820354D86509ACE28F5187B756EA460D953DE33C8450BA96BFF6023C624BB6
310
C766CE20D756D6EB9AF652C5BD12213582292F1691F65E5CB0AF18540D1D77E67E280B3DB75C5F89D4E6C040FBC887C1B449EBF38775830AAC747EFA8BC0883C3728A8D5A5E8A0CF90FAB63ACE091A149444DF56671EFF4F74215A81B56E0426C859C2280CF2C916ED4902F91B46151D3A141E914CE6E56367A3DF227478FA
310
A99CC3E678C3745F143E60186633D5BF15210C5221675E5B6A1DFD06A35331BD94032DE7115A3715C32C54707A6D81C5E6143A3467032330397094D41B234E706C1CEF45C62F9FAAFE3F3EF6AA63ABF674C1454966381394C2A97CB700755F796336FD7ED1353B08E770B929F24A98E3C2511A05827E89500A0793C24705EF
310
014A8AF372F98EDC6334B19DA6F967EDA0A46AE798EFE548BE6693F39B2FAE98A6AF3EA394157BA1CE731DB341C9169D3A2BCAC9D5140C4389996251452EDFB95F7802AFA5227447C108D0EF87F1E80F7799445112974BEE5CBDDC42EB077855B575F598105A7FCF1FBB7272A05E05041B9C11076FB3475800D5722AE6A925
310
C4860154D1B466005A234217F098B17F75835475549BAAD4C3AE8047BE0740E048E2FD8F709BFA86DAD0127C01B892378F177A61EA72189CCFFE05504B030414000608080054684750EEDBAFD2E0000000550100003C0000006662782F30374138423930412D424246422D343742382D383031332D39353431384637393339
310
42452F7265736F75726365732F322F636E782E786D6C4D90CD6A042110845F6510721C754C206171DC97C82997C568AF91557BF027246F1FDD18C8A99BAA8FA6BAE4F92B86E51372F19876B2514E164806AD4F6E27AD5ED717B29C95CC88F51F4696A423EC64C8444997B11D53B270D52D0C35F8749B22BF384890BDB91CC9
310
91C5045DCA4E8AF980A8A96E152D941BB5BA6ABAD10C055B36D04F541F619E301974054B94E082AF5CACFCF9757B3C71717ADADE241BA492EF8861F23E55C8783C086EB0AFA927E2920D40C996FDA4C61BDDF88B477B3CC9BAAD64A9B97730B1FA7D74CC47ED80DD915F5749369EECE3DE409FA310F503504B030414000608
310
080054684750FF15A4A45D000000800000003A0000006662782F30374138423930412D424246422D343742382D383031332D3935343138463739333942452F7265736F75726365732F636E782E786D6C4D8B3B0E80201005AF42B6F75B59F0390B113044D83508C6E30BC6C26AF226F3B8BA6360974DA7271430F523308B2B
310
198F9B80925DB700539227A2FCCB80A18E5640D320F996A81C9F32D6E9129A0D1EF74FCE750E6D57BC7165FBCA07504B030414000608080054684750888852CB4201000056050000300000006662782F30374138423930412D424246422D343742382D383031332D3935343138463739333942452F636E782E786D6CCD94C1
310
4A033110865F650978DC6C761594924DC1834FE041BC65B3D3356D36599289D8B737A9DB5691A287427B0B932FF0FF337F862F3F4653BC830FDAD996D4949102AC72BDB6434B22AECA07522C05F7CEE1378C14568ED0925C26820FDEC5692EF5B092D1E4AAD176331725A2D75D4408A4504686D092A0DE60945446743D840D
310
ED254A5A530FC145AF20BD473DC2FC5E7990083D110D6B58C99A92DD3FD7B70BD62CEEEA575E6552F0CE3933F3DA227837DD344CB974B4490EE35506048F5ECF54F640C4511BEDB4E555BA173C24BD769839DC4E999B26A395C4D4A8CA29042C130472E4D5172C78951DFFF0FDF4F872D4904EBDF6A0D0F9EDC5DA509F6AC3
310
411A4D89F85F1776E05FE65DB74E962F37F79386676167B3BB4F6E48D1FD9D8494276907738D1FE020EDFCF94F8B05B5BA46D37B6567F25CED56601A7CDE88E213504B0304140006080800546847505DCD279F7D000000A30000000B0000006662782F636E782E786D6C4D8CD10A832018465F45FE7B37A5860A66F4C37A8F
310
581632D37039F6F8D3D1C5AE3E387CE7E8FEB379F2B6E9E562E8805F18101B1E717661ED201F0B95407AA3538CC7DF0D489836DB41C560F49A62DE4F34DB65CABE52EFC2F3844C0C12151B28E288B41528A964BCA1EAD672390AD528BC17E35A9532BF5ED99A375F504B030414000608080054684750A6D797065F00000082
310
00000007000000636E782E786D6C4DCB3B0E80201045D1AD90E9FD7516806B51190811670C8A61F982B1B0BAC9C97B72CA7B1037C6D3332918DA1E04D2CAC69353902EDB8C20262D23F3F59B81A079470595414B17391D1F19B4730A5583A7ED43BBE4025D9592775E5ADFFA01504B030414000608080054684750ECFD112D
310
A800000026010000130000005B436F6E74656E745F54797065735D2E786D6C7D4F4B0EC22010BD0A61DF525D18634ABB506FE00510A79458060253536F2FD89D5197F3FED3F68B9BD80362B21E25DFD40D6780DADF2C1AC9671AAA3D677DD75E9E0112CB5A4C928F44E12044D22338956A1F003333F8E814E5331A1194BE2B
310
0362DB343BA13D122055543278D79E6050F344ECBC6478EDCD76CE8EABAE5449AE4298AC56946789C28AAFBEABC53F3EAF09A84A1441B91F0101CD4780756578C173A578FFDDBD00504B0304140006080800546847503DEE336E64000000790000001B0000006175746F6465736B2D64657369676E2D7061636B6167652E78
310
6D6C35CBC10E83200C00D05F21DCA56CA76D41FC96062B120735B69A7DBE268BB7777961F8D5AF396893C2ADB70FE7ADA196782C2DF776D7A97B5933C430F15651E5469C55D70F80A4992A3ADC954792C525AE70A1E4D6AD9816CC044FEFDF01FE3FDE907802504B030414000608080054684750C13B9C18F30000008E0100
310
003D0000006662782F30374138423930412D424246422D343742382D383031332D3935343138463739333942452F7265736F75726365732F322F636F72652E786D6C8550CB6EC32010FC156BEFD8809DD68930519DA65FD0536F08888B1283C523EAE71762576A4F9556DAD53033CB0E3B7ECDB7EAAE7D30CE0E406A0C95B6
310
D22963A70152BCA01EAA2367DEB9F88B069515B31EA0C0C0D9E45D5A36483A1BB52DA8754A6FA0084147A8E42D0F0304F9A967518B1433235CEB45C8AB98744DEA95C7594A466D52A3B29BB918ED81B73B3A8EA7FD1BEAE92B461D254FA827E73D6A31E976FD39D7CBC89A22E62C9AF967BBF45A44AD80534C31C214E1E777
310
D21E303D74E4833585C959883EDFBC2D2DD7653A6B56F48F5B5AD4FF6EC9D8D8D2CD6D5504E0247FEEF1C05953D2C9ED115DEE2549FE0D504B030414000608080054684750DEFE225EF8000000960100003B0000006662782F30374138423930412D424246422D343742382D383031332D3935343138463739333942452F72
310
65736F75726365732F636F72652E786D6C8550CB6EC32010FC156BEFD8809DD6893051DDA65FD0536F086F5C94182C1E553FBF90B8527BAA84B46876667677C4F16BB9569FE8837176005653A8D06A37193B0F90E299F4501DA5F0CEC55F34A8AC5A7080028314B37769DD20ED6C445B50EB26DC40150246A8F4357F0608FA
310
031755AB1433235CEA55E98B9AB166F59D27454A66DAA466CA6EE66CD0836C777C1C9FF7AFA4E72F94749C3D909E9DF6A4A5ACDBF5A7FC9E46D114B114D12C3FD3B547157102C929A78472421FDF587BA0FCD0B177D114A61421FA7CF336B45C07D26370C96B0CA2B977FFB8A675FADF35191B5BBEB9DE150124CB4BDE1A52
310
3425A55C6E11E65A1295DF504B03041400060808005468475014552D5BF1000000B1010000310000006662782F30374138423930412D424246422D343742382D383031332D3935343138463739333942452F636F72652E786D6C8D50CB6EC32010FC156BEFD860BBB21D61A220355FD0536F0848821283C5A3EAE71762576A
310
6F392D9A9D6166871EBF9747F5A57D30CECE406A0C95B6D22963AF33A4784123544746BD73F10F0D2A2B163D438181D1AB7769DD21E96CD4B6A0D629BD8322041DA1928FFC9821C89B5E442D52CC8C70AF5721EFE2AA6B526F3C46A3597EA5D26B11B502D6E21623DC223C7C90EE80DB434F3E6953988CA664D46E65547637
310
17A33D303C9C463EE113E2FCCC513FF0118D9874687AEBC9781EA66EE2EFB429624643F4F9E6FD9372DDABF24DF82F735AD50B998D8D5DBB1B6E8A008CE43CCF05A34D29308F67BB7996B2D90F504B0304140006080800546847500E45B2EC53010000DD0200000C0000006662782F636F72652E786D6C8D525D6F832014FD
310
2B867715D06EB6419A75EB7EC19EF646913A52058360FAF3077EC4F9B06ED10839F79E73EF39911CEF6D130DC2F452AB12A004824828AE2BA9EA12387B8D0B101D29315ADB1F6D2052AC15250830A0A436DA7533C4B5B2420554E94ACC20EB7B6141C41B7F2941CFBF44CB12E6ACEFE86F49C7F88DD52241C9D4478973B29A
310
A9B2F26AF22A850134DBE1D3E975FF1E17F80DC639464F7181CEFB388328DF1567FFBE9C481AC89458D92ED3B911CC8A0A500C318C218EE1F307CA0E101F72F449D2D049496F8DF73C0F0DEE00BD5EEE249DF08D9EEBAABFF59C5436C3B3DEC4E801457EBDB140491AF2F1C718DE36433FD8E767D9A5592CDC3C34086EB5C9
310
7DA5D26E2D0DAC71C24BC3687C483A55BDF228F09B0E7EA0F358C307C554ED5763D65F2FCE86E9DB9D3A61E2C1DE23A54DCB9A75B969C5F5BB0EDA585AE85C37DAFC87BD585DC24CC38F49BF01504B03041400060808005468475090DC0AA907010000B201000008000000636F72652E786D6C8D50416EC32010FC0ADA3B36
310
60A775224C54B7E90B7AEA8D1AE2A0D860018EDADF1762576A6F959016CDCCEECC2E3F7E4E23BA691F8CB32DD08200D2B677CAD8A185259E7103E828B8772EFE9201B272D22D6418041FBC5BE60DEA9D8DDA66D43AA5375086A023A07E4C9F16427FD1932CE41293225C8B59F65739E88216AB4EF068A69FD6DE6B19B502C1
310
082398304C1EDF687520EC50D3775E66A5E0CB62D4666554723767A33D886AC7BAEE79FF8A1BF64270CDE8036EE8698F2B42EB5D734AEFA9E3656E163C449F76DE86A49C110579CBBEBC5C29C13F9C1B37410AA590B3E31708C2CB4CFC09BDCCEA1FA18D8D15DB06AE1D01044D81EE4432CE174CE57EDE54F3B5C537504B01
310
021400140006080800546847500000000000000000000000003700000000000000000000000000000000006662782F30374138423930412D424246422D343742382D383031332D3935343138463739333942452F617474726962757465732E62696E504B010214001400060808005468475000000000000000000000000035
310
00000000000000000000000000550000006662782F30374138423930412D424246422D343742382D383031332D3935343138463739333942452F76657274696365732E62696E504B0102140014000608080054684750F270F13306000000040000003600000000000000000000000000A80000006662782F30374138423930
310
412D424246422D343742382D383031332D3935343138463739333942452F747269616E676C65732E62696E504B010214001400060808005468475088E57597CD3F0000904100004200000000000000000000000000020100006662782F30374138423930412D424246422D343742382D383031332D39353431384637393339
310
42452F7265736F75726365732F322F305F67656E657269632E706E67504B010214001400060808005468475051464CB4890000004301000036000000000000000000000000002F4100006662782F30374138423930412D424246422D343742382D383031332D3935343138463739333942452F6469726563746F72792E786D
310
6C504B0102140014000608080054684750B9AB5F6A49070000541C000034000000000000000000000000000C4200006662782F30374138423930412D424246422D343742382D383031332D3935343138463739333942452F6F626A656374732E786D6C504B0102140014000608080054684750EEDBAFD2E000000055010000
310
3C00000000000000000000000000A74900006662782F30374138423930412D424246422D343742382D383031332D3935343138463739333942452F7265736F75726365732F322F636E782E786D6C504B0102140014000608080054684750FF15A4A45D000000800000003A00000000000000000000000000E14A0000666278
310
2F30374138423930412D424246422D343742382D383031332D3935343138463739333942452F7265736F75726365732F636E782E786D6C504B0102140014000608080054684750888852CB42010000560500003000000000000000000000000000964B00006662782F30374138423930412D424246422D343742382D383031
310
332D3935343138463739333942452F636E782E786D6C504B01021400140006080800546847505DCD279F7D000000A30000000B00000000000000000000000000264D00006662782F636E782E786D6C504B0102140014000608080054684750A6D797065F000000820000000700000000000000000000000000CC4D0000636E
310
782E786D6C504B0102140014000608080054684750ECFD112DA8000000260100001300000000000000000000000000504E00005B436F6E74656E745F54797065735D2E786D6C504B01021400140006080800546847503DEE336E64000000790000001B00000000000000000000000000294F00006175746F6465736B2D6465
310
7369676E2D7061636B6167652E786D6C504B0102140014000608080054684750C13B9C18F30000008E0100003D00000000000000000000000000C64F00006662782F30374138423930412D424246422D343742382D383031332D3935343138463739333942452F7265736F75726365732F322F636F72652E786D6C504B0102
310
140014000608080054684750DEFE225EF8000000960100003B00000000000000000000000000145100006662782F30374138423930412D424246422D343742382D383031332D3935343138463739333942452F7265736F75726365732F636F72652E786D6C504B010214001400060808005468475014552D5BF1000000B101
310
00003100000000000000000000000000655200006662782F30374138423930412D424246422D343742382D383031332D3935343138463739333942452F636F72652E786D6C504B01021400140006080800546847500E45B2EC53010000DD0200000C00000000000000000000000000A55300006662782F636F72652E786D6C
310
504B010214001400060808005468475090DC0AA907010000B2010000080000000000000000000000000022550000636F72652E786D6C504B050600000000120012002D0600004F5600000000
  0
XRECORD
  5
86E97
102
{ACAD_REACTORS
330
86E92
102
}
330
86E92
100
AcDbXrecord
280
     1
270
     1
271
     1
  0
XRECORD
  5
86E96
102
{ACAD_REACTORS
330
86E92
102
}
330
86E92
100
AcDbXrecord
280
     1
270
     1
271
     1
  0
XRECORD
  5
86E98
102
{ACAD_REACTORS
330
86E92
102
}
330
86E92
100
AcDbXrecord
280
     1
270
     1
271
     1
  0
XRECORD
  5
86E95
102
{ACAD_REACTORS
330
86E92
102
}
330
86E92
100
AcDbXrecord
280
     1
270
     1
271
     1
  0
XRECORD
  5
A72CB
102
{ACAD_REACTORS
330
A72CA
102
}
330
A72CA
100
AcDbXrecord
280
     1
102
DISPLAYNAME
  1
Imperial24
102
FLAGS
 90
        0
  0
XRECORD
  5
A72CF
102
{ACAD_REACTORS
330
A72CE
102
}
330
A72CE
100
AcDbXrecord
280
     1
102
DISPLAYNAME
  1
Metric50
102
FLAGS
 90
        0
  0
CELLSTYLEMAP
  5
A72C0
102
{ACAD_REACTORS
330
86F00
102
}
330
86F00
100
AcDbCellStyleMap
 90
        3
300
CELLSTYLE
  1
TABLEFORMAT_BEGIN
 90
        5
170
     1
 91
        0
 92
    32768
 62
   257
 93
        1
300
CONTENTFORMAT
  1
CONTENTFORMAT_BEGIN
 90
        0
 91
        0
 92
      512
 93
        0
300

 40
0.0
140
1.0
 94
        5
 62
     0
340
11
144
0.25
309
CONTENTFORMAT_END
171
     1
301
MARGIN
  1
CELLMARGIN_BEGIN
 40
0.06
 40
0.06
 40
0.06
 40
0.06
 40
0.18
 40
0.18
309
CELLMARGIN_END
 94
        6
 95
        1
302
GRIDFORMAT
  1
GRIDFORMAT_BEGIN
 90
        0
 91
        1
 62
     0
 92
       -2
340
0
 93
        0
 40
0.045
309
GRIDFORMAT_END
 95
        2
302
GRIDFORMAT
  1
GRIDFORMAT_BEGIN
 90
        0
 91
        1
 62
     0
 92
       -2
340
0
 93
        0
 40
0.045
309
GRIDFORMAT_END
 95
        4
302
GRIDFORMAT
  1
GRIDFORMAT_BEGIN
 90
        0
 91
        1
 62
     0
 92
       -2
340
0
 93
        0
 40
0.045
309
GRIDFORMAT_END
 95
        8
302
GRIDFORMAT
  1
GRIDFORMAT_BEGIN
 90
        0
 91
        1
 62
     0
 92
       -2
340
0
 93
        0
 40
0.045
309
GRIDFORMAT_END
 95
       16
302
GRIDFORMAT
  1
GRIDFORMAT_BEGIN
 90
        0
 91
        1
 62
     0
 92
       -2
340
0
 93
        0
 40
0.045
309
GRIDFORMAT_END
 95
       32
302
GRIDFORMAT
  1
GRIDFORMAT_BEGIN
 90
        0
 91
        1
 62
     0
 92
       -2
340
0
 93
        0
 40
0.045
309
GRIDFORMAT_END
309
TABLEFORMAT_END
  1
CELLSTYLE_BEGIN
 90
        1
 91
        1
300
_TITLE
309
CELLSTYLE_END
300
CELLSTYLE
  1
TABLEFORMAT_BEGIN
 90
        5
170
     1
 91
        0
 92
        0
 62
   257
 93
        1
300
CONTENTFORMAT
  1
CONTENTFORMAT_BEGIN
 90
        0
 91
        0
 92
      512
 93
        0
300

 40
0.0
140
1.0
 94
        5
 62
     0
340
11
144
0.18
309
CONTENTFORMAT_END
171
     1
301
MARGIN
  1
CELLMARGIN_BEGIN
 40
0.06
 40
0.06
 40
0.06
 40
0.06
 40
0.18
 40
0.18
309
CELLMARGIN_END
 94
        6
 95
        1
302
GRIDFORMAT
  1
GRIDFORMAT_BEGIN
 90
        0
 91
        1
 62
     0
 92
       -2
340
0
 93
        0
 40
0.045
309
GRIDFORMAT_END
 95
        2
302
GRIDFORMAT
  1
GRIDFORMAT_BEGIN
 90
        0
 91
        1
 62
     0
 92
       -2
340
0
 93
        0
 40
0.045
309
GRIDFORMAT_END
 95
        4
302
GRIDFORMAT
  1
GRIDFORMAT_BEGIN
 90
        0
 91
        1
 62
     0
 92
       -2
340
0
 93
        0
 40
0.045
309
GRIDFORMAT_END
 95
        8
302
GRIDFORMAT
  1
GRIDFORMAT_BEGIN
 90
        0
 91
        1
 62
     0
 92
       -2
340
0
 93
        0
 40
0.045
309
GRIDFORMAT_END
 95
       16
302
GRIDFORMAT
  1
GRIDFORMAT_BEGIN
 90
        0
 91
        1
 62
     0
 92
       -2
340
0
 93
        0
 40
0.045
309
GRIDFORMAT_END
 95
       32
302
GRIDFORMAT
  1
GRIDFORMAT_BEGIN
 90
        0
 91
        1
 62
     0
 92
       -2
340
0
 93
        0
 40
0.045
309
GRIDFORMAT_END
309
TABLEFORMAT_END
  1
CELLSTYLE_BEGIN
 90
        2
 91
        1
300
_HEADER
309
CELLSTYLE_END
300
CELLSTYLE
  1
TABLEFORMAT_BEGIN
 90
        5
170
     1
 91
        0
 92
        0
 62
   257
 93
        1
300
CONTENTFORMAT
  1
CONTENTFORMAT_BEGIN
 90
        0
 91
        0
 92
      512
 93
        0
300

 40
0.0
140
1.0
 94
        2
 62
     0
340
11
144
0.18
309
CONTENTFORMAT_END
171
     1
301
MARGIN
  1
CELLMARGIN_BEGIN
 40
0.06
 40
0.06
 40
0.06
 40
0.06
 40
0.18
 40
0.18
309
CELLMARGIN_END
 94
        6
 95
        1
302
GRIDFORMAT
  1
GRIDFORMAT_BEGIN
 90
        0
 91
        1
 62
     0
 92
       -2
340
0
 93
        0
 40
0.045
309
GRIDFORMAT_END
 95
        2
302
GRIDFORMAT
  1
GRIDFORMAT_BEGIN
 90
        0
 91
        1
 62
     0
 92
       -2
340
0
 93
        0
 40
0.045
309
GRIDFORMAT_END
 95
        4
302
GRIDFORMAT
  1
GRIDFORMAT_BEGIN
 90
        0
 91
        1
 62
     0
 92
       -2
340
0
 93
        0
 40
0.045
309
GRIDFORMAT_END
 95
        8
302
GRIDFORMAT
  1
GRIDFORMAT_BEGIN
 90
        0
 91
        1
 62
     0
 92
       -2
340
0
 93
        0
 40
0.045
309
GRIDFORMAT_END
 95
       16
302
GRIDFORMAT
  1
GRIDFORMAT_BEGIN
 90
        0
 91
        1
 62
     0
 92
       -2
340
0
 93
        0
 40
0.045
309
GRIDFORMAT_END
 95
       32
302
GRIDFORMAT
  1
GRIDFORMAT_BEGIN
 90
        0
 91
        1
 62
     0
 92
       -2
340
0
 93
        0
 40
0.045
309
GRIDFORMAT_END
309
TABLEFORMAT_END
  1
CELLSTYLE_BEGIN
 90
        3
 91
        2
300
_DATA
309
CELLSTYLE_END
  0
ENDSEC
  0
SECTION
  2
ACDSDATA
 70
     2
 71
     8
  0
ACDSSCHEMA
 90
        0
  1
AcDb_Thumbnail_Schema
  2
AcDbDs::ID
280
    10
 91
        8
  2
Thumbnail_Data
280
    15
 91
        0
101
ACDSRECORD
 95
        0
 90
        1
  2
AcDbDs::TreatedAsObjectData
280
     1
291
     1
101
ACDSRECORD
 95
        0
 90
        2
  2
AcDbDs::Legacy
280
     1
291
     1
101
ACDSRECORD
  1
AcDbDs::ID
 90
        3
  2
AcDs:Indexable
280
     1
291
     1
101
ACDSRECORD
  1
AcDbDs::ID
 90
        4
  2
AcDbDs::HandleAttribute
280
     7
282
     1
  0
ACDSSCHEMA
 90
        1
  1
AcDbDs::TreatedAsObjectDataSchema
  2
AcDbDs::TreatedAsObjectData
280
     1
 91
        0
  0
ACDSSCHEMA
 90
        2
  1
AcDbDs::LegacySchema
  2
AcDbDs::Legacy
280
     1
 91
        0
  0
ACDSSCHEMA
 90
        3
  1
AcDbDs::IndexedPropertySchema
  2
AcDs:Indexable
280
     1
 91
        0
  0
ACDSSCHEMA
 90
        4
  1
AcDbDs::HandleAttributeSchema
  2
AcDbDs::HandleAttribute
280
     7
 91
        1
284
     1
  0
ACDSRECORD
 90
        0
  2
AcDbDs::ID
280
    10
320
851A5
  2
Thumbnail_Data
280
    15
 94
     2509
310
89504E470D0A1A0A0000000D494844520000010000000096080300000006E4A6BE00000300504C5445212830FFFFFF2128300000000000000000000000000000000000000000000000000000330000660000990000CC0000FF0033000033330033660033990033CC0033FF0066000066330066660066990066CC0066FF0099
310
000099330099660099990099CC0099FF00CC0000CC3300CC6600CC9900CCCC00CCFF00FF0000FF3300FF6600FF9900FFCC00FFFF3300003300333300663300993300CC3300FF3333003333333333663333993333CC3333FF3366003366333366663366993366CC3366FF3399003399333399663399993399CC3399FF33CC00
310
33CC3333CC6633CC9933CCCC33CCFF33FF0033FF3333FF6633FF9933FFCC33FFFF6600006600336600666600996600CC6600FF6633006633336633666633996633CC6633FF6666006666336666666666996666CC6666FF6699006699336699666699996699CC6699FF66CC0066CC3366CC6666CC9966CCCC66CCFF66FF0066
310
FF3366FF6666FF9966FFCC66FFFF9900009900339900669900999900CC9900FF9933009933339933669933999933CC9933FF9966009966339966669966999966CC9966FF9999009999339999669999999999CC9999FF99CC0099CC3399CC6699CC9999CCCC99CCFF99FF0099FF3399FF6699FF9999FFCC99FFFFCC0000CC00
310
33CC0066CC0099CC00CCCC00FFCC3300CC3333CC3366CC3399CC33CCCC33FFCC6600CC6633CC6666CC6699CC66CCCC66FFCC9900CC9933CC9966CC9999CC99CCCC99FFCCCC00CCCC33CCCC66CCCC99CCCCCCCCCCFFCCFF00CCFF33CCFF66CCFF99CCFFCCCCFFFFFF0000FF0033FF0066FF0099FF00CCFF00FFFF3300FF3333
310
FF3366FF3399FF33CCFF33FFFF6600FF6633FF6666FF6699FF66CCFF66FFFF9900FF9933FF9966FF9999FF99CCFF99FFFFCC00FFCC33FFCC66FFCC99FFCCCCFFCCFFFFFF00FFFF33FFFF66FFFF99FFFFCCFFFFFF0000000D0D0D1A1A1A2828283535354343435050505D5D5D6B6B6B787878868686939393A1A1A1AEAEAEBB
310
BBBBC9C9C9D6D6D6E4E4E4F1F1F1FFFFFF0000000000000000000000000000000000000000000000000000000000002E4550F1000005094944415478DAED9D4992EB200C8675035F838DEE5F954536DEE954ED81C9061B30B883003A951762C72FFAF24B8C068091D8A60F7CD6C7F2243332C957FA1400996B13007C744612
310
59DF916F6FAFDA05F0D9011C7E78D014D4BBA071B4084089DDE2008777ADDC4823D59910D707A8E7F5C5F6B7E4B11300286D46044542C2E803804480CA6EF3A21F009BD5B62F74A500D40C540CD06944C891FA0802B20CECBA1ED035005913E85801D0B7FDD7A99710D87B1130000CFB07800160D83F000C00C3FE0160D83F
310
00349B8880D6A7CE0100F56BBF4C2D03A06417C0F8CF73FA919FA7961510510610740600610018007A068030000C003D03401800BA06804F3E5F7975919C7A315C7F5F2F80B07DC445015BC3F70180508B4A5F90EA06B0FFFC009706A1F7F39E2E13F7947A3DE1AC80B3A4290C80EE35404A27502380A4E62EDE7D3EE40214
310
72954A4B817BFBF5710A5D6187D027001D5B883700844C05707781C700A4ED044C14A0E63FEF73E0F201EC76337201FB4600EB38C2631720750A130088FA068822006421C905809A017B7681C700AC337900002F00844C001CAAC207199C8E3F0740A642CC08009C002040660C60A6809200A2FB0DEA01A0EE852A02C098CF
310
4B01681F47C875016E55613C1ECF01A01A82048C1B43790A00F6AD41846C00B1D5A506015807B90240C853007157402600D3CD3C14C0130002E4C580CBFF8C2A032066E11C9F5D00CB69542A550140592DD6140620443183E91F541D94B808A4A5517077B8421748FD516C73C007E0FC8E3C695AFEAA0490AA00DBB9953B08
310
ED18B3732BB0802554C813B4CFB00570707A63B6499353061CCFAA1D406E949E7042D600F215008C151051D20601CC8C01C4CC49681A40CC9C842000E0AC00E8D0056CB7A70231E03B7FBFF700F62BA40378A929E05C56F6E8ECBDDC72B80BC1F9052F007C170504004C9355234E01F0CE48917F969F1AE9F3ACF31200B028
310
E04CE00C00B62A713D0AF071456BC81BED4EBE7916B3496B255767607BD8599917EB4367C5B46685986B01E013965EF3C9AC00585201E7CBD415034C0830D35E120044C400279656E8020E90580011A5C00A6012F000C05B23456997CDAE074CD10EF02FA54072F5A20400211E7EB336002CA96500C1B6407425A05505E47C
310
B3016000F83D00BA300DD3FA031803F0768B5BAD050F006B044D5408E0E9C0C8B43DF478883D14325D8F0C41032E60ECDCDAF6D396707BF6594BD58F0D26D312A64C07C5432AC07601D5FB2510DB1A1DF666AE63C0D28879BA746EEDF303E2BED0DA8A2B0400EA0580780B207D39251E53651300A42EABDE1E800722E0E302
310
B74B849B9E9C7411B051C0DDBAF9765716A659CFC80520C2059208102F05848A418809165C8B41FBBE415F2838F7E662AC0B7051800220771282108058025C148087BDC36200F0DE69C5057018488D02C07A99CDDC20C85E048500F0154131005C099403C0D40D0A02E02982A200388AA02C008622280D801D81E200B8B941
310
7900CC449001E09A042711E40100FE05E27300F72D7C3C4902D53FAA89A977ECFDF10E85AFB880E3066A8EF20180D5EFC00940FCE01E1E2560ED558E4A14083FDFB9F58D52C025606C467BB1B61A36E94C0790D0B3C5A13478150087D2E065004A042AFED5B753F1DB00A40854F4AF6F57DEF701A812105467737700B4FA11
310
B04B05C0FD3ED53F2E08FF0740C7A5000B00BA56EBCCE2F22F9EDF1A00739335F90EBA15FEF6142057BEF628C0BB0C60830048ED2EE1B67BBA01E01BBF9731A065007DEE31D84031F807ADA5B845A0E53EF00000000049454E44AE426082CF458CF500A44CA176C0098AF3CC7900C002308FE4A8AA01970008CC0F84E89880
310
3BE730FB50310A5E0380C09D33C15102A6015AF18D21B498817937072BD480C05482E89A8091D6A6D6E394C482BB8BD6769988DAF0B91B181EC07E4E3BA3911FED1308EC63694607B09BD2CE60B4DE3E8BAA2100A80FC09801C63BCEF5BC606D005AD85E26DF6F000010803D8C0DDA3E89A2050060B94F7305C8BC73347C13
310
697CB1BEBD544A04DB3E8B82F2D629D500BCCBB4FBE500F0D900C67EF2C20FC0295100C7153C0E80EE0680CF854B3200F266C3A2A4BBC0711C006E515706C067D8BD1D005B318A6A4026807108986E520400034140702B001B61624E9072F2CA810838752D198054FBDA07B0CDFCBB7C3EA3AD195308802D7FEEDC81EE1270
310
EECB638FA6EEEDF99CCE3D7C010D10EABF89007C0D80CB3A82FF0153352F9E4320F36A0000000049454E44AE4260827CAC6C62E9759EFC21ACE83C9EB84B0FF8C2759E986CF74D857FD3FE01D86ECB8C20E385B80000000049454E44AE426082
  0
ENDSEC
  0
EOF
