  0
SECTION
  2
HEADER
  9
$ACADVER
  1
AC1018
  9
$ACADMAINTVER
 70
   104
  9
$DWGCODEPAGE
  3
ANSI_932
  9
$LASTSAVEDBY
  1
DELL3-1
  9
$INSBASE
 10
0.0
 20
0.0
 30
0.0
  9
$EXTMIN
 10
-966.9562498654849
 20
-574.343400056021
 30
-0.0015258207003583
  9
$EXTMAX
 10
1300.937041806057
 20
844.6325760061027
 30
0.0000000349246037
  9
$LIMMIN
 10
-1244.432345200777
 20
-821.1555989102162
  9
$LIMMAX
 10
1670.712399574501
 20
1299.33259219065
  9
$ORTHOMODE
 70
     0
  9
$REGENMODE
 70
     1
  9
$FILLMODE
 70
     1
  9
$QTEXTMODE
 70
     0
  9
$MIRRTEXT
 70
     0
  9
$LTSCALE
 40
20.0
  9
$ATTMODE
 70
     1
  9
$TEXTSIZE
 40
64.0
  9
$TRACEWID
 40
0.05
  9
$TEXTSTYLE
  7
STANDARD
  9
$CLAYER
  8
DETAIL
  9
$CELTYPE
  6
CONTINUOUS
  9
$CECOLOR
 62
     3
  9
$CELTSCALE
 40
1.0
  9
$DISPSILH
 70
     0
  9
$DIMSCALE
 40
1.0
  9
$DIMASZ
 40
10.0
  9
$DIMEXO
 40
20.0
  9
$DIMDLI
 40
200.0
  9
$DIMRND
 40
0.0
  9
$DIMDLE
 40
0.0
  9
$DIMEXE
 40
30.0
  9
$DIMTP
 40
0.0
  9
$DIMTM
 40
0.0
  9
$DIMTXT
 40
64.0
  9
$DIMCEN
 40
0.09
  9
$DIMTSZ
 40
0.0
  9
$DIMTOL
 70
     0
  9
$DIMLIM
 70
     0
  9
$DIMTIH
 70
     0
  9
$DIMTOH
 70
     0
  9
$DIMSE1
 70
     0
  9
$DIMSE2
 70
     0
  9
$DIMTAD
 70
     1
  9
$DIMZIN
 70
     8
  9
$DIMBLK
  1
ORIGIN
  9
$DIMASO
 70
     1
  9
$DIMSHO
 70
     0
  9
$DIMPOST
  1

  9
$DIMAPOST
  1

  9
$DIMALT
 70
     0
  9
$DIMALTD
 70
     2
  9
$DIMALTF
 40
25.4
  9
$DIMLFAC
 40
1.0
  9
$DIMTOFL
 70
     1
  9
$DIMTVP
 40
0.0
  9
$DIMTIX
 70
     0
  9
$DIMSOXD
 70
     0
  9
$DIMSAH
 70
     0
  9
$DIMBLK1
  1

  9
$DIMBLK2
  1

  9
$DIMSTYLE
  2
STANDARD2
  9
$DIMCLRD
 70
     0
  9
$DIMCLRE
 70
     0
  9
$DIMCLRT
 70
     0
  9
$DIMTFAC
 40
1.0
  9
$DIMGAP
 40
20.0
  9
$DIMJUST
 70
     0
  9
$DIMSD1
 70
     0
  9
$DIMSD2
 70
     0
  9
$DIMTOLJ
 70
     1
  9
$DIMTZIN
 70
     0
  9
$DIMALTZ
 70
     0
  9
$DIMALTTZ
 70
     0
  9
$DIMUPT
 70
     0
  9
$DIMDEC
 70
     1
  9
$DIMTDEC
 70
     1
  9
$DIMALTU
 70
     2
  9
$DIMALTTD
 70
     2
  9
$DIMTXSTY
  7
STANDARD
  9
$DIMAUNIT
 70
     0
  9
$DIMADEC
 70
     0
  9
$DIMALTRND
 40
0.0
  9
$DIMAZIN
 70
     0
  9
$DIMDSEP
 70
    46
  9
$DIMATFIT
 70
     3
  9
$DIMFRAC
 70
     0
  9
$DIMLDRBLK
  1
ORIGIN
  9
$DIMLUNIT
 70
     2
  9
$DIMLWD
 70
    -2
  9
$DIMLWE
 70
    -2
  9
$DIMTMOVE
 70
     0
  9
$LUNITS
 70
     2
  9
$LUPREC
 70
     4
  9
$SKETCHINC
 40
0.1
  9
$FILLETRAD
 40
3.0
  9
$AUNITS
 70
     1
  9
$AUPREC
 70
     3
  9
$MENU
  1
ACAD
  9
$ELEVATION
 40
0.0
  9
$PELEVATION
 40
0.0
  9
$THICKNESS
 40
0.0
  9
$LIMCHECK
 70
     0
  9
$CHAMFERA
 40
0.0
  9
$CHAMFERB
 40
0.0
  9
$CHAMFERC
 40
0.0
  9
$CHAMFERD
 40
0.0
  9
$SKPOLY
 70
     0
  9
$TDCREATE
 40
2450330.393205995
  9
$TDUCREATE
 40
2450330.018205995
  9
$TDUPDATE
 40
2458166.748542813
  9
$TDUUPDATE
 40
2458166.373542813
  9
$TDINDWG
 40
1.1898634606
  9
$TDUSRTIMER
 40
1.1898631366
  9
$USRTIMER
 70
     1
  9
$ANGBASE
 50
0.0
  9
$ANGDIR
 70
     0
  9
$PDMODE
 70
     3
  9
$PDSIZE
 40
-2.0
  9
$PLINEWID
 40
0.0
  9
$SPLFRAME
 70
     0
  9
$SPLINETYPE
 70
     6
  9
$SPLINESEGS
 70
     8
  9
$HANDSEED
  5
ACD5
  9
$SURFTAB1
 70
     6
  9
$SURFTAB2
 70
     6
  9
$SURFTYPE
 70
     6
  9
$SURFU
 70
     6
  9
$SURFV
 70
     6
  9
$UCSBASE
  2

  9
$UCSNAME
  2

  9
$UCSORG
 10
0.0
 20
0.0
 30
0.0
  9
$UCSXDIR
 10
1.0
 20
0.0
 30
0.0
  9
$UCSYDIR
 10
0.0
 20
1.0
 30
0.0
  9
$UCSORTHOREF
  2

  9
$UCSORTHOVIEW
 70
     0
  9
$UCSORGTOP
 10
0.0
 20
0.0
 30
0.0
  9
$UCSORGBOTTOM
 10
0.0
 20
0.0
 30
0.0
  9
$UCSORGLEFT
 10
0.0
 20
0.0
 30
0.0
  9
$UCSORGRIGHT
 10
0.0
 20
0.0
 30
0.0
  9
$UCSORGFRONT
 10
0.0
 20
0.0
 30
0.0
  9
$UCSORGBACK
 10
0.0
 20
0.0
 30
0.0
  9
$PUCSBASE
  2

  9
$PUCSNAME
  2

  9
$PUCSORG
 10
0.0
 20
0.0
 30
0.0
  9
$PUCSXDIR
 10
1.0
 20
0.0
 30
0.0
  9
$PUCSYDIR
 10
0.0
 20
1.0
 30
0.0
  9
$PUCSORTHOREF
  2

  9
$PUCSORTHOVIEW
 70
     0
  9
$PUCSORGTOP
 10
0.0
 20
0.0
 30
0.0
  9
$PUCSORGBOTTOM
 10
0.0
 20
0.0
 30
0.0
  9
$PUCSORGLEFT
 10
0.0
 20
0.0
 30
0.0
  9
$PUCSORGRIGHT
 10
0.0
 20
0.0
 30
0.0
  9
$PUCSORGFRONT
 10
0.0
 20
0.0
 30
0.0
  9
$PUCSORGBACK
 10
0.0
 20
0.0
 30
0.0
  9
$USERI1
 70
     0
  9
$USERI2
 70
     0
  9
$USERI3
 70
     0
  9
$USERI4
 70
     0
  9
$USERI5
 70
     0
  9
$USERR1
 40
20.0
  9
$USERR2
 40
0.0
  9
$USERR3
 40
0.0
  9
$USERR4
 40
0.0
  9
$USERR5
 40
0.0
  9
$WORLDVIEW
 70
     1
  9
$SHADEDGE
 70
     3
  9
$SHADEDIF
 70
    70
  9
$TILEMODE
 70
     1
  9
$MAXACTVP
 70
    64
  9
$PINSBASE
 10
0.0
 20
0.0
 30
0.0
  9
$PLIMCHECK
 70
     0
  9
$PEXTMIN
 10
1.000000000000000E+20
 20
1.000000000000000E+20
 30
1.000000000000000E+20
  9
$PEXTMAX
 10
-1.000000000000000E+20
 20
-1.000000000000000E+20
 30
-1.000000000000000E+20
  9
$PLIMMIN
 10
0.0
 20
0.0
  9
$PLIMMAX
 10
12.0
 20
9.0
  9
$UNITMODE
 70
     0
  9
$VISRETAIN
 70
     1
  9
$PLINEGEN
 70
     0
  9
$PSLTSCALE
 70
     1
  9
$TREEDEPTH
 70
  3020
  9
$CMLSTYLE
  2
STANDARD
  9
$CMLJUST
 70
     0
  9
$CMLSCALE
 40
1.0
  9
$PROXYGRAPHICS
 70
     1
  9
$MEASUREMENT
 70
     0
  9
$CELWEIGHT
370
    -1
  9
$ENDCAPS
280
     0
  9
$JOINSTYLE
280
     0
  9
$LWDISPLAY
290
     0
  9
$INSUNITS
 70
     0
  9
$HYPERLINKBASE
  1

  9
$STYLESHEET
  1
monochrome.ctb
  9
$XEDIT
290
     1
  9
$CEPSNTYPE
380
     0
  9
$PSTYLEMODE
290
     1
  9
$FINGERPRINTGUID
  2
{C814BBB0-13E5-4952-A5F4-981BF75BEF75}
  9
$VERSIONGUID
  2
{D7C27D6B-919A-459F-A097-37815483303A}
  9
$EXTNAMES
290
     1
  9
$PSVPSCALE
 40
0.0
  9
$OLESTARTUP
290
     0
  9
$SORTENTS
280
   127
  9
$INDEXCTL
280
     0
  9
$HIDETEXT
280
     0
  9
$XCLIPFRAME
290
     0
  9
$HALOGAP
280
     0
  9
$OBSCOLOR
 70
   257
  9
$OBSLTYPE
280
     0
  9
$INTERSECTIONDISPLAY
280
     0
  9
$INTERSECTIONCOLOR
 70
   257
  9
$DIMASSOC
280
     1
  9
$PROJECTNAME
  1

  0
ENDSEC
  0
SECTION
  2
CLASSES
  0
CLASS
  1
ACDBDICTIONARYWDFLT
  2
AcDbDictionaryWithDefault
  3
ObjectDBX Classes
 90
        0
 91
        1
280
     0
281
     0
  0
CLASS
  1
MATERIAL
  2
AcDbMaterial
  3
ObjectDBX Classes
 90
     1153
 91
        3
280
     0
281
     0
  0
CLASS
  1
VISUALSTYLE
  2
AcDbVisualStyle
  3
ObjectDBX Classes
 90
     4095
 91
       24
280
     0
281
     0
  0
CLASS
  1
TABLESTYLE
  2
AcDbTableStyle
  3
ObjectDBX Classes
 90
     4095
 91
        1
280
     0
281
     0
  0
CLASS
  1
SCALE
  2
AcDbScale
  3
ObjectDBX Classes
 90
     1153
 91
       17
280
     0
281
     0
  0
CLASS
  1
MLEADERSTYLE
  2
AcDbMLeaderStyle
  3
ACDB_MLEADERSTYLE_CLASS
 90
     4095
 91
        1
280
     0
281
     0
  0
CLASS
  1
ACDBSECTIONVIEWSTYLE
  2
AcDbSectionViewStyle
  3
ObjectDBX Classes
 90
     1025
 91
        1
280
     0
281
     0
  0
CLASS
  1
ACDBDETAILVIEWSTYLE
  2
AcDbDetailViewStyle
  3
ObjectDBX Classes
 90
     1025
 91
        1
280
     0
281
     0
  0
CLASS
  1
DICTIONARYVAR
  2
AcDbDictionaryVar
  3
ObjectDBX Classes
 90
        0
 91
        7
280
     0
281
     0
  0
CLASS
  1
CELLSTYLEMAP
  2
AcDbCellStyleMap
  3
ObjectDBX Classes
 90
     1152
 91
        2
280
     0
281
     0
  0
ENDSEC
  0
SECTION
  2
TABLES
  0
TABLE
  2
VPORT
  5
8
330
0
100
AcDbSymbolTable
 70
     1
  0
VPORT
  5
AB08
330
8
100
AcDbSymbolTableRecord
100
AcDbViewportTableRecord
  2
*ACTIVE
 70
     0
 10
0.0
 20
0.0
 11
1.0
 21
1.0
 12
166.990395970286
 22
135.1445879750408
 13
0.0
 23
0.0
 14
50.0
 24
50.0
 15
100.0
 25
100.0
 16
0.0
 26
0.0
 36
1.0
 17
0.0
 27
0.0
 37
0.0
 40
1460.784323439298
 41
1.560747663551401
 42
50.0
 43
0.0
 44
0.0
 50
0.0
 51
0.0
 71
     0
 72
   500
 73
     1
 74
     0
 75
     0
 76
     0
 77
     0
 78
     0
281
     0
 65
     1
110
0.0
120
0.0
130
0.0
111
1.0
121
0.0
131
0.0
112
0.0
122
1.0
132
0.0
 79
     0
146
0.0
1001
ACAD_NAV_VCDISPLAY
1070
     3
  0
ENDTAB
  0
TABLE
  2
LTYPE
  5
5
330
0
100
AcDbSymbolTable
 70
     2
  0
LTYPE
  5
13
330
5
100
AcDbSymbolTableRecord
100
AcDbLinetypeTableRecord
  2
BYBLOCK
 70
     0
  3

 72
    65
 73
     0
 40
0.0
  0
LTYPE
  5
14
330
5
100
AcDbSymbolTableRecord
100
AcDbLinetypeTableRecord
  2
BYLAYER
 70
     0
  3

 72
    65
 73
     0
 40
0.0
  0
LTYPE
  5
15
330
5
100
AcDbSymbolTableRecord
100
AcDbLinetypeTableRecord
  2
CONTINUOUS
 70
     0
  3
実線
 72
    65
 73
     0
 40
0.0
  0
LTYPE
  5
23
330
5
100
AcDbSymbolTableRecord
100
AcDbLinetypeTableRecord
  2
DASHDOT
 70
     0
  3
____ _ ____ _ ____ _ ____ _ ____ _ ____ _ ____
 72
    65
 73
     4
 40
5.5
 49
4.0
 74
     0
 49
-0.6
 74
     0
 49
0.3
 74
     0
 49
-0.6
 74
     0
  0
ENDTAB
  0
TABLE
  2
LAYER
  5
2
330
0
100
AcDbSymbolTable
 70
    11
  0
LAYER
  5
10
102
{ACAD_XDICTIONARY
360
AB83
102
}
330
2
100
AcDbSymbolTableRecord
100
AcDbLayerTableRecord
  2
0
 70
     0
 62
     7
  6
CONTINUOUS
370
    -3
390
F
  0
LAYER
  5
22
102
{ACAD_XDICTIONARY
360
AB85
102
}
330
2
100
AcDbSymbolTableRecord
100
AcDbLayerTableRecord
  2
DETAIL
 70
     0
 62
     5
  6
CONTINUOUS
370
    -3
390
F
  0
LAYER
  5
31
102
{ACAD_XDICTIONARY
360
AB87
102
}
330
2
100
AcDbSymbolTableRecord
100
AcDbLayerTableRecord
  2
OUTLINE
 70
     0
 62
     3
  6
CONTINUOUS
370
    -3
390
F
  0
LAYER
  5
32
102
{ACAD_XDICTIONARY
360
AB89
102
}
330
2
100
AcDbSymbolTableRecord
100
AcDbLayerTableRecord
  2
BASIS
 70
     0
 62
     6
  6
CONTINUOUS
370
    -3
390
F
  0
LAYER
  5
33
102
{ACAD_XDICTIONARY
360
AB8B
102
}
330
2
100
AcDbSymbolTableRecord
100
AcDbLayerTableRecord
  2
SIZE
 70
     0
 62
    32
  6
CONTINUOUS
370
    -3
390
F
  0
LAYER
  5
34
102
{ACAD_XDICTIONARY
360
AB8D
102
}
330
2
100
AcDbSymbolTableRecord
100
AcDbLayerTableRecord
  2
NOTE
 70
     0
 62
     4
  6
CONTINUOUS
370
    -3
390
F
  0
LAYER
  5
35
102
{ACAD_XDICTIONARY
360
AB8F
102
}
330
2
100
AcDbSymbolTableRecord
100
AcDbLayerTableRecord
  2
ARRANGE
 70
     0
 62
     1
  6
CONTINUOUS
370
    -3
390
F
  0
LAYER
  5
36
102
{ACAD_XDICTIONARY
360
AB91
102
}
330
2
100
AcDbSymbolTableRecord
100
AcDbLayerTableRecord
  2
FIX
 70
     0
 62
   241
  6
CONTINUOUS
370
    -3
390
F
  0
LAYER
  5
37
102
{ACAD_XDICTIONARY
360
AB93
102
}
330
2
100
AcDbSymbolTableRecord
100
AcDbLayerTableRecord
  2
ETC
 70
     0
 62
    83
  6
CONTINUOUS
370
    -3
390
F
  0
LAYER
  5
3A
330
2
100
AcDbSymbolTableRecord
100
AcDbLayerTableRecord
  2
DEFPOINTS
 70
     0
 62
     7
  6
CONTINUOUS
290
     0
370
    -3
390
F
  0
LAYER
  5
3B
102
{ACAD_XDICTIONARY
360
AB95
102
}
330
2
100
AcDbSymbolTableRecord
100
AcDbLayerTableRecord
  2
SERVICE_SPACE
 70
     0
 62
     2
  6
CONTINUOUS
370
    -3
390
F
  0
ENDTAB
  0
TABLE
  2
STYLE
  5
3
330
0
100
AcDbSymbolTable
 70
     4
  0
STYLE
  5
11
330
3
100
AcDbSymbolTableRecord
100
AcDbTextStyleTableRecord
  2
STANDARD
 70
     0
 40
0.0
 41
0.9
 50
0.0
 71
     0
 42
64.0
  3
SIMPLEX
  4
BIGFONT
  0
STYLE
  5
15B1
330
3
100
AcDbSymbolTableRecord
100
AcDbTextStyleTableRecord
  2
STANDARD1
 70
     0
 40
0.0
 41
1.0
 50
0.0
 71
     0
 42
64.0
  3
MONOTXT
  4
BIGFONT
  0
STYLE
  5
15B2
330
3
100
AcDbSymbolTableRecord
100
AcDbTextStyleTableRecord
  2
ZU_SHPTB00001
 70
     0
 40
0.0
 41
1.0
 50
0.0
 71
     0
 42
0.0
  3
monotxt
  4
bigfont
  0
ENDTAB
  0
TABLE
  2
VIEW
  5
6
330
0
100
AcDbSymbolTable
 70
     1
  0
VIEW
  5
3C
330
6
100
AcDbSymbolTableRecord
100
AcDbViewTableRecord
  2
ALL
 70
     0
 40
4282.62
 10
0.0
 20
41.30990399999999
 41
5940.0
 11
0.0
 21
0.0
 31
1.0
 12
0.0
 22
0.0
 32
0.0
 42
50.0
 43
0.0
 44
0.0
 50
0.0
 71
     0
281
     0
 72
     0
  0
ENDTAB
  0
TABLE
  2
UCS
  5
7
330
0
100
AcDbSymbolTable
 70
     0
  0
ENDTAB
  0
TABLE
  2
APPID
  5
9
330
0
100
AcDbSymbolTable
 70
     5
  0
APPID
  5
12
330
9
100
AcDbSymbolTableRecord
100
AcDbRegAppTableRecord
  2
ACAD
 70
     0
  0
APPID
  5
AB81
330
9
100
AcDbSymbolTableRecord
100
AcDbRegAppTableRecord
  2
ACAD_EXEMPT_FROM_CAD_STANDARDS
 70
     0
  0
APPID
  5
AB97
330
9
100
AcDbSymbolTableRecord
100
AcDbRegAppTableRecord
  2
ACAD_NAV_VCDISPLAY
 70
     0
  0
APPID
  5
ABE5
330
9
100
AcDbSymbolTableRecord
100
AcDbRegAppTableRecord
  2
ACAD_MLEADERVER
 70
     0
  0
APPID
  5
AC92
330
9
100
AcDbSymbolTableRecord
100
AcDbRegAppTableRecord
  2
ACAD_PSEXT
 70
     0
  0
ENDTAB
  0
TABLE
  2
DIMSTYLE
  5
A
330
0
100
AcDbSymbolTable
 70
     3
100
AcDbDimStyleTable
 71
     1
340
A7AF
  0
DIMSTYLE
105
B8
102
{ACAD_REACTORS
330
AC41
102
}
330
A
100
AcDbSymbolTableRecord
100
AcDbDimStyleTableRecord
  2
STANDARD
 70
     0
340
11
  0
DIMSTYLE
105
A7AF
330
A
100
AcDbSymbolTableRecord
100
AcDbDimStyleTableRecord
  2
STANDARD2
 70
     0
 41
10.0
 42
20.0
 43
200.0
 44
30.0
 73
     0
 74
     0
 77
     1
 78
     8
140
64.0
147
20.0
172
     1
271
     1
272
     1
340
11
341
530
342
530
  0
ENDTAB
  0
TABLE
  2
BLOCK_RECORD
  5
1
330
0
100
AcDbSymbolTable
 70
     5
  0
BLOCK_RECORD
  5
1E
102
{ACAD_XDICTIONARY
360
A792
102
}
330
1
100
AcDbSymbolTableRecord
100
AcDbBlockTableRecord
  2
*MODEL_SPACE
340
AB7D
  0
BLOCK_RECORD
  5
1A
102
{ACAD_XDICTIONARY
360
A790
102
}
330
1
100
AcDbSymbolTableRecord
100
AcDbBlockTableRecord
  2
*PAPER_SPACE
340
AB7E
  0
BLOCK_RECORD
  5
530
330
1
100
AcDbSymbolTableRecord
100
AcDbBlockTableRecord
  2
_ORIGIN
340
0
102
{BLKREFS
331
AC8C
331
AC8D
331
AC34
331
AC35
102
}
  0
BLOCK_RECORD
  5
AC2D
330
1
100
AcDbSymbolTableRecord
100
AcDbBlockTableRecord
  2
*D1
340
0
  0
BLOCK_RECORD
  5
AC42
330
1
100
AcDbSymbolTableRecord
100
AcDbBlockTableRecord
  2
*D3
340
0
  0
ENDTAB
  0
ENDSEC
  0
SECTION
  2
BLOCKS
  0
BLOCK
  5
1F
330
1E
100
AcDbEntity
  8
0
100
AcDbBlockBegin
  2
*MODEL_SPACE
 70
     0
 10
0.0
 20
0.0
 30
0.0
  3
*MODEL_SPACE
  1

  0
ENDBLK
  5
20
330
1E
100
AcDbEntity
  8
0
100
AcDbBlockEnd
  0
BLOCK
  5
1B
330
1A
100
AcDbEntity
 67
     1
  8
0
100
AcDbBlockBegin
  2
*PAPER_SPACE
 70
     0
 10
0.0
 20
0.0
 30
0.0
  3
*PAPER_SPACE
  1

  0
ENDBLK
  5
1C
330
1A
100
AcDbEntity
 67
     1
  8
0
100
AcDbBlockEnd
  0
BLOCK
  5
533
330
530
100
AcDbEntity
  8
0
100
AcDbBlockBegin
  2
_ORIGIN
 70
     0
 10
0.0
 20
0.0
 30
0.0
  3
_ORIGIN
  1

  0
CIRCLE
  5
531
330
530
100
AcDbEntity
  8
0
  6
ByBlock
 62
     0
100
AcDbCircle
 10
0.0
 20
0.0
 30
0.0
 40
0.5
  0
LINE
  5
532
330
530
100
AcDbEntity
  8
0
  6
ByBlock
 62
     0
100
AcDbLine
 10
0.0
 20
0.0
 30
0.0
 11
-1.0
 21
0.0
 31
0.0
  0
ENDBLK
  5
534
330
530
100
AcDbEntity
  8
0
100
AcDbBlockEnd
  0
BLOCK
  5
AC2E
330
AC2D
100
AcDbEntity
  8
0
100
AcDbBlockBegin
  2
*D1
 70
     1
 10
0.0
 20
0.0
 30
0.0
  3
*D1
  1

  0
LINE
  5
AC2F
330
AC2D
100
AcDbEntity
  8
SIZE
  6
Continuous
 62
     0
440
 16777216
370
    -2
100
AcDbLine
 10
-467.0
 20
251.1000199999998
 30
0.0
 11
-660.9692330492489
 21
251.1000199999998
 31
0.0
  0
LINE
  5
AC30
330
AC2D
100
AcDbEntity
  8
SIZE
  6
Continuous
 62
     0
440
 16777216
370
    -2
100
AcDbLine
 10
-467.0
 20
200.1000199999998
 30
0.0
 11
-660.9692330492489
 21
200.1000199999999
 31
0.0
  0
LINE
  5
AC31
330
AC2D
100
AcDbEntity
  8
SIZE
  6
Continuous
 62
     0
440
 16777216
370
    -2
100
AcDbLine
 10
-630.9692330492488
 20
261.1000199999998
 30
0.0
 11
-630.9692330492488
 21
271.1000199999999
 31
0.0
  0
LINE
  5
AC32
330
AC2D
100
AcDbEntity
  8
SIZE
  6
Continuous
 62
     0
440
 16777216
370
    -2
100
AcDbLine
 10
-630.9692330492489
 20
190.1000199999998
 30
0.0
 11
-630.9692330492489
 21
71.5285914285713
 31
0.0
  0
LINE
  5
AC33
330
AC2D
100
AcDbEntity
  8
SIZE
  6
Continuous
 62
     0
440
 16777216
370
    -2
100
AcDbLine
 10
-630.9692330492489
 20
251.1000199999998
 30
0.0
 11
-630.9692330492489
 21
200.1000199999999
 31
0.0
  0
INSERT
  5
AC34
330
AC2D
100
AcDbEntity
  8
SIZE
  6
Continuous
 62
     0
440
 16777216
370
    -2
100
AcDbBlockReference
  2
_ORIGIN
 10
-630.9692330492489
 20
251.1000199999998
 30
0.0
 41
10.0
 42
10.0
 43
10.0
 50
270.0
  0
INSERT
  5
AC35
330
AC2D
100
AcDbEntity
  8
SIZE
  6
Continuous
 62
     0
440
 16777216
370
    -2
100
AcDbBlockReference
  2
_ORIGIN
 10
-630.9692330492489
 20
200.1000199999999
 30
0.0
 41
10.0
 42
10.0
 43
10.0
 50
90.0
  0
MTEXT
  5
AC36
330
AC2D
100
AcDbEntity
  8
SIZE
  6
Continuous
 62
     0
440
 16777216
100
AcDbMText
 10
-682.9692330492489
 20
125.8143057142855
 30
0.0
 40
64.0
 41
0.0
 71
     5
 72
     1
  1
\A1;51
 11
0.0000000000000001
 21
1.0
 31
0.0
 73
     1
 44
1.0
  0
POINT
  5
AC37
330
AC2D
100
AcDbEntity
  8
DEFPOINTS
  6
Continuous
 62
     0
440
 16777216
100
AcDbPoint
 10
-447.0
 20
251.1000199999998
 30
0.0
  0
POINT
  5
AC38
330
AC2D
100
AcDbEntity
  8
DEFPOINTS
  6
Continuous
 62
     0
440
 16777216
100
AcDbPoint
 10
-447.0
 20
200.1000199999998
 30
0.0
  0
POINT
  5
AC39
330
AC2D
100
AcDbEntity
  8
DEFPOINTS
  6
Continuous
 62
     0
440
 16777216
100
AcDbPoint
 10
-630.9692330492489
 20
200.1000199999999
 30
0.0
  0
ENDBLK
  5
AC3A
330
AC2D
100
AcDbEntity
  8
0
100
AcDbBlockEnd
  0
BLOCK
  5
AC43
330
AC42
100
AcDbEntity
  8
0
 62
     3
100
AcDbBlockBegin
  2
*D3
 70
     1
 10
0.0
 20
0.0
 30
0.0
  3
*D3
  1

  0
LINE
  5
AC87
330
AC42
100
AcDbEntity
  8
SIZE
  6
Continuous
 62
     0
440
 16777216
370
    -2
100
AcDbLine
 10
-67.89999999999962
 20
200.1000000000002
 30
0.0
 11
-257.1892889002856
 21
200.1000000000002
 31
0.0
  0
LINE
  5
AC88
330
AC42
100
AcDbEntity
  8
SIZE
  6
Continuous
 62
     0
440
 16777216
370
    -2
100
AcDbLine
 10
-67.89999999999962
 20
251.0999999999993
 30
0.0
 11
-257.1892889002856
 21
251.0999999999994
 31
0.0
  0
LINE
  5
AC89
330
AC42
100
AcDbEntity
  8
SIZE
  6
Continuous
 62
     0
440
 16777216
370
    -2
100
AcDbLine
 10
-227.1892889002856
 20
261.0999999999994
 30
0.0
 11
-227.1892889002856
 21
271.0999999999994
 31
0.0
  0
LINE
  5
AC8A
330
AC42
100
AcDbEntity
  8
SIZE
  6
Continuous
 62
     0
440
 16777216
370
    -2
100
AcDbLine
 10
-227.1892889002856
 20
190.1000000000002
 30
0.0
 11
-227.1892889002856
 21
71.52857142857169
 31
0.0
  0
LINE
  5
AC8B
330
AC42
100
AcDbEntity
  8
SIZE
  6
Continuous
 62
     0
440
 16777216
370
    -2
100
AcDbLine
 10
-227.1892889002856
 20
251.0999999999994
 30
0.0
 11
-227.1892889002856
 21
200.1000000000002
 31
0.0
  0
INSERT
  5
AC8C
330
AC42
100
AcDbEntity
  8
SIZE
  6
Continuous
 62
     0
440
 16777216
370
    -2
100
AcDbBlockReference
  2
_ORIGIN
 10
-227.1892889002856
 20
251.0999999999994
 30
0.0
 41
10.0
 42
10.0
 43
10.0
 50
270.0
  0
INSERT
  5
AC8D
330
AC42
100
AcDbEntity
  8
SIZE
  6
Continuous
 62
     0
440
 16777216
370
    -2
100
AcDbBlockReference
  2
_ORIGIN
 10
-227.1892889002856
 20
200.1000000000002
 30
0.0
 41
10.0
 42
10.0
 43
10.0
 50
90.0
  0
MTEXT
  5
AC8E
330
AC42
100
AcDbEntity
  8
SIZE
  6
Continuous
 62
     0
440
 16777216
100
AcDbMText
 10
-279.1892889002856
 20
125.8142857142859
 30
0.0
 40
64.0
 41
0.0
 71
     5
 72
     1
  1
\A1;51
 11
0.0000000000000001
 21
1.0
 31
0.0
 73
     1
 44
1.0
  0
POINT
  5
AC8F
330
AC42
100
AcDbEntity
  8
DEFPOINTS
  6
Continuous
 62
     0
440
 16777216
100
AcDbPoint
 10
-47.89999999999962
 20
200.1000000000002
 30
0.0
  0
POINT
  5
AC90
330
AC42
100
AcDbEntity
  8
DEFPOINTS
  6
Continuous
 62
     0
440
 16777216
100
AcDbPoint
 10
-47.89999999999962
 20
251.0999999999993
 30
0.0
  0
POINT
  5
AC91
330
AC42
100
AcDbEntity
  8
DEFPOINTS
  6
Continuous
 62
     0
440
 16777216
100
AcDbPoint
 10
-227.1892889002856
 20
251.0999999999994
 30
0.0
  0
ENDBLK
  5
AC44
330
AC42
100
AcDbEntity
  8
0
 62
     3
100
AcDbBlockEnd
  0
ENDSEC
  0
SECTION
  2
ENTITIES
  0
LINE
  5
9B2E
330
1E
100
AcDbEntity
  8
NOTE
100
AcDbLine
 10
876.6424252223497
 20
-222.454290311276
 30
0.0
 11
362.9604585372617
 21
-222.454290311276
 31
0.0
  0
TEXT
  5
9B2F
330
1E
100
AcDbEntity
  8
NOTE
100
AcDbText
 10
365.7778315851101
 20
-195.000230311276
 30
0.0
 40
64.0
  1
AH 2-U cut
 41
0.9
100
AcDbText
  0
LINE
  5
9C4B
330
1E
100
AcDbEntity
  8
DETAIL
 62
     5
100
AcDbLine
 10
60.73811168019529
 20
301.4032411000006
 30
0.0
 11
60.73818156460766
 21
391.974690659027
 31
0.0
  0
LINE
  5
9C4D
330
1E
100
AcDbEntity
  8
DETAIL
 62
     5
100
AcDbLine
 10
142.5
 20
550.0
 30
0.0
 11
142.5
 21
10.0
 31
0.0
  0
LINE
  5
9C4E
330
1E
100
AcDbEntity
  8
SIZE
100
AcDbLine
 10
142.5
 20
233.9147399999999
 30
0.0
 11
142.5
 21
399.1768837614671
 31
0.0
  0
LINE
  5
9C4F
330
1E
100
AcDbEntity
  8
DETAIL
 62
     5
100
AcDbLine
 10
19.45516087828764
 20
342.2882105569788
 30
0.0
 11
19.45516087828764
 21
336.1177055640437
 31
0.0
  0
LINE
  5
9C50
330
1E
100
AcDbEntity
  8
DETAIL
 62
     5
100
AcDbLine
 10
21.45516087828946
 20
342.271973523022
 30
0.0
 11
21.45516087828946
 21
336.1002843969963
 31
0.0
  0
ARC
  5
9C51
330
1E
100
AcDbEntity
  8
DETAIL
 62
     5
100
AcDbCircle
 10
26.43595220590758
 20
339.1767438431415
 30
0.0
 40
3.086137753761838
100
AcDbArc
 50
270.0
 51
90.0
  0
LINE
  5
9C52
330
1E
100
AcDbEntity
  8
DETAIL
 62
     5
100
AcDbLine
 10
-8.544839121710538
 20
342.2882105569788
 30
0.0
 11
-8.544839121710538
 21
336.1177055640437
 31
0.0
  0
LINE
  5
9C53
330
1E
100
AcDbEntity
  8
DETAIL
 62
     5
100
AcDbLine
 10
-6.544839121710537
 20
342.271973523022
 30
0.0
 11
-6.544839121710537
 21
336.1002843969963
 31
0.0
  0
LINE
  5
9C54
330
1E
100
AcDbEntity
  8
DETAIL
 62
     5
100
AcDbLine
 10
12.45516087828946
 20
342.2882105569788
 30
0.0
 11
12.45516087828946
 21
336.1177055640437
 31
0.0
  0
LINE
  5
9C55
330
1E
100
AcDbEntity
  8
DETAIL
 62
     5
100
AcDbLine
 10
14.45516087828764
 20
342.271973523022
 30
0.0
 11
14.45516087828764
 21
336.1002843969963
 31
0.0
  0
LINE
  5
9C56
330
1E
100
AcDbEntity
  8
DETAIL
 62
     5
100
AcDbLine
 10
5.455160878287641
 20
342.2882105569788
 30
0.0
 11
5.455160878287641
 21
336.1177055640437
 31
0.0
  0
LINE
  5
9C57
330
1E
100
AcDbEntity
  8
DETAIL
 62
     5
100
AcDbLine
 10
7.45516087828946
 20
342.271973523022
 30
0.0
 11
7.45516087828946
 21
336.1002843969963
 31
0.0
  0
LINE
  5
9C58
330
1E
100
AcDbEntity
  8
DETAIL
 62
     5
100
AcDbLine
 10
-1.544839121710535
 20
342.2882105569788
 30
0.0
 11
-1.544839121710535
 21
336.1177055640437
 31
0.0
  0
LINE
  5
9C59
330
1E
100
AcDbEntity
  8
DETAIL
 62
     5
100
AcDbLine
 10
0.455160878287643
 20
342.271973523022
 30
0.0
 11
0.455160878287643
 21
336.1002843969963
 31
0.0
  0
LINE
  5
9C5A
330
1E
100
AcDbEntity
  8
DETAIL
 62
     5
100
AcDbLine
 10
-36.54483912171054
 20
342.2882105569788
 30
0.0
 11
-36.54483912171054
 21
336.1177055640437
 31
0.0
  0
LINE
  5
9C5B
330
1E
100
AcDbEntity
  8
DETAIL
 62
     5
100
AcDbLine
 10
-34.54483912171236
 20
342.271973523022
 30
0.0
 11
-34.54483912171236
 21
336.1002843969963
 31
0.0
  0
LINE
  5
9C5C
330
1E
100
AcDbEntity
  8
DETAIL
 62
     5
100
AcDbLine
 10
-41.54483912171054
 20
342.271973523022
 30
0.0
 11
-41.54483912171054
 21
336.1002843969963
 31
0.0
  0
LINE
  5
9C5D
330
1E
100
AcDbEntity
  8
DETAIL
 62
     5
100
AcDbLine
 10
-15.54483912171233
 20
342.2882105569788
 30
0.0
 11
-15.54483912171233
 21
336.1177055640437
 31
0.0
  0
LINE
  5
9C5E
330
1E
100
AcDbEntity
  8
DETAIL
 62
     5
100
AcDbLine
 10
-13.54483912171053
 20
342.271973523022
 30
0.0
 11
-13.54483912171053
 21
336.1002843969963
 31
0.0
  0
LINE
  5
9C5F
330
1E
100
AcDbEntity
  8
DETAIL
 62
     5
100
AcDbLine
 10
-22.54483912171053
 20
342.2882105569788
 30
0.0
 11
-22.54483912171053
 21
336.1177055640437
 31
0.0
  0
LINE
  5
9C60
330
1E
100
AcDbEntity
  8
DETAIL
 62
     5
100
AcDbLine
 10
-20.54483912171235
 20
342.271973523022
 30
0.0
 11
-20.54483912171235
 21
336.1002843969963
 31
0.0
  0
LINE
  5
9C61
330
1E
100
AcDbEntity
  8
DETAIL
 62
     5
100
AcDbLine
 10
-29.54483912171236
 20
342.2882105569788
 30
0.0
 11
-29.54483912171236
 21
336.1177055640437
 31
0.0
  0
LINE
  5
9C62
330
1E
100
AcDbEntity
  8
DETAIL
 62
     5
100
AcDbLine
 10
-27.54483912171053
 20
342.271973523022
 30
0.0
 11
-27.54483912171053
 21
336.1002843969963
 31
0.0
  0
ARC
  5
9C63
330
1E
100
AcDbEntity
  8
DETAIL
 62
     5
100
AcDbCircle
 10
-48.52559292328805
 20
339.1767416892571
 30
0.0
 40
3.086159346653986
100
AcDbArc
 50
90.0
 51
270.0
  0
LINE
  5
9C64
330
1E
100
AcDbEntity
  8
DETAIL
 62
     5
100
AcDbLine
 10
-43.54483912171054
 20
342.2882105569788
 30
0.0
 11
-43.54483912171054
 21
336.1177055640437
 31
0.0
  0
LINE
  5
9C67
330
1E
100
AcDbEntity
  8
DETAIL
 62
     5
100
AcDbLine
 10
-82.82785980803055
 20
482.4828918507273
 30
0.0
 11
-82.82785980802874
 21
32.86454037195927
 31
0.0
  0
LINE
  5
9C68
330
1E
100
AcDbEntity
  8
DETAIL
 62
     5
100
AcDbLine
 10
-142.5
 20
550.0
 30
0.0
 11
-142.5
 21
10.0
 31
0.0
  0
LINE
  5
9C69
330
1E
100
AcDbEntity
  8
DETAIL
 62
     5
100
AcDbLine
 10
-160.4999999999999
 20
510.0
 30
0.0
 11
-160.4999999999999
 21
70.0
 31
0.0
  0
LINE
  5
9C6A
330
1E
100
AcDbEntity
  8
DETAIL
 62
     5
100
AcDbLine
 10
-86.9999756697234
 20
264.007860351089
 30
0.0
 11
-86.99998776813663
 21
377.2664558749675
 31
0.0
  0
LINE
  5
9C6B
330
1E
100
AcDbEntity
  8
SIZE
100
AcDbLine
 10
-27.89999999999963
 20
275.3681222270705
 30
0.0
 11
-27.89999999999963
 21
391.0676286408506
 31
0.0
  0
LINE
  5
9C6C
330
1E
100
AcDbEntity
  8
SIZE
100
AcDbLine
 10
-461.1961100000008
 20
2.0
 30
0.0
 11
-461.1961100000008
 21
550.0
 31
0.0
  0
TEXT
  5
9C6D
330
1E
100
AcDbEntity
  8
SIZE
100
AcDbText
 10
-493.196100000001
 20
195.94286
 30
0.0
 40
64.0
  1
550
 50
90.00000716197227
 41
0.9722222222222246
 72
     5
 11
-493.1961200000005
 21
355.9428599999991
 31
0.0
100
AcDbText
  0
LINE
  5
9C6E
330
1E
100
AcDbEntity
  8
BASIS
  6
DASHDOT
100
AcDbLine
 10
0.0
 20
-60.98320000000057
 30
0.0
 11
0.0
 21
585.2006199999996
 31
0.0
  0
LINE
  5
9C6F
330
1E
100
AcDbEntity
  8
NOTE
100
AcDbLine
 10
474.9343050003371
 20
428.4185495165266
 30
0.0
 11
-27.89999999999963
 21
149.0999999999994
 31
0.0
  0
LINE
  5
9C70
330
1E
100
AcDbEntity
  8
NOTE
100
AcDbLine
 10
474.9343050003371
 20
428.4185495165266
 30
0.0
 11
-27.89999999999963
 21
251.0999999999993
 31
0.0
  0
LINE
  5
9C72
330
1E
100
AcDbEntity
  8
DETAIL
 62
     5
100
AcDbLine
 10
-160.4999999999999
 20
70.0
 30
0.0
 11
-142.5
 21
70.0
 31
0.0
  0
LINE
  5
9C73
330
1E
100
AcDbEntity
  8
NOTE
100
AcDbLine
 10
-177.5
 20
0.0
 30
0.0
 11
-137.5
 21
0.0
 31
0.0
  0
LINE
  5
9C76
330
1E
100
AcDbEntity
  8
BASIS
  6
DASHDOT
100
AcDbLine
 10
-201.35116
 20
290.0
 30
0.0
 11
-58.14343000000008
 21
290.0
 31
0.0
  0
LINE
  5
9C77
330
1E
100
AcDbEntity
  8
SIZE
100
AcDbLine
 10
-9.917097447281776
 20
-177.8062202669261
 30
0.0
 11
-174.9999800000004
 21
-177.8062202669261
 31
0.0
  0
LINE
  5
9C78
330
1E
100
AcDbEntity
  8
SIZE
100
AcDbLine
 10
-157.5
 20
-376.6751300000005
 30
0.0
 11
-320.7504582339041
 21
-376.6751300000005
 31
0.0
  0
LINE
  5
9C79
330
1E
100
AcDbEntity
  8
NOTE
100
AcDbLine
 10
-346.3951083646898
 20
-267.165045554213
 30
0.0
 11
-157.5
 21
0.0
 31
0.0
  0
LINE
  5
9C7A
330
1E
100
AcDbEntity
  8
NOTE
100
AcDbLine
 10
-157.5
 20
0.0
 30
0.0
 11
-187.8302665899335
 21
-26.07824490365965
 31
0.0
  0
LINE
  5
9C7B
330
1E
100
AcDbEntity
  8
NOTE
100
AcDbLine
 10
-157.5
 20
0.0
 30
0.0
 11
-170.7276605629304
 21
-37.74956244991881
 31
0.0
  0
LINE
  5
9C7C
330
1E
100
AcDbEntity
  8
SIZE
100
AcDbLine
 10
169.5000199999995
 20
-544.2938999999996
 30
0.0
 11
-174.9999800000004
 21
-544.2938999999996
 31
0.0
  0
LINE
  5
9C7F
330
1E
100
AcDbEntity
  8
DETAIL
 62
     5
100
AcDbLine
 10
-175.0
 20
0.0
 30
0.0
 11
169.5
 21
0.0
 31
0.0
  0
LINE
  5
9C80
330
1E
100
AcDbEntity
  8
DETAIL
 62
     5
100
AcDbLine
 10
-175.0
 20
10.0
 30
0.0
 11
169.5
 21
10.0
 31
0.0
  0
LINE
  5
9C81
330
1E
100
AcDbEntity
  8
SIZE
100
AcDbLine
 10
-174.9999800000004
 20
-20.9999600000001
 30
0.0
 11
-174.9999800000004
 21
-574.2938999999998
 31
0.0
  0
TEXT
  5
9C82
330
1E
100
AcDbEntity
  8
SIZE
100
AcDbText
 10
-308.3008992188768
 20
-353.8520520621176
 30
0.0
 40
64.0
  1
17.5
 41
0.5833333515624919
 72
     5
 11
-201.6342292188783
 21
-353.8520520621176
 31
0.0
100
AcDbText
  0
CIRCLE
  5
9C83
330
1E
100
AcDbEntity
  8
SIZE
100
AcDbCircle
 10
-174.9999800000004
 20
-544.2938999999996
 30
0.0
 40
6.0
  0
CIRCLE
  5
9C84
330
1E
100
AcDbEntity
  8
SIZE
100
AcDbCircle
 10
-174.9999800000004
 20
-376.6751300000005
 30
0.0
 40
6.0
  0
LINE
  5
9C85
330
1E
100
AcDbEntity
  8
NOTE
100
AcDbLine
 10
-347.0399883646896
 20
-267.4780098622759
 30
0.0
 11
-966.8634251959357
 21
-267.4780098622759
 31
0.0
  0
TEXT
  5
9C86
330
1E
100
AcDbEntity
  8
NOTE
100
AcDbText
 10
-921.8284336363394
 20
-240.0239498622759
 30
0.0
 40
64.0
  1
AH 2-%%C10\U+00D721
 41
0.9
100
AcDbText
  0
LINE
  5
9C87
330
1E
100
AcDbEntity
  8
SIZE
100
AcDbLine
 10
-344.4596041392787
 20
0.0
 30
0.0
 11
-344.4596041392787
 21
290.0
 31
0.0
  0
LINE
  5
9C88
330
1E
100
AcDbEntity
  8
SIZE
100
AcDbLine
 10
-180.0
 20
0.0
 30
0.0
 11
-491.1961100000008
 21
0.0
 31
0.0
  0
TEXT
  5
9C89
330
1E
100
AcDbEntity
  8
SIZE
100
AcDbText
 10
-305.148226432865
 20
-133.8966200000004
 30
0.0
 40
64.0
  1
10
 50
90.00000537147899
 41
1.16666670312501
 72
     5
 11
-305.1482364328647
 21
-27.22994999999992
 31
0.0
100
AcDbText
  0
CIRCLE
  5
9C8A
330
1E
100
AcDbEntity
  8
SIZE
100
AcDbCircle
 10
-461.1961100000008
 20
0.0
 30
0.0
 40
6.0
  0
LINE
  5
9C8B
330
1E
100
AcDbEntity
  8
SIZE
100
AcDbLine
 10
-273.1482264328649
 20
10.0
 30
0.0
 11
-273.1482264328649
 21
-134.05447
 31
0.0
  0
CIRCLE
  5
9C8C
330
1E
100
AcDbEntity
  8
SIZE
100
AcDbCircle
 10
-174.9999800000004
 20
-177.8062202669261
 30
0.0
 40
6.0
  0
LINE
  5
9C8E
330
1E
100
AcDbEntity
  8
SIZE
100
AcDbLine
 10
-200.0
 20
0.0
 30
0.0
 11
-358.4310899999999
 21
0.0
 31
0.0
  0
LINE
  5
9C8F
330
1E
100
AcDbEntity
  8
SIZE
100
AcDbLine
 10
-180.0
 20
10.0
 30
0.0
 11
-299.9158246958714
 21
10.0
 31
0.0
  0
CIRCLE
  5
9C90
330
1E
100
AcDbEntity
  8
SIZE
100
AcDbCircle
 10
-273.1482264328649
 20
0.0
 30
0.0
 40
6.0
  0
CIRCLE
  5
9C93
330
1E
100
AcDbEntity
  8
SIZE
100
AcDbCircle
 10
-273.1482264328649
 20
10.0
 30
0.0
 40
6.0
  0
CIRCLE
  5
9C94
330
1E
100
AcDbEntity
  8
SIZE
100
AcDbCircle
 10
-273.1482264328649
 20
10.0
 30
0.0
 40
6.0
  0
LINE
  5
9C95
330
1E
100
AcDbEntity
  8
SIZE
100
AcDbLine
 10
-180.0
 20
0.0
 30
0.0
 11
-242.1965300000008
 21
0.0
 31
0.0
  0
LINE
  5
9C97
330
1E
100
AcDbEntity
  8
DETAIL
 62
     5
100
AcDbLine
 10
-175.0
 20
0.0
 30
0.0
 11
-175.0
 21
10.0
 31
0.0
  0
TEXT
  5
9C98
330
1E
100
AcDbEntity
  8
SIZE
100
AcDbText
 10
-367.4000095284644
 20
70.9428600000001
 30
0.0
 40
64.0
  1
280
 50
90.00000358098612
 41
0.972222222222218
 72
     5
 11
-367.4000195284641
 21
230.9428599999991
 31
0.0
100
AcDbText
  0
LINE
  5
9C9B
330
1E
100
AcDbEntity
  8
SIZE
100
AcDbLine
 10
-221.35116
 20
290.0
 30
0.0
 11
-365.5355032472389
 21
290.0
 31
0.0
  0
CIRCLE
  5
9C9C
330
1E
100
AcDbEntity
  8
SIZE
100
AcDbCircle
 10
-344.4596041392787
 20
290.0
 30
0.0
 40
6.0
  0
LINE
  5
9C9F
330
1E
100
AcDbEntity
  8
SIZE
100
AcDbLine
 10
169.5000199999995
 20
-20.9999600000001
 30
0.0
 11
169.5000199999995
 21
-574.2938999999998
 31
0.0
  0
LINE
  5
9CA0
330
1E
100
AcDbEntity
  8
SIZE
100
AcDbLine
 10
152.0
 20
-40.0
 30
0.0
 11
152.0
 21
-406.6751300000005
 31
0.0
  0
LINE
  5
9CA1
330
1E
100
AcDbEntity
  8
SIZE
100
AcDbLine
 10
-157.5
 20
-40.0
 30
0.0
 11
-157.5
 21
-406.6751300000005
 31
0.0
  0
TEXT
  5
9CA2
330
1E
100
AcDbEntity
  8
SIZE
100
AcDbText
 10
-133.4865139977772
 20
-346.4728725325666
 30
0.0
 40
64.0
  1
304～325
 41
0.65
100
AcDbText
  0
LINE
  5
9CA3
330
1E
100
AcDbEntity
  8
SIZE
100
AcDbLine
 10
152.0
 20
-376.6751300000005
 30
0.0
 11
-157.5
 21
-376.6751300000005
 31
0.0
  0
TEXT
  5
9CA4
330
1E
100
AcDbEntity
  8
SIZE
100
AcDbText
 10
-105.6677494148843
 20
-519.4867799960991
 30
0.0
 40
64.0
  1
344.5
 41
0.8
100
AcDbText
  0
CIRCLE
  5
9CA5
330
1E
100
AcDbEntity
  8
SIZE
100
AcDbCircle
 10
-157.5
 20
-376.6751300000005
 30
0.0
 40
6.0
  0
CIRCLE
  5
9CA6
330
1E
100
AcDbEntity
  8
SIZE
100
AcDbCircle
 10
169.5000199999995
 20
-544.2938999999996
 30
0.0
 40
6.0
  0
CIRCLE
  5
9CA7
330
1E
100
AcDbEntity
  8
SIZE
100
AcDbCircle
 10
152.0
 20
-376.6751300000005
 30
0.0
 40
6.0
  0
CIRCLE
  5
9CA8
330
1E
100
AcDbEntity
  8
SIZE
100
AcDbCircle
 10
324.3526393573337
 20
251.0999999999993
 30
0.0
 40
6.0
  0
CIRCLE
  5
9CA9
330
1E
100
AcDbEntity
  8
SIZE
100
AcDbCircle
 10
324.3526393573337
 20
0.0
 30
0.0
 40
6.0
  0
LINE
  5
9CAA
330
1E
100
AcDbEntity
  8
SIZE
100
AcDbLine
 10
347.8243414584722
 20
0.0
 30
0.0
 11
189.2745261703219
 21
0.0
 31
0.0
  0
LINE
  5
9CAB
330
1E
100
AcDbEntity
  8
NOTE
100
AcDbLine
 10
152.0
 20
0.0
 30
0.0
 11
362.9604585372617
 21
-222.454290311276
 31
0.0
  0
LINE
  5
9CAC
330
1E
100
AcDbEntity
  8
NOTE
100
AcDbLine
 10
461.4415321498781
 20
-94.18786620818265
 30
0.0
 11
-27.89999999999963
 21
200.1000000000002
 31
0.0
  0
LINE
  5
9CAD
330
1E
100
AcDbEntity
  8
SIZE
100
AcDbLine
 10
347.8243414584722
 20
251.0999999999993
 30
0.0
 11
-2.914735947022563
 21
251.0999999999993
 31
0.0
  0
LINE
  5
9CAE
330
1E
100
AcDbEntity
  8
NOTE
100
AcDbLine
 10
461.4415321498781
 20
-94.18786620818265
 30
0.0
 11
-27.89999999999963
 21
98.09999999999945
 31
0.0
  0
CIRCLE
  5
9CAF
330
1E
100
AcDbEntity
  8
ARRANGE
100
AcDbCircle
 10
0.0
 20
0.0
 30
0.0
 40
40.0
  0
TEXT
  5
9CB0
330
1E
100
AcDbEntity
  8
SIZE
100
AcDbText
 10
-133.9511402121716
 20
-166.2812200388898
 30
0.0
 40
64.0
  1
32.5
 41
0.5726720085359364
 72
     5
 11
-22.25282845201944
 21
-166.2812200388898
 31
0.0
100
AcDbText
  0
LINE
  5
9CB1
330
1E
100
AcDbEntity
  8
SIZE
100
AcDbLine
 10
-142.5
 20
-10.0
 30
0.0
 11
-142.5
 21
-203.6943903373138
 31
0.0
  0
CIRCLE
  5
9CB2
330
1E
100
AcDbEntity
  8
SIZE
100
AcDbCircle
 10
-142.5
 20
-177.8062202669261
 30
0.0
 40
6.0
  0
LINE
  5
9CB3
330
1E
100
AcDbEntity
  8
NOTE
100
AcDbLine
 10
-157.5
 20
20.0
 30
0.0
 11
-157.5
 21
-20.0
 31
0.0
  0
CIRCLE
  5
9CB4
330
1E
100
AcDbEntity
  8
FIX
100
AcDbCircle
 10
-157.5
 20
0.0
 30
0.0
 40
5.0
  0
POINT
  5
9CB5
330
1E
100
AcDbEntity
  8
ARRANGE
100
AcDbPoint
 10
0.0
 20
0.0
 30
0.0
  0
LINE
  5
9CB6
330
1E
100
AcDbEntity
  8
NOTE
100
AcDbLine
 10
132.0
 20
0.0
 30
0.0
 11
172.0
 21
0.0
 31
0.0
  0
LINE
  5
9CB7
330
1E
100
AcDbEntity
  8
NOTE
100
AcDbLine
 10
186.0163168213384
 20
-21.04495462409067
 30
0.0
 11
152.0
 21
0.0
 31
0.0
  0
LINE
  5
9CB8
330
1E
100
AcDbEntity
  8
NOTE
100
AcDbLine
 10
152.0
 20
0.0
 30
0.0
 11
170.9365148765989
 21
-35.23362273584643
 31
0.0
  0
LINE
  5
9CB9
330
1E
100
AcDbEntity
  8
NOTE
100
AcDbLine
 10
152.0
 20
20.0
 30
0.0
 11
152.0
 21
-20.0
 31
0.0
  0
CIRCLE
  5
9CBA
330
1E
100
AcDbEntity
  8
FIX
100
AcDbCircle
 10
152.0
 20
0.0
 30
0.0
 40
5.0
  0
LINE
  5
9CBC
330
1E
100
AcDbEntity
  8
DETAIL
 62
     5
100
AcDbLine
 10
169.5
 20
0.0
 30
0.0
 11
169.5
 21
10.0
 31
0.0
  0
ARC
  5
9CBE
330
1E
100
AcDbEntity
  8
DETAIL
 62
     5
100
AcDbCircle
 10
73.10370213310853
 20
39.62474699211907
 30
0.0
 40
7.824746517673677
100
AcDbArc
 50
270.0
 51
0.0
  0
ARC
  5
9CBF
330
1E
100
AcDbEntity
  8
DETAIL
 62
     5
100
AcDbCircle
 10
75.46903468267918
 20
291.3998120418036
 30
0.0
 40
5.459413968103946
100
AcDbArc
 50
0.0
 51
89.99758627486697
  0
LINE
  5
9CC0
330
1E
100
AcDbEntity
  8
DETAIL
 62
     5
100
AcDbLine
 10
-31.22213808040759
 20
48.89830288402118
 30
0.0
 11
80.92844865078404
 21
48.89830288402027
 31
0.0
  0
LINE
  5
9CC1
330
1E
100
AcDbEntity
  8
DETAIL
 62
     5
100
AcDbLine
 10
81.71029742629981
 20
31.80000047444536
 30
0.0
 11
-82.55850647299665
 21
31.80000047444627
 31
0.0
  0
LINE
  5
9CC2
330
1E
100
AcDbEntity
  8
DETAIL
 62
     5
100
AcDbLine
 10
80.92844865078404
 20
268.2238286159864
 30
0.0
 11
-30.99982262206504
 21
268.2238286159864
 31
0.0
  0
LINE
  5
9CC3
330
1E
100
AcDbEntity
  8
NOTE
100
AcDbLine
 10
-27.89999999999963
 20
200.1000000000002
 30
0.0
 11
-1.090873742326948
 21
170.4138014137015
 31
0.0
  0
LINE
  5
9CC4
330
1E
100
AcDbEntity
  8
NOTE
100
AcDbLine
 10
-27.89999999999963
 20
220.0999999999992
 30
0.0
 11
-27.89999999999963
 21
180.1000000000001
 31
0.0
  0
LINE
  5
9CC5
330
1E
100
AcDbEntity
  8
DETAIL
 62
     5
100
AcDbLine
 10
-87.00000000000182
 20
36.24149447589479
 30
0.0
 11
-86.9999756697234
 21
264.007860351089
 31
0.0
  0
LINE
  5
9CC6
330
1E
100
AcDbEntity
  8
NOTE
100
AcDbLine
 10
-47.89999999999962
 20
149.0999999999994
 30
0.0
 11
-7.899999999999636
 21
149.0999999999994
 31
0.0
  0
LINE
  5
9CC7
330
1E
100
AcDbEntity
  8
NOTE
100
AcDbLine
 10
-47.89999999999962
 20
98.09999999999945
 30
0.0
 11
-7.899999999999636
 21
98.09999999999945
 31
0.0
  0
LWPOLYLINE
  5
9CC8
330
1E
100
AcDbEntity
  8
DETAIL
 62
     5
100
AcDbPolyline
 90
       10
 70
     0
 43
0.0
 10
-31.22213808040759
 20
48.89830288402072
 10
-37.85286475076647
 20
48.8260516438404
 10
-44.39271514892971
 20
48.61149252030736
 10
-50.64297906423234
 20
48.26114478925228
 10
-56.41374523209742
 20
47.78565359807088
 10
-61.52967169650219
 20
47.19946651804093
 10
-65.83531349103214
 20
46.52039456181046
 10
-69.19984575948546
 20
45.76907100434072
 10
-71.52103880619325
 20
44.96832445076779
 10
-72.72836429622477
 20
44.14248520020463
  0
LINE
  5
9CC9
330
1E
100
AcDbEntity
  8
DETAIL
 62
     5
100
AcDbLine
 10
-78.90940666069581
 20
36.06632349045867
 30
0.0
 11
-72.72836349876889
 21
44.1424862421627
 31
0.0
  0
ARC
  5
9CCA
330
1E
100
AcDbEntity
  8
DETAIL
 62
     5
100
AcDbCircle
 10
-82.55850647299665
 20
36.24149400144961
 30
0.0
 40
4.441493527003386
100
AcDbArc
 50
179.9999938796039
 51
270.0
  0
LINE
  5
9CCB
330
1E
100
AcDbEntity
  8
NOTE
100
AcDbLine
 10
-27.89999999999963
 20
118.0999999999994
 30
0.0
 11
-27.89999999999963
 21
78.09999999999945
 31
0.0
  0
LINE
  5
9CCC
330
1E
100
AcDbEntity
  8
NOTE
100
AcDbLine
 10
-27.89999999999963
 20
98.09999999999945
 30
0.0
 11
4.663991229936073
 21
74.8710007996824
 31
0.0
  0
LINE
  5
9CCD
330
1E
100
AcDbEntity
  8
NOTE
100
AcDbLine
 10
-27.89999999999963
 20
98.09999999999945
 30
0.0
 11
11.91575003839534
 21
94.26509217732656
 31
0.0
  0
LINE
  5
9CCE
330
1E
100
AcDbEntity
  8
NOTE
100
AcDbLine
 10
-27.89999999999963
 20
169.0999999999994
 30
0.0
 11
-27.89999999999963
 21
129.0999999999992
 31
0.0
  0
LINE
  5
9CCF
330
1E
100
AcDbEntity
  8
NOTE
100
AcDbLine
 10
-27.89999999999963
 20
149.0999999999994
 30
0.0
 11
11.20269112281311
 21
157.5249144897106
 31
0.0
  0
LINE
  5
9CD0
330
1E
100
AcDbEntity
  8
NOTE
100
AcDbLine
 10
-27.89999999999963
 20
149.0999999999994
 30
0.0
 11
1.751473427650124
 21
175.947538121255
 31
0.0
  0
LINE
  5
9CD1
330
1E
100
AcDbEntity
  8
DETAIL
 62
     5
100
AcDbLine
 10
-48.52559212298364
 20
322.2629010359105
 30
0.0
 11
26.43595300620654
 21
322.2628815969037
 31
0.0
  0
LINE
  5
9CD2
330
1E
100
AcDbEntity
  8
DETAIL
 62
     5
100
AcDbLine
 10
-48.52559194563582
 20
316.0905823426028
 30
0.0
 11
26.43595318355437
 21
316.0906060893793
 31
0.0
  0
LINE
  5
9CD3
330
1E
100
AcDbEntity
  8
DETAIL
 62
     5
100
AcDbLine
 10
-48.52559212298364
 20
332.2629010359103
 30
0.0
 11
26.43595300620654
 21
332.2628815969037
 31
0.0
  0
LINE
  5
9CD4
330
1E
100
AcDbEntity
  8
DETAIL
 62
     5
100
AcDbLine
 10
-48.52559194563582
 20
326.0905823426028
 30
0.0
 11
26.43595318355437
 21
326.0906060893793
 31
0.0
  0
LINE
  5
9CD5
330
1E
100
AcDbEntity
  8
DETAIL
 62
     5
100
AcDbLine
 10
-48.52559194563582
 20
336.0905823426028
 30
0.0
 11
26.43595318355437
 21
336.0906060893793
 31
0.0
  0
LINE
  5
9CD6
330
1E
100
AcDbEntity
  8
DETAIL
 62
     5
100
AcDbLine
 10
-48.52559212298364
 20
300.7322194156786
 30
0.0
 11
26.43595300620654
 21
300.7321999766718
 31
0.0
  0
LINE
  5
9CD7
330
1E
100
AcDbEntity
  8
DETAIL
 62
     5
100
AcDbLine
 10
-48.52559212298364
 20
310.7322194156787
 30
0.0
 11
26.43595300620654
 21
310.7321999766718
 31
0.0
  0
LINE
  5
9CD8
330
1E
100
AcDbEntity
  8
DETAIL
 62
     5
100
AcDbLine
 10
-48.52559194563582
 20
304.5599007223708
 30
0.0
 11
26.43595318355437
 21
304.5599244691475
 31
0.0
  0
LINE
  5
9CD9
330
1E
100
AcDbEntity
  8
DETAIL
 62
     5
100
AcDbLine
 10
-44.91002595822283
 20
289.2458344047053
 30
0.0
 11
-38.54483912171053
 21
289.1555460722983
 31
0.0
  0
LINE
  5
9CDA
330
1E
100
AcDbEntity
  8
DETAIL
 62
     5
100
AcDbLine
 10
-48.52559194563582
 20
294.5599007223707
 30
0.0
 11
26.43595318355437
 21
294.5599244691475
 31
0.0
  0
LINE
  5
9CDB
330
1E
100
AcDbEntity
  8
NOTE
100
AcDbLine
 10
-47.89999999999962
 20
251.0999999999993
 30
0.0
 11
-7.899999999999636
 21
251.0999999999993
 31
0.0
  0
LINE
  5
9CDC
330
1E
100
AcDbEntity
  8
NOTE
100
AcDbLine
 10
-47.89999999999962
 20
200.1000000000002
 30
0.0
 11
-7.899999999999636
 21
200.1000000000002
 31
0.0
  0
ARC
  5
9CDD
330
1E
100
AcDbEntity
  8
DETAIL
 62
     5
100
AcDbCircle
 10
-30.99982262206504
 20
320.7169022100543
 30
0.0
 40
52.49307359406905
100
AcDbArc
 50
212.8836286835944
 51
270.0
  0
ARC
  5
9CDE
330
1E
100
AcDbEntity
  8
DETAIL
 62
     5
100
AcDbCircle
 10
-48.52559292328805
 20
297.6460600690251
 30
0.0
 40
3.086159346653877
100
AcDbArc
 50
90.0
 51
270.0
  0
ARC
  5
9CDF
330
1E
100
AcDbEntity
  8
DETAIL
 62
     5
100
AcDbCircle
 10
-46.41947530294054
 20
507.6256376656929
 30
0.0
 40
218.4757506901393
100
AcDbArc
 50
262.4730845119676
 51
264.3240004910267
  0
ARC
  5
9CE0
330
1E
100
AcDbEntity
  8
DETAIL
 62
     5
100
AcDbCircle
 10
-39.77953060013897
 20
497.8943617087232
 30
0.0
 40
208.6854561225393
100
AcDbArc
 50
260.2606175551623
 51
262.42015634628
  0
LINE
  5
9CE1
330
1E
100
AcDbEntity
  8
DETAIL
 62
     5
100
AcDbLine
 10
-68.02736600313801
 20
290.221054689371
 30
0.0
 11
-64.85783157170226
 21
289.9310636885129
 31
0.0
  0
ARC
  5
9CE2
330
1E
100
AcDbEntity
  8
DETAIL
 62
     5
100
AcDbCircle
 10
-38.8276071765631
 20
506.9281064311025
 30
0.0
 40
217.7672320915389
100
AcDbArc
 50
265.1797636301882
 51
268.3994733725526
  0
ARC
  5
9CE3
330
1E
100
AcDbEntity
  8
DETAIL
 62
     5
100
AcDbCircle
 10
-48.52559292328805
 20
307.6460600690251
 30
0.0
 40
3.086159346653877
100
AcDbArc
 50
90.0
 51
270.0
  0
ARC
  5
9CE4
330
1E
100
AcDbEntity
  8
DETAIL
 62
     5
100
AcDbCircle
 10
-48.52559292328805
 20
319.1767416892572
 30
0.0
 40
3.086159346653986
100
AcDbArc
 50
90.0
 51
270.0
  0
LINE
  5
9CE5
330
1E
100
AcDbEntity
  8
DETAIL
 62
     5
100
AcDbLine
 10
-43.54483912171054
 20
322.2882105569788
 30
0.0
 11
-43.54483912171054
 21
316.1177055640428
 31
0.0
  0
ARC
  5
9CE6
330
1E
100
AcDbEntity
  8
DETAIL
 62
     5
100
AcDbCircle
 10
-48.52559292328805
 20
329.1767416892572
 30
0.0
 40
3.086159346653986
100
AcDbArc
 50
90.0
 51
270.0
  0
LINE
  5
9CE7
330
1E
100
AcDbEntity
  8
DETAIL
 62
     5
100
AcDbLine
 10
-43.54483912171054
 20
332.2882105569788
 30
0.0
 11
-43.54483912171054
 21
326.1177055640428
 31
0.0
  0
LINE
  5
9CE8
330
1E
100
AcDbEntity
  8
NOTE
100
AcDbLine
 10
-27.89999999999963
 20
271.0999999999994
 30
0.0
 11
-27.89999999999963
 21
231.0999999999994
 31
0.0
  0
LINE
  5
9CE9
330
1E
100
AcDbEntity
  8
NOTE
100
AcDbLine
 10
-27.89999999999963
 20
251.0999999999993
 30
0.0
 11
5.823730000000067
 21
272.6107000000002
 31
0.0
  0
LINE
  5
9CEA
330
1E
100
AcDbEntity
  8
NOTE
100
AcDbLine
 10
-27.89999999999963
 20
200.1000000000002
 30
0.0
 11
10.16048932195553
 21
187.7955564052599
 31
0.0
  0
LINE
  5
9CEB
330
1E
100
AcDbEntity
  8
NOTE
100
AcDbLine
 10
-27.89999999999963
 20
251.0999999999993
 30
0.0
 11
12.06094999999913
 21
252.8669499999995
 31
0.0
  0
LINE
  5
9CEC
330
1E
100
AcDbEntity
  8
DETAIL
 62
     5
100
AcDbLine
 10
51.78511892448296
 20
289.1555545510708
 30
0.0
 11
-11.04483912171053
 21
289.1555394725756
 31
0.0
  0
LINE
  5
9CED
330
1E
100
AcDbEntity
  8
DETAIL
 62
     5
100
AcDbLine
 10
-11.04483912171053
 20
289.1555394725756
 30
0.0
 11
-24.79483912171053
 21
289.155542772437
 31
0.0
  0
LINE
  5
9CEE
330
1E
100
AcDbEntity
  8
DETAIL
 62
     5
100
AcDbLine
 10
-24.79483912171053
 20
289.155542772437
 30
0.0
 11
-38.54483912171053
 21
289.1555460722983
 31
0.0
  0
LINE
  5
9CEF
330
1E
100
AcDbEntity
  8
DETAIL
 62
     5
100
AcDbLine
 10
-36.54483912171054
 20
322.2882105569788
 30
0.0
 11
-36.54483912171054
 21
316.1177055640428
 31
0.0
  0
LINE
  5
9CF0
330
1E
100
AcDbEntity
  8
DETAIL
 62
     5
100
AcDbLine
 10
-34.54483912171236
 20
322.2719735230221
 30
0.0
 11
-34.54483912171236
 21
316.1002843969953
 31
0.0
  0
LINE
  5
9CF1
330
1E
100
AcDbEntity
  8
DETAIL
 62
     5
100
AcDbLine
 10
-41.54483912171054
 20
322.2719735230221
 30
0.0
 11
-41.54483912171054
 21
316.1002843969953
 31
0.0
  0
LINE
  5
9CF2
330
1E
100
AcDbEntity
  8
DETAIL
 62
     5
100
AcDbLine
 10
-36.54483912171054
 20
332.2882105569788
 30
0.0
 11
-36.54483912171054
 21
326.1177055640428
 31
0.0
  0
LINE
  5
9CF3
330
1E
100
AcDbEntity
  8
DETAIL
 62
     5
100
AcDbLine
 10
-34.54483912171236
 20
332.271973523022
 30
0.0
 11
-34.54483912171236
 21
326.1002843969953
 31
0.0
  0
LINE
  5
9CF4
330
1E
100
AcDbEntity
  8
DETAIL
 62
     5
100
AcDbLine
 10
-41.54483912171054
 20
332.271973523022
 30
0.0
 11
-41.54483912171054
 21
326.1002843969953
 31
0.0
  0
LINE
  5
9CF5
330
1E
100
AcDbEntity
  8
DETAIL
 62
     5
100
AcDbLine
 10
-15.54483912171233
 20
322.2882105569788
 30
0.0
 11
-15.54483912171233
 21
316.1177055640428
 31
0.0
  0
LINE
  5
9CF6
330
1E
100
AcDbEntity
  8
DETAIL
 62
     5
100
AcDbLine
 10
-13.54483912171053
 20
322.2719735230221
 30
0.0
 11
-13.54483912171053
 21
316.1002843969953
 31
0.0
  0
LINE
  5
9CF7
330
1E
100
AcDbEntity
  8
DETAIL
 62
     5
100
AcDbLine
 10
-22.54483912171053
 20
322.2882105569788
 30
0.0
 11
-22.54483912171053
 21
316.1177055640428
 31
0.0
  0
LINE
  5
9CF8
330
1E
100
AcDbEntity
  8
DETAIL
 62
     5
100
AcDbLine
 10
-20.54483912171235
 20
322.2719735230221
 30
0.0
 11
-20.54483912171235
 21
316.1002843969953
 31
0.0
  0
LINE
  5
9CF9
330
1E
100
AcDbEntity
  8
DETAIL
 62
     5
100
AcDbLine
 10
-29.54483912171236
 20
322.2882105569788
 30
0.0
 11
-29.54483912171236
 21
316.1177055640428
 31
0.0
  0
LINE
  5
9CFA
330
1E
100
AcDbEntity
  8
DETAIL
 62
     5
100
AcDbLine
 10
-27.54483912171053
 20
322.2719735230221
 30
0.0
 11
-27.54483912171053
 21
316.1002843969953
 31
0.0
  0
LINE
  5
9CFB
330
1E
100
AcDbEntity
  8
DETAIL
 62
     5
100
AcDbLine
 10
-15.54483912171233
 20
332.2882105569788
 30
0.0
 11
-15.54483912171233
 21
326.1177055640428
 31
0.0
  0
LINE
  5
9CFC
330
1E
100
AcDbEntity
  8
DETAIL
 62
     5
100
AcDbLine
 10
-13.54483912171053
 20
332.271973523022
 30
0.0
 11
-13.54483912171053
 21
326.1002843969953
 31
0.0
  0
LINE
  5
9CFD
330
1E
100
AcDbEntity
  8
DETAIL
 62
     5
100
AcDbLine
 10
-22.54483912171053
 20
332.2882105569788
 30
0.0
 11
-22.54483912171053
 21
326.1177055640428
 31
0.0
  0
LINE
  5
9CFE
330
1E
100
AcDbEntity
  8
DETAIL
 62
     5
100
AcDbLine
 10
-20.54483912171235
 20
332.271973523022
 30
0.0
 11
-20.54483912171235
 21
326.1002843969953
 31
0.0
  0
LINE
  5
9CFF
330
1E
100
AcDbEntity
  8
DETAIL
 62
     5
100
AcDbLine
 10
-29.54483912171236
 20
332.2882105569788
 30
0.0
 11
-29.54483912171236
 21
326.1177055640428
 31
0.0
  0
LINE
  5
9D00
330
1E
100
AcDbEntity
  8
DETAIL
 62
     5
100
AcDbLine
 10
-27.54483912171053
 20
332.271973523022
 30
0.0
 11
-27.54483912171053
 21
326.1002843969953
 31
0.0
  0
LINE
  5
9D01
330
1E
100
AcDbEntity
  8
DETAIL
 62
     5
100
AcDbLine
 10
-8.544839121710538
 20
322.2882105569788
 30
0.0
 11
-8.544839121710538
 21
316.1177055640428
 31
0.0
  0
LINE
  5
9D02
330
1E
100
AcDbEntity
  8
DETAIL
 62
     5
100
AcDbLine
 10
-6.544839121710537
 20
322.2719735230221
 30
0.0
 11
-6.544839121710537
 21
316.1002843969953
 31
0.0
  0
LINE
  5
9D03
330
1E
100
AcDbEntity
  8
DETAIL
 62
     5
100
AcDbLine
 10
-8.544839121710538
 20
332.2882105569788
 30
0.0
 11
-8.544839121710538
 21
326.1177055640428
 31
0.0
  0
LINE
  5
9D04
330
1E
100
AcDbEntity
  8
DETAIL
 62
     5
100
AcDbLine
 10
-6.544839121710537
 20
332.271973523022
 30
0.0
 11
-6.544839121710537
 21
326.1002843969953
 31
0.0
  0
LINE
  5
9D05
330
1E
100
AcDbEntity
  8
DETAIL
 62
     5
100
AcDbLine
 10
12.45516087828946
 20
322.2882105569788
 30
0.0
 11
12.45516087828946
 21
316.1177055640428
 31
0.0
  0
LINE
  5
9D06
330
1E
100
AcDbEntity
  8
DETAIL
 62
     5
100
AcDbLine
 10
14.45516087828764
 20
322.2719735230221
 30
0.0
 11
14.45516087828764
 21
316.1002843969953
 31
0.0
  0
LINE
  5
9D07
330
1E
100
AcDbEntity
  8
DETAIL
 62
     5
100
AcDbLine
 10
5.455160878287641
 20
322.2882105569788
 30
0.0
 11
5.455160878287641
 21
316.1177055640428
 31
0.0
  0
LINE
  5
9D08
330
1E
100
AcDbEntity
  8
DETAIL
 62
     5
100
AcDbLine
 10
7.45516087828946
 20
322.2719735230221
 30
0.0
 11
7.45516087828946
 21
316.1002843969953
 31
0.0
  0
LINE
  5
9D09
330
1E
100
AcDbEntity
  8
DETAIL
 62
     5
100
AcDbLine
 10
12.45516087828946
 20
332.2882105569788
 30
0.0
 11
12.45516087828946
 21
326.1177055640428
 31
0.0
  0
LINE
  5
9D0A
330
1E
100
AcDbEntity
  8
DETAIL
 62
     5
100
AcDbLine
 10
14.45516087828764
 20
332.271973523022
 30
0.0
 11
14.45516087828764
 21
326.1002843969953
 31
0.0
  0
LINE
  5
9D0B
330
1E
100
AcDbEntity
  8
DETAIL
 62
     5
100
AcDbLine
 10
5.455160878287641
 20
332.2882105569788
 30
0.0
 11
5.455160878287641
 21
326.1177055640428
 31
0.0
  0
LINE
  5
9D0C
330
1E
100
AcDbEntity
  8
DETAIL
 62
     5
100
AcDbLine
 10
7.45516087828946
 20
332.271973523022
 30
0.0
 11
7.45516087828946
 21
326.1002843969953
 31
0.0
  0
LINE
  5
9D0D
330
1E
100
AcDbEntity
  8
DETAIL
 62
     5
100
AcDbLine
 10
-1.544839121710535
 20
322.2882105569788
 30
0.0
 11
-1.544839121710535
 21
316.1177055640428
 31
0.0
  0
LINE
  5
9D0E
330
1E
100
AcDbEntity
  8
DETAIL
 62
     5
100
AcDbLine
 10
0.455160878287643
 20
322.2719735230221
 30
0.0
 11
0.455160878287643
 21
316.1002843969953
 31
0.0
  0
LINE
  5
9D0F
330
1E
100
AcDbEntity
  8
DETAIL
 62
     5
100
AcDbLine
 10
-1.544839121710535
 20
332.2882105569788
 30
0.0
 11
-1.544839121710535
 21
326.1177055640428
 31
0.0
  0
LINE
  5
9D10
330
1E
100
AcDbEntity
  8
DETAIL
 62
     5
100
AcDbLine
 10
0.455160878287643
 20
332.271973523022
 30
0.0
 11
0.455160878287643
 21
326.1002843969953
 31
0.0
  0
ARC
  5
9D11
330
1E
100
AcDbEntity
  8
DETAIL
 62
     5
100
AcDbCircle
 10
65.51180977742115
 20
301.3071191457728
 30
0.0
 40
4.762983104651438
100
AcDbArc
 50
195.4965123158444
 51
205.5034755042753
  0
ARC
  5
9D12
330
1E
100
AcDbEntity
  8
DETAIL
 62
     5
100
AcDbCircle
 10
26.43595220590758
 20
297.6460622229097
 30
0.0
 40
3.086137753761838
100
AcDbArc
 50
270.0
 51
90.0
  0
LINE
  5
9D13
330
1E
100
AcDbEntity
  8
DETAIL
 62
     5
100
AcDbLine
 10
75.46926467387494
 20
296.8592260050645
 30
0.0
 11
70.2055628779126
 21
296.8594477514061
 31
0.0
  0
LINE
  5
9D14
330
1E
100
AcDbEntity
  8
DETAIL
 62
     5
100
AcDbLine
 10
67.573674774776
 20
296.8594516363026
 30
0.0
 11
64.94178667163942
 21
296.8594555212001
 31
0.0
  0
LINE
  5
9D15
330
1E
100
AcDbEntity
  8
DETAIL
 62
     5
100
AcDbLine
 10
70.2055628779126
 20
296.8594477514061
 30
0.0
 11
67.573674774776
 21
296.8594516363026
 31
0.0
  0
LINE
  5
9D16
330
1E
100
AcDbEntity
  8
DETAIL
 62
     5
100
AcDbLine
 10
64.7251213090385
 20
296.865058013378
 30
0.0
 11
64.94178667163942
 21
296.8594555212001
 31
0.0
  0
ARC
  5
9D17
330
1E
100
AcDbEntity
  8
DETAIL
 62
     5
100
AcDbCircle
 10
64.9719470298478
 20
301.2727254211377
 30
0.0
 40
4.414573016032369
100
AcDbArc
 50
259.6725001141529
 51
266.7948314196582
  0
ARC
  5
9D18
330
1E
100
AcDbEntity
  8
DETAIL
 62
     5
100
AcDbCircle
 10
64.97156224281752
 20
301.0790569786259
 30
0.0
 40
4.224112789193893
100
AcDbArc
 50
249.9943532317304
 51
259.206691034585
  0
LINE
  5
9D19
330
1E
100
AcDbEntity
  8
DETAIL
 62
     5
100
AcDbLine
 10
63.17290740370664
 20
297.2598653957811
 30
0.0
 11
63.52643938842084
 21
297.1098317656242
 31
0.0
  0
ARC
  5
9D1A
330
1E
100
AcDbEntity
  8
DETAIL
 62
     5
100
AcDbCircle
 10
64.94228728871346
 20
300.9220093540288
 30
0.0
 40
4.067186195442515
100
AcDbArc
 50
232.9412584359784
 51
244.2122984726358
  0
ARC
  5
9D1B
330
1E
100
AcDbEntity
  8
DETAIL
 62
     5
100
AcDbCircle
 10
65.0082083677662
 20
301.0012510916904
 30
0.0
 40
4.170151609014411
100
AcDbArc
 50
221.722822013938
 51
232.8745876800546
  0
LINE
  5
9D1C
330
1E
100
AcDbEntity
  8
DETAIL
 62
     5
100
AcDbLine
 10
61.63584872139836
 20
298.5475826187803
 30
0.0
 11
61.8957191796071
 21
298.2258996732623
 31
0.0
  0
ARC
  5
9D1D
330
1E
100
AcDbEntity
  8
DETAIL
 62
     5
100
AcDbCircle
 10
65.25158077052036
 20
301.1856276078215
 30
0.0
 40
4.475801561202333
100
AcDbArc
 50
205.5341014453698
 51
216.1145615553099
  0
ARC
  5
9D1E
330
1E
100
AcDbEntity
  8
DETAIL
 62
     5
100
AcDbCircle
 10
51.78511652459383
 20
299.1555545510689
 30
0.0
 40
9.999999999999342
100
AcDbArc
 50
270.0
 51
336.3121161181258
  0
LINE
  5
9D1F
330
1E
100
AcDbEntity
  8
DETAIL
 62
     5
100
AcDbLine
 10
60.94259223675178
 20
295.1380131908317
 30
0.0
 11
62.07744390020889
 21
297.7247635471248
 31
0.0
  0
ARC
  5
9D20
330
1E
100
AcDbEntity
  8
DETAIL
 62
     5
100
AcDbCircle
 10
26.43595220590758
 20
307.6460622229096
 30
0.0
 40
3.086137753761838
100
AcDbArc
 50
270.0
 51
90.0
  0
LINE
  5
9D21
330
1E
100
AcDbEntity
  8
DETAIL
 62
     5
100
AcDbLine
 10
19.45516087828764
 20
322.2882105569788
 30
0.0
 11
19.45516087828764
 21
316.1177055640428
 31
0.0
  0
LINE
  5
9D22
330
1E
100
AcDbEntity
  8
DETAIL
 62
     5
100
AcDbLine
 10
21.45516087828946
 20
322.2719735230221
 30
0.0
 11
21.45516087828946
 21
316.1002843969953
 31
0.0
  0
LINE
  5
9D23
330
1E
100
AcDbEntity
  8
DETAIL
 62
     5
100
AcDbLine
 10
19.45516087828764
 20
332.2882105569788
 30
0.0
 11
19.45516087828764
 21
326.1177055640428
 31
0.0
  0
LINE
  5
9D24
330
1E
100
AcDbEntity
  8
DETAIL
 62
     5
100
AcDbLine
 10
21.45516087828946
 20
332.271973523022
 30
0.0
 11
21.45516087828946
 21
326.1002843969953
 31
0.0
  0
ARC
  5
9D25
330
1E
100
AcDbEntity
  8
DETAIL
 62
     5
100
AcDbCircle
 10
26.43595220590758
 20
319.1767438431416
 30
0.0
 40
3.086137753761838
100
AcDbArc
 50
270.0
 51
90.0
  0
ARC
  5
9D26
330
1E
100
AcDbEntity
  8
DETAIL
 62
     5
100
AcDbCircle
 10
26.43595220590758
 20
329.1767438431417
 30
0.0
 40
3.086137753761838
100
AcDbArc
 50
270.0
 51
90.0
  0
ARC
  5
9D27
330
1E
100
AcDbEntity
  8
DETAIL
 62
     5
100
AcDbCircle
 10
68.95516087828946
 20
313.7996144773087
 30
0.0
 40
2.5
100
AcDbArc
 50
180.0
 51
2.020579877394763
  0
ARC
  5
9D28
330
1E
100
AcDbEntity
  8
DETAIL
 62
     5
100
AcDbCircle
 10
68.95516087828946
 20
315.0111829690067
 30
0.0
 40
2.500000000000568
100
AcDbArc
 50
357.9794201226052
 51
180.0
  0
LWPOLYLINE
  5
9D29
330
1E
100
AcDbEntity
  8
DETAIL
 62
     5
100
AcDbPolyline
 90
       32
 70
     1
 43
0.0
 10
68.95516087828946
 20
322.3039446724488
 10
67.49198346316915
 20
322.1534634689603
 10
66.08503513555115
 20
321.7078027667557
 10
64.78838413064295
 20
320.9840890566892
 10
63.65186001939219
 20
320.0101342507772
 10
62.71913878602209
 20
318.8233668860098
 10
62.02606438445582
 20
317.4693937666688
 10
61.59927127526316
 20
316.000247320413
 10
61.45516087828946
 20
314.4723860212652
 10
61.59927127526316
 20
312.9445247221178
 10
62.02606438445582
 20
311.4753782758616
 10
62.71913878602209
 20
310.1214051565202
 10
63.65186001939219
 20
308.9346377917536
 10
64.78838413064295
 20
307.9606829858411
 10
66.08503513555115
 20
307.2369692757752
 10
67.49198346316915
 20
306.7913085735697
 10
68.95516087828946
 20
306.6408273700817
 10
70.41833829340976
 20
306.7913085735697
 10
71.82528662102777
 20
307.2369692757752
 10
73.12193762593597
 20
307.9606829858411
 10
74.25846173718674
 20
308.9346377917536
 10
75.19118297055683
 20
310.1214051565202
 10
75.8842573721231
 20
311.4753782758616
 10
76.31105048131212
 20
312.9445247221178
 10
76.45516087828944
 20
314.4723860212652
 10
76.31105048131212
 20
316.000247320413
 10
75.8842573721231
 20
317.4693937666688
 10
75.19118297055683
 20
318.8233668860098
 10
74.25846173718674
 20
320.0101342507772
 10
73.12193762593597
 20
320.9840890566892
 10
71.82528662102777
 20
321.7078027667557
 10
70.41833829340976
 20
322.1534634689603
  0
LINE
  5
9D2A
330
1E
100
AcDbEntity
  8
DETAIL
 62
     5
100
AcDbLine
 10
66.45516087828946
 20
315.0111829690067
 30
0.0
 11
66.45516087828946
 21
313.7996144773087
 31
0.0
  0
LINE
  5
9D2B
330
1E
100
AcDbEntity
  8
DETAIL
 62
     5
100
AcDbLine
 10
60.84377582012529
 20
300.3578531398352
 30
0.0
 11
60.92197673766897
 21
300.0345466635899
 31
0.0
  0
ARC
  5
9D2C
330
1E
100
AcDbEntity
  8
DETAIL
 62
     5
100
AcDbCircle
 10
65.60430512107996
 20
301.3537486540453
 30
0.0
 40
4.863583771303304
100
AcDbArc
 50
184.8999286545021
 51
191.815788255638
  0
ARC
  5
9D2D
330
1E
100
AcDbEntity
  8
DETAIL
 62
     5
100
AcDbCircle
 10
65.63209985227877
 20
301.3849090945932
 30
0.0
 40
4.894022506171733
100
AcDbArc
 50
179.7853812493021
 51
185.2356075563687
  0
LINE
  5
9D2E
330
1E
100
AcDbEntity
  8
DETAIL
 62
     5
100
AcDbLine
 10
71.45516087828944
 20
314.9230368133629
 30
0.0
 11
71.45516087828944
 21
313.8877606329523
 31
0.0
  0
LINE
  5
9D3E
330
1E
100
AcDbEntity
  8
DETAIL
 62
     5
100
AcDbLine
 10
80.92844865078404
 20
291.3998120418036
 30
0.0
 11
80.92844865078404
 21
39.62474699211907
 31
0.0
  0
TEXT
  5
9D3F
330
1E
100
AcDbEntity
  8
SIZE
100
AcDbText
 10
304.5749293388561
 20
41.71814684266336
 30
0.0
 40
64.0
  1
251.1
 50
90.00000295949147
 41
0.8947186657102218
 72
     5
 11
304.5749193388563
 21
235.3182238420558
 31
0.0
100
AcDbText
  0
LINE
  5
9D40
330
1E
100
AcDbEntity
  8
DETAIL
 62
     5
100
AcDbLine
 10
84.7102974262998
 20
34.80000047444537
 30
0.0
 11
84.7102974262998
 21
321.6759302320878
 31
0.0
  0
ARC
  5
9D41
330
1E
100
AcDbEntity
  8
DETAIL
 62
     5
100
AcDbCircle
 10
81.71029742629981
 20
34.80000047444537
 30
0.0
 40
2.99999999999992
100
AcDbArc
 50
270.0
 51
0.0
  0
LINE
  5
9D42
330
1E
100
AcDbEntity
  8
DETAIL
 62
     5
100
AcDbLine
 10
84.71032162312985
 20
37.49066937604947
 30
0.0
 11
84.7102974262998
 21
37.56066231944714
 31
0.0
  0
ARC
  5
9D43
330
1E
100
AcDbEntity
  8
DETAIL
 62
     5
100
AcDbCircle
 10
80.05853190998671
 20
321.6047633420509
 30
0.0
 40
4.652309871987097
100
AcDbArc
 50
0.8764939557151947
 51
90.85565790855101
  0
LINE
  5
9D44
330
1E
100
AcDbEntity
  8
SIZE
100
AcDbLine
 10
324.3526393573337
 20
0.0
 30
0.0
 11
324.3526393573337
 21
251.1000000000003
 31
0.0
  0
CIRCLE
  5
9D45
330
1E
100
AcDbEntity
  8
SIZE
100
AcDbCircle
 10
-160.4999999999999
 20
656.8216260885401
 30
0.0
 40
6.0
  0
LINE
  5
9D46
330
1E
100
AcDbEntity
  8
SIZE
100
AcDbLine
 10
-142.4999800000005
 20
656.8216260885401
 30
0.0
 11
-279.5826400000005
 21
656.8216260885401
 31
0.0
  0
LINE
  5
9D48
330
1E
100
AcDbEntity
  8
DETAIL
 62
     5
100
AcDbLine
 10
-160.4999999999999
 20
510.0
 30
0.0
 11
-142.5
 21
510.0
 31
0.0
  0
LINE
  5
9D49
330
1E
100
AcDbEntity
  8
SIZE
100
AcDbLine
 10
-147.5
 20
550.0
 30
0.0
 11
-491.1961100000008
 21
550.0
 31
0.0
  0
LINE
  5
9D4A
330
1E
100
AcDbEntity
  8
SIZE
100
AcDbLine
 10
-160.4999999999999
 20
515.4253096269338
 30
0.0
 11
-160.4999999999999
 21
684.8188441524416
 31
0.0
  0
CIRCLE
  5
9D4B
330
1E
100
AcDbEntity
  8
SIZE
100
AcDbCircle
 10
-461.1961100000008
 20
550.0
 30
0.0
 40
6.0
  0
TEXT
  5
9D4C
330
1E
100
AcDbEntity
  8
SIZE
100
AcDbText
 10
-287.8559299999997
 20
688.8216360885408
 30
0.0
 40
64.0
  1
18
 41
0.9452968306025763
 72
     5
 11
-201.4287912020499
 21
688.8216360885408
 31
0.0
100
AcDbText
  0
LINE
  5
9D4F
330
1E
100
AcDbEntity
  8
SIZE
100
AcDbLine
 10
125.5
 20
376.7692897344003
 30
0.0
 11
325.3754466416538
 21
376.7692897344003
 31
0.0
  0
TEXT
  5
9D50
330
1E
100
AcDbEntity
  8
SIZE
100
AcDbText
 10
152.2371959999999
 20
408.7692797344007
 30
0.0
 40
64.0
  1
170.4
 41
0.7916349426668578
 72
     5
 11
347.6579361326185
 21
408.7692797344007
 31
0.0
100
AcDbText
  0
LINE
  5
9D51
330
1E
100
AcDbEntity
  8
SIZE
100
AcDbLine
 10
142.5
 20
571.0000399999999
 30
0.0
 11
142.5
 21
681.0842245300599
 31
0.0
  0
LINE
  5
9D52
330
1E
100
AcDbEntity
  8
SIZE
100
AcDbLine
 10
-142.4999800000005
 20
571.0000399999999
 30
0.0
 11
-142.4999800000005
 21
686.4193932870639
 31
0.0
  0
LINE
  5
9D54
330
1E
100
AcDbEntity
  8
SIZE
100
AcDbLine
 10
125.5
 20
376.7692897344003
 30
0.0
 11
-27.89999999999963
 21
376.7692897344003
 31
0.0
  0
LINE
  5
9D56
330
1E
100
AcDbEntity
  8
DETAIL
 62
     5
100
AcDbLine
 10
-142.5
 20
550.0
 30
0.0
 11
142.5
 21
550.0
 31
0.0
  0
ARC
  5
9D57
330
1E
100
AcDbEntity
  8
DETAIL
 62
     5
100
AcDbCircle
 10
-38.62776590984868
 20
730.9895370166969
 30
0.0
 40
259.5053564457399
100
AcDbArc
 50
268.6443959919472
 51
270.0183179583934
  0
LINE
  5
9D58
330
1E
100
AcDbEntity
  8
DETAIL
 62
     5
100
AcDbLine
 10
41.30113659291963
 20
458.5153934667505
 30
0.0
 11
-63.3908076927346
 21
458.5153934667505
 31
0.0
  0
LINE
  5
9D59
330
1E
100
AcDbEntity
  8
DETAIL
 62
     5
100
AcDbLine
 10
-11.04487488540508
 20
488.074670313651
 30
0.0
 11
-44.35856885329122
 21
488.0745855152126
 31
0.0
  0
LINE
  5
9D5A
330
1E
100
AcDbEntity
  8
DETAIL
 62
     5
100
AcDbLine
 10
-82.52022323148958
 20
495.1621377386118
 30
0.0
 11
-11.0448391212667
 21
495.1621838253831
 31
0.0
  0
ARC
  5
9D5B
330
1E
100
AcDbEntity
  8
DETAIL
 62
     5
100
AcDbCircle
 10
-38.44670358782968
 20
685.950762850558
 30
0.0
 40
257.2461981084014
100
AcDbArc
 50
268.4090291999483
 51
269.9781425261781
  0
LINE
  5
9D5C
330
1E
100
AcDbEntity
  8
DETAIL
 62
     5
100
AcDbLine
 10
41.29505668467754
 20
441.7598224694647
 30
0.0
 11
-63.34536624130485
 21
441.7598224694826
 31
0.0
  0
LINE
  5
9D5D
330
1E
100
AcDbEntity
  8
DETAIL
 62
     5
100
AcDbLine
 10
-48.52559212298364
 20
342.2629010359103
 30
0.0
 11
26.43595300620654
 21
342.2628815969037
 31
0.0
  0
LINE
  5
9D5E
330
1E
100
AcDbEntity
  8
DETAIL
 62
     5
100
AcDbLine
 10
-48.52559212298364
 20
352.2629010359103
 30
0.0
 11
26.43595300620654
 21
352.2628815969028
 31
0.0
  0
LINE
  5
9D5F
330
1E
100
AcDbEntity
  8
DETAIL
 62
     5
100
AcDbLine
 10
-48.52559194563582
 20
346.0905823426028
 30
0.0
 11
26.43595318355437
 21
346.0906060893793
 31
0.0
  0
LINE
  5
9D60
330
1E
100
AcDbEntity
  8
DETAIL
 62
     5
100
AcDbLine
 10
-48.52559212298364
 20
362.2629010359105
 30
0.0
 11
26.43595300620654
 21
362.2628815969036
 31
0.0
  0
LINE
  5
9D61
330
1E
100
AcDbEntity
  8
DETAIL
 62
     5
100
AcDbLine
 10
-48.52559194563582
 20
356.0905823426028
 30
0.0
 11
26.43595318355437
 21
356.0906060893793
 31
0.0
  0
LINE
  5
9D62
330
1E
100
AcDbEntity
  8
DETAIL
 62
     5
100
AcDbLine
 10
-86.99998776813663
 20
377.2664558749675
 30
0.0
 11
-86.99999986655164
 21
490.5250513988285
 31
0.0
  0
ARC
  5
9D63
330
1E
100
AcDbEntity
  8
DETAIL
 62
     5
100
AcDbCircle
 10
-48.52559292328805
 20
349.1767416892571
 30
0.0
 40
3.086159346653877
100
AcDbArc
 50
90.0
 51
270.0
  0
LINE
  5
9D64
330
1E
100
AcDbEntity
  8
DETAIL
 62
     5
100
AcDbLine
 10
-43.54483912171054
 20
352.2882105569788
 30
0.0
 11
-43.54483912171054
 21
346.1177055640425
 31
0.0
  0
ARC
  5
9D65
330
1E
100
AcDbEntity
  8
DETAIL
 62
     5
100
AcDbCircle
 10
-48.52559292328805
 20
359.1767416892571
 30
0.0
 40
3.086159346653986
100
AcDbArc
 50
90.0
 51
270.0
  0
LINE
  5
9D66
330
1E
100
AcDbEntity
  8
DETAIL
 62
     5
100
AcDbLine
 10
-43.54483912171054
 20
362.2882105569788
 30
0.0
 11
-43.54483912171054
 21
356.1177055640436
 31
0.0
  0
LINE
  5
9D67
330
1E
100
AcDbEntity
  8
DETAIL
 62
     5
100
AcDbLine
 10
-79.47376624712706
 20
464.4275713921214
 30
0.0
 11
-79.47376624712706
 21
434.6433976166397
 31
0.0
  0
LINE
  5
9D68
330
1E
100
AcDbEntity
  8
DETAIL
 62
     5
100
AcDbLine
 10
-71.66915082168998
 20
430.9445937990131
 30
0.0
 11
-75.08219524889681
 21
431.4435771790647
 31
0.0
  0
ARC
  5
9D69
330
1E
100
AcDbEntity
  8
DETAIL
 62
     5
100
AcDbCircle
 10
-63.34536624130851
 20
419.9252077675716
 30
0.0
 40
21.83461470191147
100
AcDbArc
 50
90.0
 51
137.6175622694069
  0
ARC
  5
9D6A
330
1E
100
AcDbEntity
  8
DETAIL
 62
     5
100
AcDbCircle
 10
-74.23839907043656
 20
437.2151398397327
 30
0.0
 40
5.832917583577533
100
AcDbArc
 50
206.1614157519689
 51
261.6823462087439
  0
LINE
  5
9D6B
330
1E
100
AcDbEntity
  8
DETAIL
 62
     5
100
AcDbLine
 10
-57.11069923940522
 20
429.3972744689254
 30
0.0
 11
-59.63540334500976
 21
429.6003841094369
 31
0.0
  0
ARC
  5
9D6C
330
1E
100
AcDbEntity
  8
DETAIL
 62
     5
100
AcDbCircle
 10
-40.87493739109413
 20
653.1108130489701
 30
0.0
 40
224.2902417775445
100
AcDbArc
 50
262.1085769442789
 51
263.7489140270405
  0
ARC
  5
9D6D
330
1E
100
AcDbEntity
  8
DETAIL
 62
     5
100
AcDbCircle
 10
-40.16752503961106
 20
657.8563314120303
 30
0.0
 40
229.0846475971656
100
AcDbArc
 50
263.7022722050242
 51
265.1250586999438
  0
ARC
  5
9D6E
330
1E
100
AcDbEntity
  8
DETAIL
 62
     5
100
AcDbCircle
 10
-38.24453826600802
 20
685.7849804133284
 30
0.0
 40
257.0861756068032
100
AcDbArc
 50
266.9757322353081
 51
268.3629649696025
  0
ARC
  5
9D6F
330
1E
100
AcDbEntity
  8
DETAIL
 62
     5
100
AcDbCircle
 10
-38.09585566131136
 20
684.1148402645792
 30
0.0
 40
255.4263154045838
100
AcDbArc
 50
265.7307488849444
 51
266.9226616300341
  0
ARC
  5
9D70
330
1E
100
AcDbEntity
  8
DETAIL
 62
     5
100
AcDbCircle
 10
-62.17209327275122
 20
441.8767531842632
 30
0.0
 40
1.218643076026479
100
AcDbArc
 50
179.9850225954945
 51
185.5077994059571
  0
LINE
  5
9D71
330
1E
100
AcDbEntity
  8
DETAIL
 62
     5
100
AcDbLine
 10
-44.35856885329122
 20
488.0745855152126
 30
0.0
 11
-77.67226282117555
 21
488.0745007167734
 31
0.0
  0
ARC
  5
9D72
330
1E
100
AcDbEntity
  8
DETAIL
 62
     5
100
AcDbCircle
 10
-40.85694239366967
 20
710.9721738676507
 30
0.0
 40
239.3788951350264
100
AcDbArc
 50
261.8199237980653
 51
264.1486551277127
  0
LWPOLYLINE
  5
9D73
330
1E
100
AcDbEntity
  8
DETAIL
 62
     5
100
AcDbPolyline
 90
       10
 70
     0
 43
0.0
 10
-76.07733947754605
 20
460.6039292804466
 10
-75.59063798269926
 20
460.2412587189891
 10
-74.78961947155403
 20
459.8896077150606
 10
-73.6986225148612
 20
459.5596610190405
 10
-72.35079654207584
 20
459.2614439061184
 10
-70.78709461151447
 20
459.0040175630238
 10
-69.05502907095797
 20
458.7952037681279
 10
-67.20722791729349
 20
458.6413472303869
 10
-65.29983571958291
 20
458.5471228083441
 10
-63.39080769273278
 20
458.5153934667505
  0
LINE
  5
9D74
330
1E
100
AcDbEntity
  8
DETAIL
 62
     5
100
AcDbLine
 10
-79.47376624712706
 20
464.4275713921214
 30
0.0
 11
-76.07733947754605
 21
460.6039292804472
 31
0.0
  0
LINE
  5
9D75
330
1E
100
AcDbEntity
  8
DETAIL
 62
     5
100
AcDbLine
 10
-80.87134987725219
 20
486.9267777369868
 30
0.0
 11
-74.91690729892434
 21
474.0287750849064
 31
0.0
  0
ARC
  5
9D76
330
1E
100
AcDbEntity
  8
DETAIL
 62
     5
100
AcDbCircle
 10
-76.78676282530794
 20
482.5640803287533
 30
0.0
 40
6.041211316802997
100
AcDbArc
 50
172.6821710185129
 51
180.1704535023899
  0
ARC
  5
9D77
330
1E
100
AcDbEntity
  8
DETAIL
 62
     5
100
AcDbCircle
 10
-77.0824596120874
 20
482.6367560324904
 30
0.0
 40
5.738769304636999
100
AcDbArc
 50
166.6459063440951
 51
173.0258206765905
  0
LINE
  5
9D78
330
1E
100
AcDbEntity
  8
DETAIL
 62
     5
100
AcDbLine
 10
-82.60207092022756
 20
484.2110267198304
 30
0.0
 11
-82.66605974683804
 21
483.9622305388767
 31
0.0
  0
ARC
  5
9D79
330
1E
100
AcDbEntity
  8
DETAIL
 62
     5
100
AcDbCircle
 10
-76.41154129728784
 20
482.4493621687968
 30
0.0
 40
6.436312531476732
100
AcDbArc
 50
159.5480294302053
 51
164.1150183721723
  0
ARC
  5
9D7A
330
1E
100
AcDbEntity
  8
DETAIL
 62
     5
100
AcDbCircle
 10
-76.84724708525209
 20
482.5600278955371
 30
0.0
 40
5.989599035489986
100
AcDbArc
 50
152.4195543016928
 51
159.0835506084144
  0
ARC
  5
9D7B
330
1E
100
AcDbEntity
  8
DETAIL
 62
     5
100
AcDbCircle
 10
-77.18390618964804
 20
482.6941900807057
 30
0.0
 40
5.629202392879411
100
AcDbArc
 50
143.4610205979896
 51
152.0434142942235
  0
LINE
  5
9D7C
330
1E
100
AcDbEntity
  8
DETAIL
 62
     5
100
AcDbLine
 10
-81.4088899248636
 20
486.4091734007305
 30
0.0
 11
-81.70670014120695
 21
486.0456456528026
 31
0.0
  0
ARC
  5
9D7D
330
1E
100
AcDbEntity
  8
DETAIL
 62
     5
100
AcDbCircle
 10
-77.7047734615262
 20
483.1003155642489
 30
0.0
 40
4.966791615925266
100
AcDbArc
 50
126.3100524953822
 51
138.2258377432741
  0
ARC
  5
9D7E
330
1E
100
AcDbEntity
  8
DETAIL
 62
     5
100
AcDbCircle
 10
-77.72781590514023
 20
483.1609382201368
 30
0.0
 40
4.904326330477466
100
AcDbArc
 50
115.3837446698308
 51
126.5125120193234
  0
LINE
  5
9D7F
330
1E
100
AcDbEntity
  8
DETAIL
 62
     5
100
AcDbLine
 10
-79.66234421190165
 20
487.6680965552259
 30
0.0
 11
-79.83019678707023
 21
487.5917859249348
 31
0.0
  0
ARC
  5
9D80
330
1E
100
AcDbEntity
  8
DETAIL
 62
     5
100
AcDbCircle
 10
-77.57051449203027
 20
482.7620571619809
 30
0.0
 40
5.333382988779533
100
AcDbArc
 50
107.5284298732156
 51
113.0923574829252
  0
ARC
  5
9D81
330
1E
100
AcDbEntity
  8
DETAIL
 62
     5
100
AcDbCircle
 10
-77.62194293356151
 20
482.7700195587491
 30
0.0
 40
5.310505973784266
100
AcDbArc
 50
99.59586687562023
 51
107.0251922385754
  0
ARC
  5
9D82
330
1E
100
AcDbEntity
  8
DETAIL
 62
     5
100
AcDbCircle
 10
-77.65381370127944
 20
482.709960441698
 30
0.0
 40
5.364571999044346
100
AcDbArc
 50
90.19704438487927
 51
99.15330355391485
  0
LINE
  5
9D83
330
1E
100
AcDbEntity
  8
DETAIL
 62
     5
100
AcDbLine
 10
-82.82794740833557
 20
482.5461079036013
 30
0.0
 11
-82.82785980803055
 21
482.4828918507273
 31
0.0
  0
LINE
  5
9D84
330
1E
100
AcDbEntity
  8
DETAIL
 62
     5
100
AcDbLine
 10
-82.33805570210099
 20
482.5461134324123
 30
0.0
 11
-82.33805316461255
 21
482.4828918507273
 31
0.0
  0
ARC
  5
9D85
330
1E
100
AcDbEntity
  8
DETAIL
 62
     5
100
AcDbCircle
 10
-82.52022034124275
 20
490.6796900039942
 30
0.0
 40
4.482447734618305
100
AcDbArc
 50
90.0
 51
181.9770220178115
  0
ARC
  5
9D86
330
1E
100
AcDbEntity
  8
DETAIL
 62
     5
100
AcDbCircle
 10
-39.84936415738774
 20
719.0793373587721
 30
0.0
 40
247.5466010993581
100
AcDbArc
 50
264.107960566245
 51
265.650398259784
  0
ARC
  5
9D87
330
1E
100
AcDbEntity
  8
DETAIL
 62
     5
100
AcDbCircle
 10
-38.87241947119036
 20
727.8809323024415
 30
0.0
 40
256.3918909143095
100
AcDbArc
 50
267.4470135785024
 51
268.6826189252156
  0
LINE
  5
9D88
330
1E
100
AcDbEntity
  8
DETAIL
 62
     5
100
AcDbLine
 10
-58.62378739708217
 20
472.2457076648796
 30
0.0
 11
-55.04845469044084
 21
471.9973233360867
 31
0.0
  0
ARC
  5
9D89
330
1E
100
AcDbEntity
  8
DETAIL
 62
     5
100
AcDbCircle
 10
-39.2969700877802
 20
722.4550909609024
 30
0.0
 40
250.9525904046298
100
AcDbArc
 50
266.4013631901848
 51
267.4886680591859
  0
LINE
  5
9D8A
330
1E
100
AcDbEntity
  8
DETAIL
 62
     5
100
AcDbLine
 10
64.91029766241938
 20
321.0521339616445
 30
0.0
 11
64.91030952472101
 21
450.8495952274468
 31
0.0
  0
LINE
  5
9D8B
330
1E
100
AcDbEntity
  8
DETAIL
 62
     5
100
AcDbLine
 10
60.73818156460766
 20
391.974690659027
 30
0.0
 11
60.73823843098944
 21
437.2605045864967
 31
0.0
  0
CIRCLE
  5
9D8C
330
1E
100
AcDbEntity
  8
SIZE
100
AcDbCircle
 10
-28.0
 20
376.7692897344003
 30
0.0
 40
6.0
  0
LINE
  5
9D8D
330
1E
100
AcDbEntity
  8
DETAIL
 62
     5
100
AcDbLine
 10
-36.54483912171054
 20
352.2882105569788
 30
0.0
 11
-36.54483912171054
 21
346.1177055640425
 31
0.0
  0
LINE
  5
9D8E
330
1E
100
AcDbEntity
  8
DETAIL
 62
     5
100
AcDbLine
 10
-34.54483912171236
 20
352.2719735230221
 30
0.0
 11
-34.54483912171236
 21
346.1002843969954
 31
0.0
  0
LINE
  5
9D8F
330
1E
100
AcDbEntity
  8
DETAIL
 62
     5
100
AcDbLine
 10
-41.54483912171054
 20
352.2719735230221
 30
0.0
 11
-41.54483912171054
 21
346.1002843969954
 31
0.0
  0
LINE
  5
9D90
330
1E
100
AcDbEntity
  8
DETAIL
 62
     5
100
AcDbLine
 10
-15.54483912171233
 20
352.2882105569788
 30
0.0
 11
-15.54483912171233
 21
346.1177055640425
 31
0.0
  0
LINE
  5
9D91
330
1E
100
AcDbEntity
  8
DETAIL
 62
     5
100
AcDbLine
 10
-13.54483912171053
 20
352.2719735230221
 30
0.0
 11
-13.54483912171053
 21
346.1002843969954
 31
0.0
  0
LINE
  5
9D92
330
1E
100
AcDbEntity
  8
DETAIL
 62
     5
100
AcDbLine
 10
-22.54483912171053
 20
352.2882105569788
 30
0.0
 11
-22.54483912171053
 21
346.1177055640425
 31
0.0
  0
LINE
  5
9D93
330
1E
100
AcDbEntity
  8
DETAIL
 62
     5
100
AcDbLine
 10
-20.54483912171235
 20
352.2719735230221
 30
0.0
 11
-20.54483912171235
 21
346.1002843969954
 31
0.0
  0
LINE
  5
9D94
330
1E
100
AcDbEntity
  8
DETAIL
 62
     5
100
AcDbLine
 10
-29.54483912171236
 20
352.2882105569788
 30
0.0
 11
-29.54483912171236
 21
346.1177055640425
 31
0.0
  0
LINE
  5
9D95
330
1E
100
AcDbEntity
  8
DETAIL
 62
     5
100
AcDbLine
 10
-27.54483912171053
 20
352.2719735230221
 30
0.0
 11
-27.54483912171053
 21
346.1002843969954
 31
0.0
  0
LINE
  5
9D96
330
1E
100
AcDbEntity
  8
DETAIL
 62
     5
100
AcDbLine
 10
-36.54483912171054
 20
362.2882105569788
 30
0.0
 11
-36.54483912171054
 21
356.1177055640436
 31
0.0
  0
LINE
  5
9D97
330
1E
100
AcDbEntity
  8
DETAIL
 62
     5
100
AcDbLine
 10
-34.54483912171236
 20
362.2719735230222
 30
0.0
 11
-34.54483912171236
 21
356.1002843969954
 31
0.0
  0
LINE
  5
9D98
330
1E
100
AcDbEntity
  8
DETAIL
 62
     5
100
AcDbLine
 10
-41.54483912171054
 20
362.2719735230222
 30
0.0
 11
-41.54483912171054
 21
356.1002843969954
 31
0.0
  0
LINE
  5
9D99
330
1E
100
AcDbEntity
  8
DETAIL
 62
     5
100
AcDbLine
 10
-15.54483912171233
 20
362.2882105569788
 30
0.0
 11
-15.54483912171233
 21
356.1177055640436
 31
0.0
  0
LINE
  5
9D9A
330
1E
100
AcDbEntity
  8
DETAIL
 62
     5
100
AcDbLine
 10
-13.54483912171053
 20
362.2719735230222
 30
0.0
 11
-13.54483912171053
 21
356.1002843969954
 31
0.0
  0
LINE
  5
9D9B
330
1E
100
AcDbEntity
  8
DETAIL
 62
     5
100
AcDbLine
 10
-22.54483912171053
 20
362.2882105569788
 30
0.0
 11
-22.54483912171053
 21
356.1177055640436
 31
0.0
  0
LINE
  5
9D9C
330
1E
100
AcDbEntity
  8
DETAIL
 62
     5
100
AcDbLine
 10
-20.54483912171235
 20
362.2719735230222
 30
0.0
 11
-20.54483912171235
 21
356.1002843969954
 31
0.0
  0
LINE
  5
9D9D
330
1E
100
AcDbEntity
  8
DETAIL
 62
     5
100
AcDbLine
 10
-29.54483912171236
 20
362.2882105569788
 30
0.0
 11
-29.54483912171236
 21
356.1177055640436
 31
0.0
  0
LINE
  5
9D9E
330
1E
100
AcDbEntity
  8
DETAIL
 62
     5
100
AcDbLine
 10
-27.54483912171053
 20
362.2719735230222
 30
0.0
 11
-27.54483912171053
 21
356.1002843969954
 31
0.0
  0
LINE
  5
9D9F
330
1E
100
AcDbEntity
  8
DETAIL
 62
     5
100
AcDbLine
 10
-8.544839121710538
 20
352.2882105569788
 30
0.0
 11
-8.544839121710538
 21
346.1177055640425
 31
0.0
  0
LINE
  5
9DA0
330
1E
100
AcDbEntity
  8
DETAIL
 62
     5
100
AcDbLine
 10
-6.544839121710537
 20
352.2719735230221
 30
0.0
 11
-6.544839121710537
 21
346.1002843969954
 31
0.0
  0
LINE
  5
9DA1
330
1E
100
AcDbEntity
  8
DETAIL
 62
     5
100
AcDbLine
 10
-8.544839121710538
 20
362.2882105569788
 30
0.0
 11
-8.544839121710538
 21
356.1177055640436
 31
0.0
  0
LINE
  5
9DA2
330
1E
100
AcDbEntity
  8
DETAIL
 62
     5
100
AcDbLine
 10
-6.544839121710537
 20
362.2719735230222
 30
0.0
 11
-6.544839121710537
 21
356.1002843969954
 31
0.0
  0
LINE
  5
9DA3
330
1E
100
AcDbEntity
  8
DETAIL
 62
     5
100
AcDbLine
 10
12.45516087828946
 20
352.2882105569788
 30
0.0
 11
12.45516087828946
 21
346.1177055640425
 31
0.0
  0
LINE
  5
9DA4
330
1E
100
AcDbEntity
  8
DETAIL
 62
     5
100
AcDbLine
 10
14.45516087828764
 20
352.2719735230221
 30
0.0
 11
14.45516087828764
 21
346.1002843969954
 31
0.0
  0
LINE
  5
9DA5
330
1E
100
AcDbEntity
  8
DETAIL
 62
     5
100
AcDbLine
 10
5.455160878287641
 20
352.2882105569788
 30
0.0
 11
5.455160878287641
 21
346.1177055640425
 31
0.0
  0
LINE
  5
9DA6
330
1E
100
AcDbEntity
  8
DETAIL
 62
     5
100
AcDbLine
 10
7.45516087828946
 20
352.2719735230221
 30
0.0
 11
7.45516087828946
 21
346.1002843969954
 31
0.0
  0
LINE
  5
9DA7
330
1E
100
AcDbEntity
  8
DETAIL
 62
     5
100
AcDbLine
 10
-1.544839121710535
 20
352.2882105569788
 30
0.0
 11
-1.544839121710535
 21
346.1177055640425
 31
0.0
  0
LINE
  5
9DA8
330
1E
100
AcDbEntity
  8
DETAIL
 62
     5
100
AcDbLine
 10
0.455160878287643
 20
352.2719735230221
 30
0.0
 11
0.455160878287643
 21
346.1002843969954
 31
0.0
  0
LINE
  5
9DA9
330
1E
100
AcDbEntity
  8
DETAIL
 62
     5
100
AcDbLine
 10
12.45516087828946
 20
362.2882105569788
 30
0.0
 11
12.45516087828946
 21
356.1177055640436
 31
0.0
  0
LINE
  5
9DAA
330
1E
100
AcDbEntity
  8
DETAIL
 62
     5
100
AcDbLine
 10
14.45516087828764
 20
362.2719735230222
 30
0.0
 11
14.45516087828764
 21
356.1002843969954
 31
0.0
  0
LINE
  5
9DAB
330
1E
100
AcDbEntity
  8
DETAIL
 62
     5
100
AcDbLine
 10
5.455160878287641
 20
362.2882105569788
 30
0.0
 11
5.455160878287641
 21
356.1177055640436
 31
0.0
  0
LINE
  5
9DAC
330
1E
100
AcDbEntity
  8
DETAIL
 62
     5
100
AcDbLine
 10
7.45516087828946
 20
362.2719735230222
 30
0.0
 11
7.45516087828946
 21
356.1002843969954
 31
0.0
  0
LINE
  5
9DAD
330
1E
100
AcDbEntity
  8
DETAIL
 62
     5
100
AcDbLine
 10
-1.544839121710535
 20
362.2882105569788
 30
0.0
 11
-1.544839121710535
 21
356.1177055640436
 31
0.0
  0
LINE
  5
9DAE
330
1E
100
AcDbEntity
  8
DETAIL
 62
     5
100
AcDbLine
 10
0.455160878287643
 20
362.2719735230222
 30
0.0
 11
0.455160878287643
 21
356.1002843969954
 31
0.0
  0
LINE
  5
9DAF
330
1E
100
AcDbEntity
  8
DETAIL
 62
     5
100
AcDbLine
 10
19.45516087828764
 20
352.2882105569788
 30
0.0
 11
19.45516087828764
 21
346.1177055640425
 31
0.0
  0
LINE
  5
9DB0
330
1E
100
AcDbEntity
  8
DETAIL
 62
     5
100
AcDbLine
 10
21.45516087828946
 20
352.2719735230221
 30
0.0
 11
21.45516087828946
 21
346.1002843969954
 31
0.0
  0
ARC
  5
9DB1
330
1E
100
AcDbEntity
  8
DETAIL
 62
     5
100
AcDbCircle
 10
26.43595220590758
 20
349.1767438431407
 30
0.0
 40
3.086137753761838
100
AcDbArc
 50
270.0
 51
90.0
  0
LINE
  5
9DB2
330
1E
100
AcDbEntity
  8
DETAIL
 62
     5
100
AcDbLine
 10
19.45516087828764
 20
362.2882105569788
 30
0.0
 11
19.45516087828764
 21
356.1177055640436
 31
0.0
  0
LINE
  5
9DB3
330
1E
100
AcDbEntity
  8
DETAIL
 62
     5
100
AcDbLine
 10
21.45516087828946
 20
362.2719735230222
 30
0.0
 11
21.45516087828946
 21
356.1002843969954
 31
0.0
  0
ARC
  5
9DB4
330
1E
100
AcDbEntity
  8
DETAIL
 62
     5
100
AcDbCircle
 10
26.43595220590758
 20
359.1767438431414
 30
0.0
 40
3.086137753761838
100
AcDbArc
 50
270.0
 51
90.0
  0
LINE
  5
9DB5
330
1E
100
AcDbEntity
  8
DETAIL
 62
     5
100
AcDbLine
 10
-11.0448391212667
 20
495.1621838253831
 30
0.0
 11
24.69285293380016
 21
495.1621607819979
 31
0.0
  0
ARC
  5
9DB6
330
1E
100
AcDbEntity
  8
DETAIL
 62
     5
100
AcDbCircle
 10
16.37374348314551
 20
745.0714914745486
 30
0.0
 40
273.5873097439802
100
AcDbArc
 50
270.0170425299365
 51
271.320243518977
  0
LINE
  5
9DB7
330
1E
100
AcDbEntity
  8
DETAIL
 62
     5
100
AcDbLine
 10
20.07457895405423
 20
428.7307442743029
 30
0.0
 11
16.45516087828946
 21
428.7045834517685
 31
0.0
  0
LINE
  5
9DB8
330
1E
100
AcDbEntity
  8
DETAIL
 62
     5
100
AcDbLine
 10
55.58243568178659
 20
488.0746292275343
 30
0.0
 11
-11.04487488540508
 21
488.074670313651
 31
0.0
  0
LINE
  5
9DB9
330
1E
100
AcDbEntity
  8
DETAIL
 62
     5
100
AcDbLine
 10
-11.04483912171053
 20
428.7045096770998
 30
0.0
 11
-24.79483912171053
 21
428.7045465689343
 31
0.0
  0
LINE
  5
9DBA
330
1E
100
AcDbEntity
  8
DETAIL
 62
     5
100
AcDbLine
 10
-24.79483912171053
 20
428.7045465689343
 30
0.0
 11
-38.54483912171053
 21
428.7045834607678
 31
0.0
  0
LINE
  5
9DBB
330
1E
100
AcDbEntity
  8
DETAIL
 62
     5
100
AcDbLine
 10
16.45516087828946
 20
428.7045834517685
 30
0.0
 11
-11.04483912171053
 21
428.7045096770998
 31
0.0
  0
LINE
  5
9DBC
330
1E
100
AcDbEntity
  8
DETAIL
 62
     5
100
AcDbLine
 10
-38.54479979461757
 20
471.48419383345
 30
0.0
 11
-11.04483912171053
 21
471.4841229214717
 31
0.0
  0
LINE
  5
9DBD
330
1E
100
AcDbEntity
  8
DETAIL
 62
     5
100
AcDbLine
 10
-11.04483912171053
 20
471.4841229214717
 30
0.0
 11
2.70514121474298
 21
471.4841583774613
 31
0.0
  0
LINE
  5
9DBE
330
1E
100
AcDbEntity
  8
DETAIL
 62
     5
100
AcDbLine
 10
2.70514121474298
 20
471.4841583774613
 30
0.0
 11
16.45512155119468
 21
471.48419383345
 31
0.0
  0
LINE
  5
9DBF
330
1E
100
AcDbEntity
  8
DETAIL
 62
     5
100
AcDbLine
 10
64.91030952472101
 20
450.8495952274468
 30
0.0
 11
64.9103216231415
 21
490.525051464401
 31
0.0
  0
LINE
  5
9DC0
330
1E
100
AcDbEntity
  8
DETAIL
 62
     5
100
AcDbLine
 10
60.73823843098944
 20
437.2605045864967
 30
0.0
 11
60.73829529737121
 21
482.5463185139652
 31
0.0
  0
LINE
  5
9DC1
330
1E
100
AcDbEntity
  8
DETAIL
 62
     5
100
AcDbLine
 10
57.38408800370234
 20
464.4275713921214
 30
0.0
 11
57.38408800370234
 21
434.643397616639
 31
0.0
  0
ARC
  5
9DC2
330
1E
100
AcDbEntity
  8
DETAIL
 62
     5
100
AcDbCircle
 10
17.95703591498021
 20
659.4313501382019
 30
0.0
 40
230.6640620580465
100
AcDbArc
 50
277.0612327531865
 51
278.736449805954
  0
ARC
  5
9DC3
330
1E
100
AcDbEntity
  8
DETAIL
 62
     5
100
AcDbCircle
 10
41.29505668467571
 20
420.0143225961891
 30
0.0
 40
21.74549987327579
100
AcDbArc
 50
42.27891966320771
 51
90.0
  0
ARC
  5
9DC4
330
1E
100
AcDbEntity
  8
DETAIL
 62
     5
100
AcDbCircle
 10
16.67655648749494
 20
670.8079190349932
 30
0.0
 40
242.1010225025925
100
AcDbArc
 50
270.8042045294407
 51
272.3770258670985
  0
ARC
  5
9DC5
330
1E
100
AcDbEntity
  8
DETAIL
 62
     5
100
AcDbCircle
 10
17.1063293971747
 20
665.5118506891112
 30
0.0
 40
236.7917792607664
100
AcDbArc
 50
272.3262736540098
 51
273.7249777559188
  0
LINE
  5
9DC6
330
1E
100
AcDbEntity
  8
DETAIL
 62
     5
100
AcDbLine
 10
35.02102082369311
 20
429.3972744559741
 30
0.0
 11
32.49006084078791
 21
429.2203198794977
 31
0.0
  0
ARC
  5
9DC7
330
1E
100
AcDbEntity
  8
DETAIL
 62
     5
100
AcDbCircle
 10
16.20743893682265
 20
678.3290282874594
 30
0.0
 40
249.6416810731596
100
AcDbArc
 50
274.3220419261573
 51
275.5335153557595
  0
ARC
  5
9DC8
330
1E
100
AcDbEntity
  8
DETAIL
 62
     5
100
AcDbCircle
 10
16.81517245537725
 20
670.0121117461995
 30
0.0
 40
241.3049996288954
100
AcDbArc
 50
275.5803108060329
 51
277.0214636001286
  0
ARC
  5
9DC9
330
1E
100
AcDbEntity
  8
DETAIL
 62
     5
100
AcDbCircle
 10
40.08241502799682
 20
441.8767531843878
 30
0.0
 40
1.218266218695372
100
AcDbArc
 50
354.4922005886502
 51
0.0149777027842864
  0
ARC
  5
9DCA
330
1E
100
AcDbEntity
  8
DETAIL
 62
     5
100
AcDbCircle
 10
52.0940567389989
 20
437.2901632980719
 30
0.0
 40
5.915217608334397
100
AcDbArc
 50
278.736449805954
 51
333.4197871496492
  0
LWPOLYLINE
  5
9DCB
330
1E
100
AcDbEntity
  8
DETAIL
 62
     5
100
AcDbPolyline
 90
       10
 70
     0
 43
0.0
 10
41.30113659291963
 20
458.5153934667505
 10
43.21016386374322
 20
458.5471230191551
 10
45.11755511280717
 20
458.6413475897025
 10
46.96535520587349
 20
458.7952042116903
 10
48.69741965631693
 20
459.004018028197
 10
50.26112054744952
 20
459.2614443352856
 10
51.60894560558154
 20
459.5596613626748
 10
52.69994183681411
 20
459.8896079343385
 10
53.50095986338783
 20
460.2412587878343
 10
53.98766115103716
 20
460.6039291869101
  0
ARC
  5
9DCC
330
1E
100
AcDbEntity
  8
DETAIL
 62
     5
100
AcDbCircle
 10
17.04223919362084
 20
725.9629108220332
 30
0.0
 40
254.4674583709002
100
AcDbArc
 50
275.8936218252161
 51
278.0828980069493
  0
LINE
  5
9DCD
330
1E
100
AcDbEntity
  8
DETAIL
 62
     5
100
AcDbLine
 10
24.69285293380016
 20
495.1621607819979
 30
0.0
 11
60.11041060977731
 21
495.1621379450316
 31
0.0
  0
ARC
  5
9DCE
330
1E
100
AcDbEntity
  8
DETAIL
 62
     5
100
AcDbCircle
 10
16.19179742232518
 20
745.3705944890071
 30
0.0
 40
273.8905814059001
100
AcDbArc
 50
271.3568534699813
 51
272.5135140248263
  0
ARC
  5
9DCF
330
1E
100
AcDbEntity
  8
DETAIL
 62
     5
100
AcDbCircle
 10
16.59343974914372
 20
732.0934562641678
 30
0.0
 40
260.6117471420259
100
AcDbArc
 50
274.3882671135132
 51
275.8533740609367
  0
LINE
  5
9DD0
330
1E
100
AcDbEntity
  8
DETAIL
 62
     5
100
AcDbLine
 10
32.95877644702159
 20
471.9973233360867
 30
0.0
 11
36.53410915441418
 21
472.2457076649368
 31
0.0
  0
ARC
  5
9DD1
330
1E
100
AcDbEntity
  8
DETAIL
 62
     5
100
AcDbCircle
 10
16.02857656112973
 20
744.5407680416264
 30
0.0
 40
273.068784228695
100
AcDbArc
 50
272.5553642187339
 51
273.554604531154
  0
LINE
  5
9DD2
330
1E
100
AcDbEntity
  8
DETAIL
 62
     5
100
AcDbLine
 10
53.98766115103716
 20
460.6039291869101
 30
0.0
 11
57.38408800370234
 21
464.4275713921214
 31
0.0
  0
LINE
  5
9DD3
330
1E
100
AcDbEntity
  8
DETAIL
 62
     5
100
AcDbLine
 10
57.75531192489872
 20
487.5851112722547
 30
0.0
 11
57.29513299157588
 21
487.7778703820231
 31
0.0
  0
ARC
  5
9DD4
330
1E
100
AcDbEntity
  8
DETAIL
 62
     5
100
AcDbCircle
 10
55.6611840320329
 20
483.1959126534183
 30
0.0
 40
4.863171408378652
100
AcDbArc
 50
52.32352042602263
 51
64.49375213909974
  0
ARC
  5
9DD5
330
1E
100
AcDbEntity
  8
DETAIL
 62
     5
100
AcDbCircle
 10
55.60012936616295
 20
483.0860128623378
 30
0.0
 40
4.987506649111105
100
AcDbArc
 50
41.65545948481319
 51
52.54004161613063
  0
LINE
  5
9DD6
330
1E
100
AcDbEntity
  8
DETAIL
 62
     5
100
AcDbLine
 10
59.63567910429993
 20
486.0203960261642
 30
0.0
 11
59.32657035791999
 21
486.4009578256655
 31
0.0
  0
ARC
  5
9DD7
330
1E
100
AcDbEntity
  8
DETAIL
 62
     5
100
AcDbCircle
 10
55.21765585319008
 20
482.7732199816073
 30
0.0
 40
5.482981097148412
100
AcDbArc
 50
25.87013254939087
 51
36.31528822261457
  0
ARC
  5
9DD8
330
1E
100
AcDbEntity
  8
DETAIL
 62
     5
100
AcDbCircle
 10
54.91908166454415
 20
482.6402899708153
 30
0.0
 40
5.809645300550146
100
AcDbArc
 50
15.57839981588942
 51
25.76491054664173
  0
LINE
  5
9DD9
330
1E
100
AcDbEntity
  8
DETAIL
 62
     5
100
AcDbLine
 10
60.61092288577675
 20
483.8060455081321
 30
0.0
 11
60.51530313584407
 21
484.2005091100245
 31
0.0
  0
ARC
  5
9DDA
330
1E
100
AcDbEntity
  8
DETAIL
 62
     5
100
AcDbCircle
 10
54.89303703512269
 20
482.6079342915701
 30
0.0
 40
5.842062057901933
100
AcDbArc
 50
4.852541200415141
 51
11.83439394064653
  0
ARC
  5
9DDB
330
1E
100
AcDbEntity
  8
DETAIL
 62
     5
100
AcDbCircle
 10
54.87509592558672
 20
482.5701354222657
 30
0.0
 40
5.863247744928996
100
AcDbArc
 50
359.7672600342268
 51
5.205760166501382
  0
ARC
  5
9DDC
330
1E
100
AcDbEntity
  8
DETAIL
 62
     5
100
AcDbCircle
 10
55.56894214178647
 20
482.7697071073386
 30
0.0
 40
5.304939281175945
100
AcDbArc
 50
80.95307644589182
 51
89.85426341649313
  0
LINE
  5
9DDD
330
1E
100
AcDbEntity
  8
DETAIL
 62
     5
100
AcDbLine
 10
58.76975825652333
 20
486.9368147622417
 30
0.0
 11
52.82181872725779
 21
474.0234159861866
 31
0.0
  0
ARC
  5
9DDE
330
1E
100
AcDbEntity
  8
DETAIL
 62
     5
100
AcDbCircle
 10
55.57206633654096
 20
482.9571572957028
 30
0.0
 40
5.119397753477212
100
AcDbArc
 50
70.33159496753743
 51
80.65772142276809
  0
ARC
  5
9DDF
330
1E
100
AcDbEntity
  8
DETAIL
 62
     5
100
AcDbCircle
 10
60.27047480936744
 20
490.5250528792511
 30
0.0
 40
4.639846813772451
100
AcDbArc
 50
359.9999825285414
 51
91.97696680289395
  0
CIRCLE
  5
9DE0
330
1E
100
AcDbEntity
  8
SIZE
100
AcDbCircle
 10
142.5
 20
376.7692897344003
 30
0.0
 40
6.0
  0
TEXT
  5
9DE1
330
1E
100
AcDbEntity
  8
SIZE
100
AcDbText
 10
-74.05711999999948
 20
688.8216360885408
 30
0.0
 40
64.0
  1
285
 41
0.9722222222222224
 72
     5
 11
85.94288000000052
 21
688.8216360885408
 31
0.0
100
AcDbText
  0
LINE
  5
9DE2
330
1E
100
AcDbEntity
  8
SIZE
100
AcDbLine
 10
142.5
 20
656.8216260885401
 30
0.0
 11
0.0000099999997474
 21
656.8216260885401
 31
0.0
  0
LINE
  5
9DE3
330
1E
100
AcDbEntity
  8
SIZE
100
AcDbLine
 10
-142.4999800000005
 20
656.8216260885401
 30
0.0
 11
0.0000099999997474
 21
656.8216260885401
 31
0.0
  0
CIRCLE
  5
9DE6
330
1E
100
AcDbEntity
  8
SIZE
100
AcDbCircle
 10
-142.4999800000005
 20
656.8216260885401
 30
0.0
 40
6.0
  0
CIRCLE
  5
9DE7
330
1E
100
AcDbEntity
  8
SIZE
100
AcDbCircle
 10
-142.4999800000005
 20
656.8216260885401
 30
0.0
 40
6.0
  0
CIRCLE
  5
9DE8
330
1E
100
AcDbEntity
  8
SIZE
100
AcDbCircle
 10
142.5
 20
656.8216260885401
 30
0.0
 40
6.0
  0
TEXT
  5
9F57
330
1E
100
AcDbEntity
  8
ETC
100
AcDbText
 10
292.1957722832812
 20
780.5941083613478
 30
0.0
 40
64.0
  1
MXZ-2F42VF_4
 41
0.9
100
AcDbText
  0
TEXT
  5
A613
330
1E
100
AcDbEntity
  8
NOTE
100
AcDbText
 10
517.588103305372
 20
447.1055195165272
 30
0.0
 40
64.0
  1
RL%%C6.35(A,B Unit）
 41
0.9
100
AcDbText
  0
LINE
  5
A614
330
1E
100
AcDbEntity
  8
NOTE
100
AcDbLine
 10
1279.635701635854
 20
428.4185495165274
 30
0.0
 11
474.9343050003371
 21
428.4185495165266
 31
0.0
  0
TEXT
  5
A615
330
1E
100
AcDbEntity
  8
NOTE
100
AcDbText
 10
496.5544521396841
 20
-75.05338620818292
 30
0.0
 40
64.0
  1
RG%%C9.52（A,B Unit）
 41
0.9
100
AcDbText
  0
LINE
  5
A616
330
1E
100
AcDbEntity
  8
NOTE
100
AcDbLine
 10
1269.985356594119
 20
-94.18786620818265
 30
0.0
 11
461.4415321498781
 21
-94.18786620818265
 31
0.0
  0
ARC
  5
A7C3
330
1E
100
AcDbEntity
  8
DETAIL
 62
     5
100
AcDbCircle
 10
-127.2244609153702
 20
220.4803115744926
 30
0.0
 40
47.69043399260843
100
AcDbArc
 50
32.49378501051432
 51
72.64647496955908
  0
ARC
  5
A7C9
330
1E
100
AcDbEntity
  8
DETAIL
 62
     5
100
AcDbCircle
 10
-109.8033090088477
 20
270.0983425710769
 30
0.0
 40
5.197615466054513
100
AcDbArc
 50
181.0841414784239
 51
232.0459625243664
  0
ARC
  5
A7DA
330
1E
100
AcDbEntity
  8
DETAIL
 62
     5
100
AcDbCircle
 10
-109.8626653703549
 20
358.5029632191377
 30
0.0
 40
5.137789123484242
100
AcDbArc
 50
127.6356636938335
 51
179.2342356006821
  0
ARC
  5
A7DC
330
1E
100
AcDbEntity
  8
DETAIL
 62
     5
100
AcDbCircle
 10
-66.72762194956574
 20
192.0657607163845
 30
0.0
 40
176.67309769821
100
AcDbArc
 50
102.5110672809766
 51
105.1833990552897
  0
LINE
  5
A7F1
330
1E
100
AcDbEntity
  8
DETAIL
 62
     5
100
AcDbLine
 10
-114.9999956288809
 20
358.5716282919793
 30
0.0
 11
-114.9999940360244
 21
270.0
 31
0.0
  0
LWPOLYLINE
  5
A7F5
330
1E
100
AcDbEntity
  8
DETAIL
 62
     5
100
AcDbPolyline
 90
       32
 70
     1
 43
0.0
 10
-100.9999809885358
 20
322.3039446724488
 10
-102.463158403656
 20
322.1534634689603
 10
-103.8701067312741
 20
321.7078027667557
 10
-105.1667577361822
 20
320.9840890566892
 10
-106.303281847433
 20
320.0101342507772
 10
-107.2360030808032
 20
318.8233668860098
 10
-107.9290774823694
 20
317.4693937666688
 10
-108.355870591562
 20
316.000247320413
 10
-108.4999809885358
 20
314.4723860212652
 10
-108.355870591562
 20
312.9445247221178
 10
-107.9290774823694
 20
311.4753782758616
 10
-107.2360030808032
 20
310.1214051565202
 10
-106.303281847433
 20
308.9346377917536
 10
-105.1667577361822
 20
307.9606829858411
 10
-103.8701067312741
 20
307.2369692757752
 10
-102.463158403656
 20
306.7913085735697
 10
-100.9999809885358
 20
306.6408273700817
 10
-99.53680357341552
 20
306.7913085735697
 10
-98.12985524579751
 20
307.2369692757752
 10
-96.83320424088933
 20
307.9606829858411
 10
-95.69668012963855
 20
308.9346377917536
 10
-94.76395889626845
 20
310.1214051565202
 10
-94.0708844947022
 20
311.4753782758616
 10
-93.64409138551314
 20
312.9445247221178
 10
-93.49998098853584
 20
314.4723860212652
 10
-93.64409138551314
 20
316.000247320413
 10
-94.0708844947022
 20
317.4693937666688
 10
-94.76395889626845
 20
318.8233668860098
 10
-95.69668012963855
 20
320.0101342507772
 10
-96.83320424088933
 20
320.9840890566892
 10
-98.12985524579751
 20
321.7078027667557
 10
-99.53680357341552
 20
322.1534634689603
  0
ARC
  5
A7F6
330
1E
100
AcDbEntity
  8
DETAIL
 62
     5
100
AcDbCircle
 10
-100.9999809885358
 20
315.0111829690067
 30
0.0
 40
2.500000000000568
100
AcDbArc
 50
357.9794201226052
 51
180.0
  0
ARC
  5
A7F7
330
1E
100
AcDbEntity
  8
DETAIL
 62
     5
100
AcDbCircle
 10
-100.9999809885358
 20
313.7996144773087
 30
0.0
 40
2.5
100
AcDbArc
 50
180.0
 51
2.020579877394763
  0
LINE
  5
A7F8
330
1E
100
AcDbEntity
  8
DETAIL
 62
     5
100
AcDbLine
 10
-103.4999809885358
 20
315.0111829690067
 30
0.0
 11
-103.4999809885358
 21
313.7996144773087
 31
0.0
  0
LINE
  5
A7F9
330
1E
100
AcDbEntity
  8
DETAIL
 62
     5
100
AcDbLine
 10
-98.49998098853584
 20
314.9230368133629
 30
0.0
 11
-98.49998098853584
 21
313.8877606329523
 31
0.0
  0
LINE
  5
A944
330
1E
100
AcDbEntity
  8
DETAIL
  6
Continuous
100
AcDbLine
 10
74.71029742629889
 20
331.8231542734811
 30
0.0
 11
74.71029742629889
 21
523.5
 31
0.0
  0
LINE
  5
A945
330
1E
100
AcDbEntity
  8
DETAIL
  6
Continuous
100
AcDbLine
 10
-104.9999956288808
 20
364.5436110718205
 30
0.0
 11
-104.9999956288808
 21
523.5
 31
0.0
  0
LINE
  5
A946
330
1E
100
AcDbEntity
  8
DETAIL
 62
     5
100
AcDbLine
 10
-142.5
 20
523.5
 30
0.0
 11
142.5
 21
523.5
 31
0.0
  0
ARC
  5
A948
330
1E
100
AcDbEntity
  8
DETAIL
  6
Continuous
100
AcDbCircle
 10
80.13357014345027
 20
331.6797964762731
 30
0.0
 40
5.425167133150721
100
AcDbArc
 50
178.4858064771519
 51
268.473597005736
  0
LINE
  5
A94B
330
1E
100
AcDbEntity
  8
OUTLINE
100
AcDbLine
 10
-160.4999999999999
 20
510.0
 30
0.0
 11
-160.4999999999999
 21
70.0
 31
0.0
  0
LINE
  5
A94F
330
1E
100
AcDbEntity
  8
OUTLINE
100
AcDbLine
 10
-142.5
 20
550.0
 30
0.0
 11
-142.5
 21
10.0
 31
0.0
  0
LINE
  5
A951
330
1E
100
AcDbEntity
  8
OUTLINE
100
AcDbLine
 10
142.5
 20
550.0
 30
0.0
 11
142.5
 21
10.0
 31
0.0
  0
LINE
  5
A954
330
1E
100
AcDbEntity
  8
OUTLINE
100
AcDbLine
 10
-175.0
 20
10.0
 30
0.0
 11
-142.5
 21
10.0
 31
0.0
  0
LINE
  5
A955
330
1E
100
AcDbEntity
  8
OUTLINE
100
AcDbLine
 10
-175.0
 20
0.0
 30
0.0
 11
169.5
 21
0.0
 31
0.0
  0
LINE
  5
A956
330
1E
100
AcDbEntity
  8
OUTLINE
100
AcDbLine
 10
-175.0
 20
0.0
 30
0.0
 11
-175.0
 21
10.0
 31
0.0
  0
LINE
  5
A957
330
1E
100
AcDbEntity
  8
OUTLINE
100
AcDbLine
 10
-160.4999999999999
 20
70.0
 30
0.0
 11
-142.5
 21
70.0
 31
0.0
  0
LINE
  5
A95E
330
1E
100
AcDbEntity
  8
OUTLINE
100
AcDbLine
 10
169.5
 20
0.0
 30
0.0
 11
169.5
 21
10.0
 31
0.0
  0
LINE
  5
A96B
330
1E
100
AcDbEntity
  8
OUTLINE
100
AcDbLine
 10
-142.5
 20
550.0
 30
0.0
 11
142.5
 21
550.0
 31
0.0
  0
LINE
  5
A9BF
330
1E
100
AcDbEntity
  8
OUTLINE
100
AcDbLine
 10
-160.4999999999999
 20
510.0
 30
0.0
 11
-142.5
 21
510.0
 31
0.0
  0
LINE
  5
AA6A
330
1E
100
AcDbEntity
  8
OUTLINE
100
AcDbLine
 10
142.5
 20
10.0
 30
0.0
 11
169.5
 21
10.0
 31
0.0
  0
CIRCLE
  5
AA9B
330
1E
100
AcDbEntity
  8
SIZE
100
AcDbCircle
 10
-344.4596041392787
 20
0.0
 30
0.0
 40
6.0
  0
DIMENSION
  5
AC41
330
1E
100
AcDbEntity
  8
SIZE
  6
Continuous
100
AcDbDimension
  2
*D3
 10
-227.1892889002856
 20
251.0999999999994
 30
0.0
 11
-227.1892889002856
 21
125.8142857142859
 31
0.0
 70
   160
 71
     5
 42
50.99999999999912
  3
STANDARD
100
AcDbAlignedDimension
 13
-47.89999999999962
 23
200.1000000000002
 33
0.0
 14
-47.89999999999962
 24
251.0999999999993
 34
0.0
 50
90.0
100
AcDbRotatedDimension
1001
ACAD
1000
DSTYLE
1002
{
1070
    41
1040
10.0
1070
    42
1040
20.0
1070
    43
1040
200.0
1070
    44
1040
30.0
1070
    73
1070
     0
1070
    74
1070
     0
1070
    77
1070
     1
1070
    78
1070
     8
1070
   140
1040
64.0
1070
   147
1040
20.0
1070
   172
1070
     1
1070
   271
1070
     0
1070
   272
1070
     0
1070
   341
1005
530
1070
   342
1005
530
1002
}
  0
ENDSEC
  0
SECTION
  2
OBJECTS
  0
DICTIONARY
  5
C
330
0
100
AcDbDictionary
281
     1
  3
ACAD_CIP_PREVIOUS_PRODUCT_INFO
350
AB80
  3
ACAD_COLOR
350
AB62
  3
ACAD_DETAILVIEWSTYLE
350
AB7B
  3
ACAD_GROUP
350
D
  3
ACAD_LAYOUT
350
19
  3
ACAD_MATERIAL
350
AB30
  3
ACAD_MLEADERSTYLE
350
AB77
  3
ACAD_MLINESTYLE
350
16
  3
ACAD_PLOTSETTINGS
350
18
  3
ACAD_PLOTSTYLENAME
350
E
  3
ACAD_SCALELIST
350
AB65
  3
ACAD_SECTIONVIEWSTYLE
350
AB79
  3
ACAD_TABLESTYLE
350
AB63
  3
ACAD_VISUALSTYLE
350
AB49
  3
ACDB_RECOMPOSE_DATA
350
AC9E
  3
AcDbVariableDictionary
350
ABA7
  0
DICTIONARY
  5
AB83
330
10
100
AcDbDictionary
280
     1
281
     1
  3
ADSK_XREC_LAYER_RECONCILED
360
AB84
  0
DICTIONARY
  5
AB85
330
22
100
AcDbDictionary
280
     1
281
     1
  3
ADSK_XREC_LAYER_RECONCILED
360
AB86
  0
DICTIONARY
  5
AB87
330
31
100
AcDbDictionary
280
     1
281
     1
  3
ADSK_XREC_LAYER_RECONCILED
360
AB88
  0
DICTIONARY
  5
AB89
330
32
100
AcDbDictionary
280
     1
281
     1
  3
ADSK_XREC_LAYER_RECONCILED
360
AB8A
  0
DICTIONARY
  5
AB8B
330
33
100
AcDbDictionary
280
     1
281
     1
  3
ADSK_XREC_LAYER_RECONCILED
360
AB8C
  0
DICTIONARY
  5
AB8D
330
34
100
AcDbDictionary
280
     1
281
     1
  3
ADSK_XREC_LAYER_RECONCILED
360
AB8E
  0
DICTIONARY
  5
AB8F
330
35
100
AcDbDictionary
280
     1
281
     1
  3
ADSK_XREC_LAYER_RECONCILED
360
AB90
  0
DICTIONARY
  5
AB91
330
36
100
AcDbDictionary
280
     1
281
     1
  3
ADSK_XREC_LAYER_RECONCILED
360
AB92
  0
DICTIONARY
  5
AB93
330
37
100
AcDbDictionary
280
     1
281
     1
  3
ADSK_XREC_LAYER_RECONCILED
360
AB94
  0
DICTIONARY
  5
AB95
330
3B
100
AcDbDictionary
280
     1
281
     1
  3
ADSK_XREC_LAYER_RECONCILED
360
AB96
  0
DICTIONARY
  5
A792
330
1E
100
AcDbDictionary
280
     1
281
     1
  3
ACAD_LAYOUTSELFREF
360
AB2B
  0
DICTIONARY
  5
A790
330
1A
100
AcDbDictionary
280
     1
281
     1
  3
ACAD_LAYOUTSELFREF
360
AB2A
  0
XRECORD
  5
AB80
102
{ACAD_REACTORS
330
C
102
}
330
C
100
AcDbXrecord
280
     1
300
ACDLT
300
2014
300
ACDLT_F_S
  0
DICTIONARY
  5
AB62
102
{ACAD_REACTORS
330
C
102
}
330
C
100
AcDbDictionary
281
     1
  0
DICTIONARY
  5
AB7B
102
{ACAD_REACTORS
330
C
102
}
330
C
100
AcDbDictionary
281
     1
  3
Imperial24
350
AB7C
  0
DICTIONARY
  5
D
102
{ACAD_REACTORS
330
C
102
}
330
C
100
AcDbDictionary
281
     1
  0
DICTIONARY
  5
19
102
{ACAD_REACTORS
330
C
102
}
330
C
100
AcDbDictionary
281
     1
  3
Model
350
AB7D
  3
レイアウト1
350
AB7E
  0
DICTIONARY
  5
AB30
102
{ACAD_REACTORS
330
C
102
}
330
C
100
AcDbDictionary
281
     1
  3
ByBlock
350
AB39
  3
ByLayer
350
AB31
  3
Global
350
AB41
  0
DICTIONARY
  5
AB77
102
{ACAD_REACTORS
330
C
102
}
330
C
100
AcDbDictionary
281
     1
  3
Standard
350
AB78
  0
DICTIONARY
  5
16
102
{ACAD_REACTORS
330
C
102
}
330
C
100
AcDbDictionary
281
     1
  3
STANDARD
350
17
  0
DICTIONARY
  5
18
102
{ACAD_REACTORS
330
C
102
}
330
C
100
AcDbDictionary
281
     1
  0
ACDBDICTIONARYWDFLT
  5
E
102
{ACAD_REACTORS
330
C
102
}
330
C
100
AcDbDictionary
281
     1
  3
Normal
350
F
100
AcDbDictionaryWithDefault
340
F
  0
DICTIONARY
  5
AB65
102
{ACAD_REACTORS
330
C
102
}
330
C
100
AcDbDictionary
281
     1
  3
A0
350
AB66
  3
A1
350
AB67
  3
A2
350
AB68
  3
A3
350
AB69
  3
A4
350
AB6A
  3
A5
350
AB6B
  3
A6
350
AB6C
  3
A7
350
AB6D
  3
A8
350
AB6E
  3
A9
350
AB6F
  3
B0
350
AB70
  3
B1
350
AB71
  3
B2
350
AB72
  3
B3
350
AB73
  3
B4
350
AB74
  3
B5
350
AB75
  3
B6
350
AB76
  0
DICTIONARY
  5
AB79
102
{ACAD_REACTORS
330
C
102
}
330
C
100
AcDbDictionary
281
     1
  3
Imperial24
350
AB7A
  0
DICTIONARY
  5
AB63
102
{ACAD_REACTORS
330
C
102
}
330
C
100
AcDbDictionary
281
     1
  3
Standard
350
AB64
  0
DICTIONARY
  5
AB49
102
{ACAD_REACTORS
330
C
102
}
330
C
100
AcDbDictionary
281
     1
  3
2dWireframe
350
AB4F
  3
Basic
350
AB4E
  3
Brighten
350
AB55
  3
ColorChange
350
AB59
  3
Conceptual
350
AB52
  3
Dim
350
AB54
  3
EdgeColorOff
350
AB61
  3
Facepattern
350
AB58
  3
Flat
350
AB4A
  3
FlatWithEdges
350
AB4B
  3
Gouraud
350
AB4C
  3
GouraudWithEdges
350
AB4D
  3
Hidden
350
AB51
  3
JitterOff
350
AB5F
  3
Linepattern
350
AB57
  3
OverhangOff
350
AB60
  3
Realistic
350
AB53
  3
Shaded
350
AB5E
  3
Shaded with edges
350
AB5D
  3
Shades of Gray
350
AB5A
  3
Sketchy
350
AB5B
  3
Thicken
350
AB56
  3
Wireframe
350
AB50
  3
X-Ray
350
AB5C
  0
XRECORD
  5
AC9E
102
{ACAD_REACTORS
330
C
102
}
330
C
100
AcDbXrecord
280
     1
 90
        1
330
AB64
  0
DICTIONARY
  5
ABA7
102
{ACAD_REACTORS
330
C
102
}
330
C
100
AcDbDictionary
281
     1
  3
CANNOSCALE
350
ABAC
  3
CMLEADERSTYLE
350
ABA9
  3
CTABLESTYLE
350
ABA8
  3
CVIEWDETAILSTYLE
350
ABAA
  3
CVIEWSECTIONSTYLE
350
ABAB
  3
XCLIPFRAME
350
AC9C
  0
XRECORD
  5
AB84
102
{ACAD_REACTORS
330
AB83
102
}
330
AB83
100
AcDbXrecord
280
     1
290
     1
  0
XRECORD
  5
AB86
102
{ACAD_REACTORS
330
AB85
102
}
330
AB85
100
AcDbXrecord
280
     1
290
     1
  0
XRECORD
  5
AB88
102
{ACAD_REACTORS
330
AB87
102
}
330
AB87
100
AcDbXrecord
280
     1
290
     1
  0
XRECORD
  5
AB8A
102
{ACAD_REACTORS
330
AB89
102
}
330
AB89
100
AcDbXrecord
280
     1
290
     1
  0
XRECORD
  5
AB8C
102
{ACAD_REACTORS
330
AB8B
102
}
330
AB8B
100
AcDbXrecord
280
     1
290
     1
  0
XRECORD
  5
AB8E
102
{ACAD_REACTORS
330
AB8D
102
}
330
AB8D
100
AcDbXrecord
280
     1
290
     1
  0
XRECORD
  5
AB90
102
{ACAD_REACTORS
330
AB8F
102
}
330
AB8F
100
AcDbXrecord
280
     1
290
     1
  0
XRECORD
  5
AB92
102
{ACAD_REACTORS
330
AB91
102
}
330
AB91
100
AcDbXrecord
280
     1
290
     1
  0
XRECORD
  5
AB94
102
{ACAD_REACTORS
330
AB93
102
}
330
AB93
100
AcDbXrecord
280
     1
290
     1
  0
XRECORD
  5
AB96
102
{ACAD_REACTORS
330
AB95
102
}
330
AB95
100
AcDbXrecord
280
     1
290
     1
  0
XRECORD
  5
AB2B
102
{ACAD_REACTORS
330
A792
102
}
330
A792
100
AcDbXrecord
280
     1
340
1E
  0
XRECORD
  5
AB2A
102
{ACAD_REACTORS
330
A790
102
}
330
A790
100
AcDbXrecord
280
     1
340
1A
  0
ACDBDETAILVIEWSTYLE
  5
AB7C
102
{ACAD_XDICTIONARY
360
ACD2
102
}
102
{ACAD_REACTORS
330
AB7B
102
}
330
AB7B
100
AcDbModelDocViewStyle
 70
     0
  3
Imperial24
290
     0
100
AcDbDetailViewStyle
 70
     0
 71
     0
 90
        3
 71
     1
340
11
 62
   256
 40
0.24
340
0
 62
   256
 40
0.24
300

 40
0.36
280
     3
 71
     2
340
15
 90
       25
 62
   256
 71
     3
340
11
 62
   256
 40
0.24
 90
        1
 40
0.75
 90
        1
300
%<\AcVar ViewType \f "%tc1">% %<\AcVar ViewDetailId>%\PSCALE %<\AcVar ViewScale \f "%sn">%
 71
     4
340
15
 90
       25
 62
   256
340
15
 90
       25
 62
   256
280
     0
  0
LAYOUT
  5
AB7D
102
{ACAD_REACTORS
330
19
102
}
330
19
100
AcDbPlotSettings
  1

  2
none_device
  4
Letter_(8.50_x_11.00_Inches)
  6

 40
6.349999904632568
 41
6.349999904632568
 42
6.350006103515625
 43
6.350006103515625
 44
215.8999938964844
 45
279.3999938964844
 46
0.0
 47
0.0
 48
0.0
 49
0.0
140
0.0
141
0.0
142
1.0
143
217.0969567463022
 70
 11952
 72
     0
 73
     1
 74
     0
  7

 75
     0
147
0.0046062368399231
 76
     0
 77
     2
 78
   300
148
24708.32180977146
149
15116.0516080303
100
AcDbLayout
  1
Model
 70
     1
 71
     0
 10
0.0
 20
0.0
 11
12.0
 21
9.0
 12
0.0
 22
0.0
 32
0.0
 14
0.0
 24
0.0
 34
0.0
 15
0.0
 25
0.0
 35
0.0
146
0.0
 13
0.0
 23
0.0
 33
0.0
 16
1.0
 26
0.0
 36
0.0
 17
0.0
 27
1.0
 37
0.0
 76
     0
330
1E
331
AB08
1001
ACAD_PSEXT
1000
なし
1000
なし
1000
適切ではありません
1000
新しいプロッタ環境設定名を選択しない限り、レイアウトは印刷されません。
1070
     0
  0
LAYOUT
  5
AB7E
102
{ACAD_REACTORS
330
19
102
}
330
19
100
AcDbPlotSettings
  1

  2
なし
  4

  6

 40
0.0
 41
0.0
 42
0.0
 43
0.0
 44
0.0
 45
0.0
 46
0.0
 47
0.0
 48
0.0
 49
0.0
140
0.0
141
0.0
142
1.0
143
1.0
 70
   688
 72
     0
 73
     0
 74
     5
  7

 75
    16
147
1.0
 76
     0
 77
     2
 78
   300
148
0.0
149
0.0
100
AcDbLayout
  1
レイアウト1
 70
     1
 71
     1
 10
0.0
 20
0.0
 11
12.0
 21
9.0
 12
0.0
 22
0.0
 32
0.0
 14
1.000000000000000E+20
 24
1.000000000000000E+20
 34
1.000000000000000E+20
 15
-1.000000000000000E+20
 25
-1.000000000000000E+20
 35
-1.000000000000000E+20
146
0.0
 13
0.0
 23
0.0
 33
0.0
 16
1.0
 26
0.0
 36
0.0
 17
0.0
 27
1.0
 37
0.0
 76
     0
330
1A
  0
MATERIAL
  5
AB39
102
{ACAD_XDICTIONARY
360
AB3A
102
}
102
{ACAD_REACTORS
330
AB30
102
}
330
AB30
100
AcDbMaterial
  1
ByBlock
 72
     0
 43
0.0208333333333333
 43
0.0
 43
0.0
 43
0.0
 43
0.0
 43
0.0208333333333333
 43
0.0
 43
0.0
 43
0.0
 43
0.0
 43
1.0
 43
0.0
 43
0.0
 43
0.0
 43
0.0
 43
1.0
 77
     0
 47
0.0208333333333333
 47
0.0
 47
0.0
 47
0.0
 47
0.0
 47
0.0208333333333333
 47
0.0
 47
0.0
 47
0.0
 47
0.0
 47
1.0
 47
0.0
 47
0.0
 47
0.0
 47
0.0
 47
1.0
171
     0
 49
0.0208333333333333
 49
0.0
 49
0.0
 49
0.0
 49
0.0
 49
0.0208333333333333
 49
0.0
 49
0.0
 49
0.0
 49
0.0
 49
1.0
 49
0.0
 49
0.0
 49
0.0
 49
0.0
 49
1.0
175
     0
142
0.0208333333333333
142
0.0
142
0.0
142
0.0
142
0.0
142
0.0208333333333333
142
0.0
142
0.0
142
0.0
142
0.0
142
1.0
142
0.0
142
0.0
142
0.0
142
0.0
142
1.0
179
     0
144
0.0208333333333333
144
0.0
144
0.0
144
0.0
144
0.0
144
0.0208333333333333
144
0.0
144
0.0
144
0.0
144
0.0
144
1.0
144
0.0
144
0.0
144
0.0
144
0.0
144
1.0
147
0.0208333333333333
147
0.0
147
0.0
147
0.0
147
0.0
147
0.0208333333333333
147
0.0
147
0.0
147
0.0
147
0.0
147
1.0
147
0.0
147
0.0
147
0.0
147
0.0
147
1.0
  0
MATERIAL
  5
AB31
102
{ACAD_XDICTIONARY
360
AB32
102
}
102
{ACAD_REACTORS
330
AB30
102
}
330
AB30
100
AcDbMaterial
  1
ByLayer
 72
     0
 43
0.0208333333333333
 43
0.0
 43
0.0
 43
0.0
 43
0.0
 43
0.0208333333333333
 43
0.0
 43
0.0
 43
0.0
 43
0.0
 43
1.0
 43
0.0
 43
0.0
 43
0.0
 43
0.0
 43
1.0
 77
     0
 47
0.0208333333333333
 47
0.0
 47
0.0
 47
0.0
 47
0.0
 47
0.0208333333333333
 47
0.0
 47
0.0
 47
0.0
 47
0.0
 47
1.0
 47
0.0
 47
0.0
 47
0.0
 47
0.0
 47
1.0
171
     0
 49
0.0208333333333333
 49
0.0
 49
0.0
 49
0.0
 49
0.0
 49
0.0208333333333333
 49
0.0
 49
0.0
 49
0.0
 49
0.0
 49
1.0
 49
0.0
 49
0.0
 49
0.0
 49
0.0
 49
1.0
175
     0
142
0.0208333333333333
142
0.0
142
0.0
142
0.0
142
0.0
142
0.0208333333333333
142
0.0
142
0.0
142
0.0
142
0.0
142
1.0
142
0.0
142
0.0
142
0.0
142
0.0
142
1.0
179
     0
144
0.0208333333333333
144
0.0
144
0.0
144
0.0
144
0.0
144
0.0208333333333333
144
0.0
144
0.0
144
0.0
144
0.0
144
1.0
144
0.0
144
0.0
144
0.0
144
0.0
144
1.0
147
0.0208333333333333
147
0.0
147
0.0
147
0.0
147
0.0
147
0.0208333333333333
147
0.0
147
0.0
147
0.0
147
0.0
147
1.0
147
0.0
147
0.0
147
0.0
147
0.0
147
1.0
  0
MATERIAL
  5
AB41
102
{ACAD_XDICTIONARY
360
AB42
102
}
102
{ACAD_REACTORS
330
AB30
102
}
330
AB30
100
AcDbMaterial
  1
Global
 72
     0
 43
0.0208333333333333
 43
0.0
 43
0.0
 43
0.0
 43
0.0
 43
0.0208333333333333
 43
0.0
 43
0.0
 43
0.0
 43
0.0
 43
1.0
 43
0.0
 43
0.0
 43
0.0
 43
0.0
 43
1.0
 77
     0
 47
0.0208333333333333
 47
0.0
 47
0.0
 47
0.0
 47
0.0
 47
0.0208333333333333
 47
0.0
 47
0.0
 47
0.0
 47
0.0
 47
1.0
 47
0.0
 47
0.0
 47
0.0
 47
0.0
 47
1.0
171
     0
 49
0.0208333333333333
 49
0.0
 49
0.0
 49
0.0
 49
0.0
 49
0.0208333333333333
 49
0.0
 49
0.0
 49
0.0
 49
0.0
 49
1.0
 49
0.0
 49
0.0
 49
0.0
 49
0.0
 49
1.0
175
     0
142
0.0208333333333333
142
0.0
142
0.0
142
0.0
142
0.0
142
0.0208333333333333
142
0.0
142
0.0
142
0.0
142
0.0
142
1.0
142
0.0
142
0.0
142
0.0
142
0.0
142
1.0
179
     0
144
0.0208333333333333
144
0.0
144
0.0
144
0.0
144
0.0
144
0.0208333333333333
144
0.0
144
0.0
144
0.0
144
0.0
144
1.0
144
0.0
144
0.0
144
0.0
144
0.0
144
1.0
147
0.0208333333333333
147
0.0
147
0.0
147
0.0
147
0.0
147
0.0208333333333333
147
0.0
147
0.0
147
0.0
147
0.0
147
1.0
147
0.0
147
0.0
147
0.0
147
0.0
147
1.0
  0
MLEADERSTYLE
  5
AB78
102
{ACAD_REACTORS
330
AB77
102
}
330
AB77
100
AcDbMLeaderStyle
170
     2
171
     1
172
     0
 90
        2
 40
0.0
 41
0.0
173
     1
 91
-1056964608
340
13
 92
       -2
290
     1
 42
0.09
291
     1
 43
0.36
  3
Standard
 44
0.18
300

342
11
174
     1
178
     6
175
     1
176
     0
 93
-1056964608
 45
0.18
292
     0
297
     0
 46
0.18
 94
-1056964608
 47
1.0
 49
1.0
140
1.0
293
     1
141
0.0
294
     1
177
     0
142
1.0
295
     0
296
     0
143
0.125
1001
ACAD_MLEADERVER
1070
     2
  0
MLINESTYLE
  5
17
102
{ACAD_REACTORS
330
16
102
}
330
16
100
AcDbMlineStyle
  2
STANDARD
 70
     0
  3

 62
   256
 51
90.0
 52
90.0
 71
     2
 49
0.5
 62
   256
  6
BYLAYER
 49
-0.5
 62
   256
  6
BYLAYER
  0
ACDBPLACEHOLDER
  5
F
102
{ACAD_REACTORS
330
E
102
}
330
E
  0
SCALE
  5
AB66
102
{ACAD_REACTORS
330
AB65
102
}
330
AB65
100
AcDbScale
 70
     0
300
1:1
140
1.0
141
1.0
290
     1
  0
SCALE
  5
AB67
102
{ACAD_REACTORS
330
AB65
102
}
330
AB65
100
AcDbScale
 70
     0
300
1/128" = 1'-0"
140
0.0078125
141
12.0
290
     0
  0
SCALE
  5
AB68
102
{ACAD_REACTORS
330
AB65
102
}
330
AB65
100
AcDbScale
 70
     0
300
1/64" = 1'-0"
140
0.015625
141
12.0
290
     0
  0
SCALE
  5
AB69
102
{ACAD_REACTORS
330
AB65
102
}
330
AB65
100
AcDbScale
 70
     0
300
1/32" = 1'-0"
140
0.03125
141
12.0
290
     0
  0
SCALE
  5
AB6A
102
{ACAD_REACTORS
330
AB65
102
}
330
AB65
100
AcDbScale
 70
     0
300
1/16" = 1'-0"
140
0.0625
141
12.0
290
     0
  0
SCALE
  5
AB6B
102
{ACAD_REACTORS
330
AB65
102
}
330
AB65
100
AcDbScale
 70
     0
300
3/32" = 1'-0"
140
0.09375
141
12.0
290
     0
  0
SCALE
  5
AB6C
102
{ACAD_REACTORS
330
AB65
102
}
330
AB65
100
AcDbScale
 70
     0
300
1/8" = 1'-0"
140
0.125
141
12.0
290
     0
  0
SCALE
  5
AB6D
102
{ACAD_REACTORS
330
AB65
102
}
330
AB65
100
AcDbScale
 70
     0
300
3/16" = 1'-0"
140
0.1875
141
12.0
290
     0
  0
SCALE
  5
AB6E
102
{ACAD_REACTORS
330
AB65
102
}
330
AB65
100
AcDbScale
 70
     0
300
1/4" = 1'-0"
140
0.25
141
12.0
290
     0
  0
SCALE
  5
AB6F
102
{ACAD_REACTORS
330
AB65
102
}
330
AB65
100
AcDbScale
 70
     0
300
3/8" = 1'-0"
140
0.375
141
12.0
290
     0
  0
SCALE
  5
AB70
102
{ACAD_REACTORS
330
AB65
102
}
330
AB65
100
AcDbScale
 70
     0
300
1/2" = 1'-0"
140
0.5
141
12.0
290
     0
  0
SCALE
  5
AB71
102
{ACAD_REACTORS
330
AB65
102
}
330
AB65
100
AcDbScale
 70
     0
300
3/4" = 1'-0"
140
0.75
141
12.0
290
     0
  0
SCALE
  5
AB72
102
{ACAD_REACTORS
330
AB65
102
}
330
AB65
100
AcDbScale
 70
     0
300
1" = 1'-0"
140
1.0
141
12.0
290
     0
  0
SCALE
  5
AB73
102
{ACAD_REACTORS
330
AB65
102
}
330
AB65
100
AcDbScale
 70
     0
300
1-1/2" = 1'-0"
140
1.5
141
12.0
290
     0
  0
SCALE
  5
AB74
102
{ACAD_REACTORS
330
AB65
102
}
330
AB65
100
AcDbScale
 70
     0
300
3" = 1'-0"
140
3.0
141
12.0
290
     0
  0
SCALE
  5
AB75
102
{ACAD_REACTORS
330
AB65
102
}
330
AB65
100
AcDbScale
 70
     0
300
6" = 1'-0"
140
6.0
141
12.0
290
     0
  0
SCALE
  5
AB76
102
{ACAD_REACTORS
330
AB65
102
}
330
AB65
100
AcDbScale
 70
     0
300
1'-0" = 1'-0"
140
12.0
141
12.0
290
     0
  0
ACDBSECTIONVIEWSTYLE
  5
AB7A
102
{ACAD_XDICTIONARY
360
ACD0
102
}
102
{ACAD_REACTORS
330
AB79
102
}
330
AB79
100
AcDbModelDocViewStyle
 70
     0
  3
Imperial24
290
     0
100
AcDbSectionViewStyle
 70
     0
 71
     0
 90
       78
 71
     1
340
11
 62
   256
 40
0.24
340
0
340
0
 62
   256
 40
0.24
300
I, O, Q, S, X, Z
 40
0.48
 90
        3
 40
0.18
 90
        1
 71
     2
340
15
 90
       25
 62
   256
340
15
 90
       50
 62
   256
 40
0.24
 40
0.0
 40
0.24
 71
     3
340
11
 62
   256
 40
0.24
 90
        1
 40
0.75
 90
        1
300
%<\AcVar ViewType \f "%tc1">% %<\AcVar ViewSectionStartId>%-%<\AcVar ViewSectionEndId>%\PSCALE %<\AcVar ViewScale \f "%sn">%
 71
     4
 62
   256
 62
   257
300
ANSI31
 40
1.0
 90
        0
290
     0
290
     0
 90
        6
 40
0.0
 40
1.570796326794896
 40
0.2617993877991494
 40
1.308996938995747
 40
-0.2617993877991494
 40
1.832595714594044
  0
TABLESTYLE
  5
AB64
102
{ACAD_XDICTIONARY
360
ABAE
102
}
102
{ACAD_REACTORS
330
AB63
102
}
330
AB63
100
AcDbTableStyle
  3
Standard
 70
     0
 71
     0
 40
0.06
 41
0.06
280
     0
281
     0
  7
STANDARD
140
0.18
170
     2
 62
     0
 63
     7
283
     0
274
    -2
284
     1
 64
     0
275
    -2
285
     1
 65
     0
276
    -2
286
     1
 66
     0
277
    -2
287
     1
 67
     0
278
    -2
288
     1
 68
     0
279
    -2
289
     1
 69
     0
  7
STANDARD
140
0.25
170
     5
 62
     0
 63
     7
283
     0
274
    -2
284
     1
 64
     0
275
    -2
285
     1
 65
     0
276
    -2
286
     1
 66
     0
277
    -2
287
     1
 67
     0
278
    -2
288
     1
 68
     0
279
    -2
289
     1
 69
     0
  7
STANDARD
140
0.18
170
     5
 62
     0
 63
     7
283
     0
274
    -2
284
     1
 64
     0
275
    -2
285
     1
 65
     0
276
    -2
286
     1
 66
     0
277
    -2
287
     1
 67
     0
278
    -2
288
     1
 68
     0
279
    -2
289
     1
 69
     0
  0
VISUALSTYLE
  5
AB4F
102
{ACAD_XDICTIONARY
360
ACA9
102
}
102
{ACAD_REACTORS
330
AB49
102
}
330
AB49
100
AcDbVisualStyle
  2

 70
     4
 71
     0
 72
     2
 73
     0
 90
        0
 40
-0.6
 41
-30.0
 62
     5
 63
     7
421
 16777215
 74
     1
 91
        4
 64
     7
 65
   257
 75
     1
175
     1
 42
1.0
 92
        0
 66
   257
 43
1.0
 76
     1
 77
     6
 78
     2
 67
     7
 79
     5
170
     0
171
     0
290
     0
174
     0
 93
        1
 44
0.0
173
     0
291
     0
 45
0.0
1001
ACAD
1000
AcDbSavedByObjectVersion
1070
     0
  0
VISUALSTYLE
  5
AB4E
102
{ACAD_XDICTIONARY
360
ACA7
102
}
102
{ACAD_REACTORS
330
AB49
102
}
330
AB49
100
AcDbVisualStyle
  2

 70
     7
 71
     1
 72
     0
 73
     1
 90
        0
 40
-0.6
 41
-30.0
 62
     5
 63
     7
421
 16777215
 74
     0
 91
        4
 64
     7
 65
   257
 75
     1
175
     1
 42
1.0
 92
        8
 66
     7
 43
1.0
 76
     1
 77
     6
 78
     2
 67
     7
 79
     5
170
     0
171
     0
290
     0
174
     0
 93
        1
 44
0.0
173
     0
291
     1
 45
0.0
1001
ACAD
1000
AcDbSavedByObjectVersion
1070
     0
  0
VISUALSTYLE
  5
AB55
102
{ACAD_XDICTIONARY
360
ACB5
102
}
102
{ACAD_REACTORS
330
AB49
102
}
330
AB49
100
AcDbVisualStyle
  2

 70
    12
 71
     2
 72
     2
 73
     0
 90
        0
 40
-0.6
 41
-30.0
 62
     5
 63
     7
421
 16777215
 74
     1
 91
        4
 64
     7
 65
   257
 75
     1
175
     1
 42
1.0
 92
        8
 66
     7
 43
1.0
 76
     1
 77
     6
 78
     2
 67
     7
 79
     5
170
     0
171
     0
290
     0
174
     0
 93
        1
 44
50.0
173
     0
291
     1
 45
0.0
1001
ACAD
1000
AcDbSavedByObjectVersion
1070
     0
  0
VISUALSTYLE
  5
AB59
102
{ACAD_XDICTIONARY
360
ACBD
102
}
102
{ACAD_REACTORS
330
AB49
102
}
330
AB49
100
AcDbVisualStyle
  2

 70
    16
 71
     2
 72
     2
 73
     3
 90
        0
 40
-0.6
 41
-30.0
 62
     5
 63
     8
421
  8421504
 74
     1
 91
        4
 64
     7
 65
   257
 75
     1
175
     1
 42
1.0
 92
        8
 66
     8
424
  8421504
 43
1.0
 76
     1
 77
     6
 78
     2
 67
     7
 79
     5
170
     0
171
     0
290
     0
174
     0
 93
        1
 44
0.0
173
     0
291
     1
 45
0.0
1001
ACAD
1000
AcDbSavedByObjectVersion
1070
     0
  0
VISUALSTYLE
  5
AB52
102
{ACAD_XDICTIONARY
360
ACAF
102
}
102
{ACAD_REACTORS
330
AB49
102
}
330
AB49
100
AcDbVisualStyle
  2

 70
     9
 71
     3
 72
     2
 73
     0
 90
        0
 40
-0.6
 41
-30.0
 62
     5
 63
     7
421
 16777215
 74
     2
 91
        2
 64
     7
 65
   257
 75
     1
175
     1
 42
179.0
 92
        8
 66
     7
 43
1.0
 76
     1
 77
     6
 78
     2
 67
     7
 79
     3
170
     0
171
     0
290
     0
174
     0
 93
        1
 44
0.0
173
     0
291
     0
 45
0.0
1001
ACAD
1000
AcDbSavedByObjectVersion
1070
     0
  0
VISUALSTYLE
  5
AB54
102
{ACAD_XDICTIONARY
360
ACB3
102
}
102
{ACAD_REACTORS
330
AB49
102
}
330
AB49
100
AcDbVisualStyle
  2

 70
    11
 71
     2
 72
     2
 73
     0
 90
        0
 40
-0.6
 41
-30.0
 62
     5
 63
     7
421
 16777215
 74
     1
 91
        4
 64
     7
 65
   257
 75
     1
175
     1
 42
1.0
 92
        8
 66
     7
 43
1.0
 76
     1
 77
     6
 78
     2
 67
     7
 79
     5
170
     0
171
     0
290
     0
174
     0
 93
        1
 44
-50.0
173
     0
291
     1
 45
0.0
1001
ACAD
1000
AcDbSavedByObjectVersion
1070
     0
  0
VISUALSTYLE
  5
AB61
102
{ACAD_XDICTIONARY
360
ACCD
102
}
102
{ACAD_REACTORS
330
AB49
102
}
330
AB49
100
AcDbVisualStyle
  2

 70
    22
 71
     2
 72
     2
 73
     0
 90
        0
 40
-0.6
 41
-30.0
 62
     5
 63
     7
421
 16777215
 74
     1
 91
        4
 64
     7
 65
   257
 75
     1
175
     1
 42
1.0
 92
        8
 66
     7
 43
1.0
 76
     1
 77
     6
 78
     2
 67
     7
 79
     5
170
     0
171
     0
290
     0
174
     0
 93
        1
 44
0.0
173
     0
291
     1
 45
0.0
1001
ACAD
1000
AcDbSavedByObjectVersion
1070
     0
  0
VISUALSTYLE
  5
AB58
102
{ACAD_XDICTIONARY
360
ACBB
102
}
102
{ACAD_REACTORS
330
AB49
102
}
330
AB49
100
AcDbVisualStyle
  2

 70
    15
 71
     2
 72
     2
 73
     0
 90
        0
 40
-0.6
 41
-30.0
 62
     5
 63
     7
421
 16777215
 74
     1
 91
        4
 64
     7
 65
   257
 75
     1
175
     1
 42
1.0
 92
        8
 66
     7
 43
1.0
 76
     1
 77
     6
 78
     2
 67
     7
 79
     5
170
     0
171
     0
290
     0
174
     0
 93
        1
 44
0.0
173
     0
291
     1
 45
0.0
1001
ACAD
1000
AcDbSavedByObjectVersion
1070
     0
  0
VISUALSTYLE
  5
AB4A
102
{ACAD_XDICTIONARY
360
AC9F
102
}
102
{ACAD_REACTORS
330
AB49
102
}
330
AB49
100
AcDbVisualStyle
  2

 70
     0
 71
     2
 72
     1
 73
     1
 90
        2
 40
-0.6
 41
30.0
 62
     5
 63
     7
421
 16777215
 74
     0
 91
        0
 64
     7
 65
   257
 75
     1
175
     1
 42
1.0
 92
        8
 66
     7
 43
1.0
 76
     1
 77
     6
 78
     2
 67
     7
 79
     5
170
     0
171
     0
290
     0
174
     0
 93
       13
 44
0.0
173
     0
291
     1
 45
0.0
1001
ACAD
1000
AcDbSavedByObjectVersion
1070
     0
  0
VISUALSTYLE
  5
AB4B
102
{ACAD_XDICTIONARY
360
ACA1
102
}
102
{ACAD_REACTORS
330
AB49
102
}
330
AB49
100
AcDbVisualStyle
  2

 70
     1
 71
     2
 72
     1
 73
     1
 90
        2
 40
-0.6
 41
30.0
 62
     5
 63
     7
421
 16777215
 74
     1
 91
        0
 64
     7
 65
   257
 75
     1
175
     1
 42
1.0
 92
        0
 66
   257
 43
1.0
 76
     1
 77
     6
 78
     2
 67
     7
 79
     5
170
     0
171
     0
290
     0
174
     0
 93
       13
 44
0.0
173
     0
291
     1
 45
0.0
1001
ACAD
1000
AcDbSavedByObjectVersion
1070
     0
  0
VISUALSTYLE
  5
AB4C
102
{ACAD_XDICTIONARY
360
ACA3
102
}
102
{ACAD_REACTORS
330
AB49
102
}
330
AB49
100
AcDbVisualStyle
  2

 70
     2
 71
     2
 72
     2
 73
     1
 90
        2
 40
-0.6
 41
30.0
 62
     5
 63
     7
421
 16777215
 74
     0
 91
        0
 64
     7
 65
   257
 75
     1
175
     1
 42
1.0
 92
        0
 66
     7
 43
1.0
 76
     1
 77
     6
 78
     2
 67
     7
 79
     5
170
     0
171
     0
290
     0
174
     0
 93
       13
 44
0.0
173
     0
291
     1
 45
0.0
1001
ACAD
1000
AcDbSavedByObjectVersion
1070
     0
  0
VISUALSTYLE
  5
AB4D
102
{ACAD_XDICTIONARY
360
ACA5
102
}
102
{ACAD_REACTORS
330
AB49
102
}
330
AB49
100
AcDbVisualStyle
  2

 70
     3
 71
     2
 72
     2
 73
     1
 90
        2
 40
-0.6
 41
30.0
 62
     5
 63
     7
421
 16777215
 74
     1
 91
        0
 64
     7
 65
   257
 75
     1
175
     1
 42
1.0
 92
        0
 66
   257
 43
1.0
 76
     1
 77
     6
 78
     2
 67
     7
 79
     5
170
     0
171
     0
290
     0
174
     0
 93
       13
 44
0.0
173
     0
291
     1
 45
0.0
1001
ACAD
1000
AcDbSavedByObjectVersion
1070
     0
  0
VISUALSTYLE
  5
AB51
102
{ACAD_XDICTIONARY
360
ACAD
102
}
102
{ACAD_REACTORS
330
AB49
102
}
330
AB49
100
AcDbVisualStyle
  2

 70
     6
 71
     1
 72
     2
 73
     2
 90
        0
 40
-0.6
 41
-30.0
 62
     5
 63
     7
421
 16777215
 74
     2
 91
        2
 64
     7
 65
   257
 75
     2
175
     1
 42
40.0
 92
        0
 66
   257
 43
1.0
 76
     1
 77
     6
 78
     2
 67
     7
 79
     3
170
     0
171
     0
290
     0
174
     0
 93
        1
 44
0.0
173
     0
291
     0
 45
0.0
1001
ACAD
1000
AcDbSavedByObjectVersion
1070
     0
  0
VISUALSTYLE
  5
AB5F
102
{ACAD_XDICTIONARY
360
ACC9
102
}
102
{ACAD_REACTORS
330
AB49
102
}
330
AB49
100
AcDbVisualStyle
  2

 70
    20
 71
     2
 72
     2
 73
     0
 90
        0
 40
-0.6
 41
-30.0
 62
     5
 63
     7
421
 16777215
 74
     1
 91
        4
 64
     7
 65
   257
 75
     1
175
     1
 42
1.0
 92
       10
 66
     7
 43
1.0
 76
     1
 77
     6
 78
     2
 67
     7
 79
     5
170
     0
171
     0
290
     0
174
     0
 93
        1
 44
0.0
173
     0
291
     1
 45
0.0
1001
ACAD
1000
AcDbSavedByObjectVersion
1070
     0
  0
VISUALSTYLE
  5
AB57
102
{ACAD_XDICTIONARY
360
ACB9
102
}
102
{ACAD_REACTORS
330
AB49
102
}
330
AB49
100
AcDbVisualStyle
  2

 70
    14
 71
     2
 72
     2
 73
     0
 90
        0
 40
-0.6
 41
-30.0
 62
     5
 63
     7
421
 16777215
 74
     1
 91
        4
 64
     7
 65
   257
 75
     7
175
     7
 42
1.0
 92
        8
 66
     7
 43
1.0
 76
     1
 77
     6
 78
     2
 67
     7
 79
     5
170
     0
171
     0
290
     0
174
     0
 93
        1
 44
0.0
173
     0
291
     1
 45
0.0
1001
ACAD
1000
AcDbSavedByObjectVersion
1070
     0
  0
VISUALSTYLE
  5
AB60
102
{ACAD_XDICTIONARY
360
ACCB
102
}
102
{ACAD_REACTORS
330
AB49
102
}
330
AB49
100
AcDbVisualStyle
  2

 70
    21
 71
     2
 72
     2
 73
     0
 90
        0
 40
-0.6
 41
-30.0
 62
     5
 63
     7
421
 16777215
 74
     1
 91
        4
 64
     7
 65
   257
 75
     1
175
     1
 42
1.0
 92
        9
 66
     7
 43
1.0
 76
     1
 77
     6
 78
     2
 67
     7
 79
     5
170
     0
171
     0
290
     0
174
     0
 93
        1
 44
0.0
173
     0
291
     1
 45
0.0
1001
ACAD
1000
AcDbSavedByObjectVersion
1070
     0
  0
VISUALSTYLE
  5
AB53
102
{ACAD_XDICTIONARY
360
ACB1
102
}
102
{ACAD_REACTORS
330
AB49
102
}
330
AB49
100
AcDbVisualStyle
  2

 70
     8
 71
     2
 72
     3
 73
     0
 90
        2
 40
-0.6
 41
30.0
 62
     5
 63
     7
421
 16777215
 74
     0
 91
        0
 64
     7
 65
   257
 75
     1
175
     1
 42
1.0
 92
        8
 66
   257
 43
1.0
 76
     1
 77
     6
 78
     2
 67
     7
 79
     3
170
     0
171
     0
290
     0
174
     0
 93
       13
 44
0.0
173
     0
291
     0
 45
0.0
1001
ACAD
1000
AcDbSavedByObjectVersion
1070
     0
  0
VISUALSTYLE
  5
AB5E
102
{ACAD_XDICTIONARY
360
ACC7
102
}
102
{ACAD_REACTORS
330
AB49
102
}
330
AB49
100
AcDbVisualStyle
  2

 70
    27
 71
     2
 72
     2
 73
     1
 90
        2
 40
-0.6
 41
30.0
 62
     5
 63
     7
421
 16777215
 74
     0
 91
        4
 64
     7
 65
   257
 75
     1
175
     1
 42
1.0
 92
        8
 66
   257
 43
1.0
 76
     1
 77
     6
 78
     2
 67
     8
425
  7895160
 79
     3
170
     0
171
     0
290
     0
174
     0
 93
        5
 44
0.0
173
     0
291
     0
 45
0.0
1001
ACAD
1000
AcDbSavedByObjectVersion
1070
     0
  0
VISUALSTYLE
  5
AB5D
102
{ACAD_XDICTIONARY
360
ACC5
102
}
102
{ACAD_REACTORS
330
AB49
102
}
330
AB49
100
AcDbVisualStyle
  2

 70
    26
 71
     2
 72
     2
 73
     1
 90
        2
 40
-0.6
 41
30.0
 62
     5
 63
     7
421
 16777215
 74
     1
 91
       10
 64
     7
 65
   257
 75
     2
175
     1
 42
1.0
 92
        8
 66
   257
 43
1.0
 76
     1
 77
     6
 78
     2
 67
     7
 79
     3
170
     0
171
     0
290
     0
174
     0
 93
        5
 44
0.0
173
     0
291
     0
 45
0.0
1001
ACAD
1000
AcDbSavedByObjectVersion
1070
     0
  0
VISUALSTYLE
  5
AB5A
102
{ACAD_XDICTIONARY
360
ACBF
102
}
102
{ACAD_REACTORS
330
AB49
102
}
330
AB49
100
AcDbVisualStyle
  2

 70
    23
 71
     2
 72
     2
 73
     3
 90
        0
 40
-0.6
 41
-30.0
 62
     5
 63
     7
421
 16777215
 74
     2
 91
        2
 64
     7
 65
     7
 75
     1
175
     1
 42
40.0
 92
        8
 66
     7
 43
1.0
 76
     1
 77
     6
 78
     2
 67
     7
 79
     3
170
     0
171
     0
290
     0
174
     0
 93
        1
 44
0.0
173
     0
291
     0
 45
0.0
1001
ACAD
1000
AcDbSavedByObjectVersion
1070
     0
  0
VISUALSTYLE
  5
AB5B
102
{ACAD_XDICTIONARY
360
ACC1
102
}
102
{ACAD_REACTORS
330
AB49
102
}
330
AB49
100
AcDbVisualStyle
  2

 70
    24
 71
     1
 72
     2
 73
     2
 90
        0
 40
-0.6
 41
-30.0
 62
     5
 63
     7
421
 16777215
 74
     2
 91
        2
 64
     7
 65
     7
 75
     1
175
     1
 42
40.0
 92
       11
 66
     7
 43
1.0
 76
     1
 77
     6
 78
     2
 67
     7
 79
     6
170
     0
171
     0
290
     0
174
     0
 93
        1
 44
0.0
173
     0
291
     0
 45
0.0
1001
ACAD
1000
AcDbSavedByObjectVersion
1070
     0
  0
VISUALSTYLE
  5
AB56
102
{ACAD_XDICTIONARY
360
ACB7
102
}
102
{ACAD_REACTORS
330
AB49
102
}
330
AB49
100
AcDbVisualStyle
  2

 70
    13
 71
     2
 72
     2
 73
     0
 90
        0
 40
-0.6
 41
-30.0
 62
     5
 63
     7
421
 16777215
 74
     1
 91
        4
 64
     7
 65
   257
 75
     1
175
     1
 42
1.0
 92
       12
 66
     7
 43
1.0
 76
     1
 77
     6
 78
     2
 67
     7
 79
     5
170
     0
171
     0
290
     0
174
     0
 93
        1
 44
0.0
173
     0
291
     1
 45
0.0
1001
ACAD
1000
AcDbSavedByObjectVersion
1070
     0
  0
VISUALSTYLE
  5
AB50
102
{ACAD_XDICTIONARY
360
ACAB
102
}
102
{ACAD_REACTORS
330
AB49
102
}
330
AB49
100
AcDbVisualStyle
  2

 70
     5
 71
     0
 72
     2
 73
     0
 90
        0
 40
-0.6
 41
-30.0
 62
     5
 63
     7
421
 16777215
 74
     1
 91
        4
 64
     7
 65
   257
 75
     1
175
     1
 42
1.0
 92
        0
 66
   257
 43
1.0
 76
     1
 77
     6
 78
     2
 67
     7
 79
     3
170
     0
171
     0
290
     0
174
     0
 93
        1
 44
0.0
173
     0
291
     0
 45
0.0
1001
ACAD
1000
AcDbSavedByObjectVersion
1070
     0
  0
VISUALSTYLE
  5
AB5C
102
{ACAD_XDICTIONARY
360
ACC3
102
}
102
{ACAD_REACTORS
330
AB49
102
}
330
AB49
100
AcDbVisualStyle
  2

 70
    25
 71
     2
 72
     2
 73
     1
 90
        1
 40
0.5
 41
-30.0
 62
     5
 63
     7
421
 16777215
 74
     1
 91
        0
 64
     7
 65
   257
 75
     1
175
     1
 42
1.0
 92
        8
 66
     7
 43
1.0
 76
     1
 77
     6
 78
     2
 67
     7
 79
     3
170
     0
171
     0
290
     0
174
     0
 93
       13
 44
0.0
173
     0
291
     0
 45
0.0
1001
ACAD
1000
AcDbSavedByObjectVersion
1070
     0
  0
DICTIONARYVAR
  5
ABAC
102
{ACAD_REACTORS
330
ABA7
102
}
330
ABA7
100
DictionaryVariables
280
     0
  1
1:1
  0
DICTIONARYVAR
  5
ABA9
102
{ACAD_REACTORS
330
ABA7
102
}
330
ABA7
100
DictionaryVariables
280
     0
  1
STANDARD
  0
DICTIONARYVAR
  5
ABA8
102
{ACAD_REACTORS
330
ABA7
102
}
330
ABA7
100
DictionaryVariables
280
     0
  1
STANDARD
  0
DICTIONARYVAR
  5
ABAA
102
{ACAD_REACTORS
330
ABA7
102
}
330
ABA7
100
DictionaryVariables
280
     0
  1
Imperial24
  0
DICTIONARYVAR
  5
ABAB
102
{ACAD_REACTORS
330
ABA7
102
}
330
ABA7
100
DictionaryVariables
280
     0
  1
Imperial24
  0
DICTIONARYVAR
  5
AC9C
102
{ACAD_REACTORS
330
ABA7
102
}
330
ABA7
100
DictionaryVariables
280
     0
  1
2
  0
DICTIONARY
  5
ACD2
330
AB7C
100
AcDbDictionary
280
     1
281
     1
  3
ACAD_XREC_ROUNDTRIP
360
ACD3
  0
DICTIONARY
  5
AB3A
330
AB39
100
AcDbDictionary
280
     1
281
     1
  3
ACAD_XREC_ROUNDTRIP
360
ABB2
  3
BUMPTILE
360
AB3C
  3
DIFFUSETILE
360
AB3B
  3
OPACITYTILE
360
AB3F
  3
REFLECTIONTILE
360
AB3E
  3
REFRACTIONTILE
360
AB40
  3
SPECULARTILE
360
AB3D
  0
DICTIONARY
  5
AB32
330
AB31
100
AcDbDictionary
280
     1
281
     1
  3
ACAD_XREC_ROUNDTRIP
360
ABB1
  3
BUMPTILE
360
AB34
  3
DIFFUSETILE
360
AB33
  3
OPACITYTILE
360
AB37
  3
REFLECTIONTILE
360
AB36
  3
REFRACTIONTILE
360
AB38
  3
SPECULARTILE
360
AB35
  0
DICTIONARY
  5
AB42
330
AB41
100
AcDbDictionary
280
     1
281
     1
  3
ACAD_XREC_ROUNDTRIP
360
ABB3
  3
BUMPTILE
360
AB44
  3
DIFFUSETILE
360
AB43
  3
OPACITYTILE
360
AB47
  3
REFLECTIONTILE
360
AB46
  3
REFRACTIONTILE
360
AB48
  3
SPECULARTILE
360
AB45
  0
DICTIONARY
  5
ACD0
330
AB7A
100
AcDbDictionary
280
     1
281
     1
  3
ACAD_XREC_ROUNDTRIP
360
ACD1
  0
DICTIONARY
  5
ABAE
330
AB64
100
AcDbDictionary
280
     1
281
     1
  3
ACAD_ROUNDTRIP_2008_TABLESTYLE_CELLSTYLEMAP
360
AC9D
  3
ACAD_XREC_ROUNDTRIP
360
ACCF
  0
DICTIONARY
  5
ACA9
330
AB4F
100
AcDbDictionary
280
     1
281
     1
  3
ACAD_XREC_ROUNDTRIP
360
ACAA
  0
DICTIONARY
  5
ACA7
330
AB4E
100
AcDbDictionary
280
     1
281
     1
  3
ACAD_XREC_ROUNDTRIP
360
ACA8
  0
DICTIONARY
  5
ACB5
330
AB55
100
AcDbDictionary
280
     1
281
     1
  3
ACAD_XREC_ROUNDTRIP
360
ACB6
  0
DICTIONARY
  5
ACBD
330
AB59
100
AcDbDictionary
280
     1
281
     1
  3
ACAD_XREC_ROUNDTRIP
360
ACBE
  0
DICTIONARY
  5
ACAF
330
AB52
100
AcDbDictionary
280
     1
281
     1
  3
ACAD_XREC_ROUNDTRIP
360
ACB0
  0
DICTIONARY
  5
ACB3
330
AB54
100
AcDbDictionary
280
     1
281
     1
  3
ACAD_XREC_ROUNDTRIP
360
ACB4
  0
DICTIONARY
  5
ACCD
330
AB61
100
AcDbDictionary
280
     1
281
     1
  3
ACAD_XREC_ROUNDTRIP
360
ACCE
  0
DICTIONARY
  5
ACBB
330
AB58
100
AcDbDictionary
280
     1
281
     1
  3
ACAD_XREC_ROUNDTRIP
360
ACBC
  0
DICTIONARY
  5
AC9F
330
AB4A
100
AcDbDictionary
280
     1
281
     1
  3
ACAD_XREC_ROUNDTRIP
360
ACA0
  0
DICTIONARY
  5
ACA1
330
AB4B
100
AcDbDictionary
280
     1
281
     1
  3
ACAD_XREC_ROUNDTRIP
360
ACA2
  0
DICTIONARY
  5
ACA3
330
AB4C
100
AcDbDictionary
280
     1
281
     1
  3
ACAD_XREC_ROUNDTRIP
360
ACA4
  0
DICTIONARY
  5
ACA5
330
AB4D
100
AcDbDictionary
280
     1
281
     1
  3
ACAD_XREC_ROUNDTRIP
360
ACA6
  0
DICTIONARY
  5
ACAD
330
AB51
100
AcDbDictionary
280
     1
281
     1
  3
ACAD_XREC_ROUNDTRIP
360
ACAE
  0
DICTIONARY
  5
ACC9
330
AB5F
100
AcDbDictionary
280
     1
281
     1
  3
ACAD_XREC_ROUNDTRIP
360
ACCA
  0
DICTIONARY
  5
ACB9
330
AB57
100
AcDbDictionary
280
     1
281
     1
  3
ACAD_XREC_ROUNDTRIP
360
ACBA
  0
DICTIONARY
  5
ACCB
330
AB60
100
AcDbDictionary
280
     1
281
     1
  3
ACAD_XREC_ROUNDTRIP
360
ACCC
  0
DICTIONARY
  5
ACB1
330
AB53
100
AcDbDictionary
280
     1
281
     1
  3
ACAD_XREC_ROUNDTRIP
360
ACB2
  0
DICTIONARY
  5
ACC7
330
AB5E
100
AcDbDictionary
280
     1
281
     1
  3
ACAD_XREC_ROUNDTRIP
360
ACC8
  0
DICTIONARY
  5
ACC5
330
AB5D
100
AcDbDictionary
280
     1
281
     1
  3
ACAD_XREC_ROUNDTRIP
360
ACC6
  0
DICTIONARY
  5
ACBF
330
AB5A
100
AcDbDictionary
280
     1
281
     1
  3
ACAD_XREC_ROUNDTRIP
360
ACC0
  0
DICTIONARY
  5
ACC1
330
AB5B
100
AcDbDictionary
280
     1
281
     1
  3
ACAD_XREC_ROUNDTRIP
360
ACC2
  0
DICTIONARY
  5
ACB7
330
AB56
100
AcDbDictionary
280
     1
281
     1
  3
ACAD_XREC_ROUNDTRIP
360
ACB8
  0
DICTIONARY
  5
ACAB
330
AB50
100
AcDbDictionary
280
     1
281
     1
  3
ACAD_XREC_ROUNDTRIP
360
ACAC
  0
DICTIONARY
  5
ACC3
330
AB5C
100
AcDbDictionary
280
     1
281
     1
  3
ACAD_XREC_ROUNDTRIP
360
ACC4
  0
XRECORD
  5
ACD3
102
{ACAD_REACTORS
330
ACD2
102
}
330
ACD2
100
AcDbXrecord
280
     1
102
DISPLAYNAME
  1
Imperial24
102
FLAGS
 90
        0
  0
XRECORD
  5
ABB2
102
{ACAD_REACTORS
330
AB3A
102
}
330
AB3A
100
AcDbXrecord
280
     1
102
MATERIAL
148
0.0
149
0.0
149
0.0
 93
        0
 94
      127
282
     0
 72
     0
 77
     0
171
     0
175
     0
179
     0
273
     0
  0
XRECORD
  5
AB3C
102
{ACAD_REACTORS
330
AB3A
102
}
330
AB3A
100
AcDbXrecord
280
     1
270
     1
271
     1
  0
XRECORD
  5
AB3B
102
{ACAD_REACTORS
330
AB3A
102
}
330
AB3A
100
AcDbXrecord
280
     1
270
     1
271
     1
  0
XRECORD
  5
AB3F
102
{ACAD_REACTORS
330
AB3A
102
}
330
AB3A
100
AcDbXrecord
280
     1
270
     1
271
     1
  0
XRECORD
  5
AB3E
102
{ACAD_REACTORS
330
AB3A
102
}
330
AB3A
100
AcDbXrecord
280
     1
270
     1
271
     1
  0
XRECORD
  5
AB40
102
{ACAD_REACTORS
330
AB3A
102
}
330
AB3A
100
AcDbXrecord
280
     1
270
     1
271
     1
  0
XRECORD
  5
AB3D
102
{ACAD_REACTORS
330
AB3A
102
}
330
AB3A
100
AcDbXrecord
280
     1
270
     1
271
     1
  0
XRECORD
  5
ABB1
102
{ACAD_REACTORS
330
AB32
102
}
330
AB32
100
AcDbXrecord
280
     1
102
MATERIAL
148
0.0
149
0.0
149
0.0
 93
        0
 94
      127
282
     0
 72
     0
 77
     0
171
     0
175
     0
179
     0
273
     0
  0
XRECORD
  5
AB34
102
{ACAD_REACTORS
330
AB32
102
}
330
AB32
100
AcDbXrecord
280
     1
270
     1
271
     1
  0
XRECORD
  5
AB33
102
{ACAD_REACTORS
330
AB32
102
}
330
AB32
100
AcDbXrecord
280
     1
270
     1
271
     1
  0
XRECORD
  5
AB37
102
{ACAD_REACTORS
330
AB32
102
}
330
AB32
100
AcDbXrecord
280
     1
270
     1
271
     1
  0
XRECORD
  5
AB36
102
{ACAD_REACTORS
330
AB32
102
}
330
AB32
100
AcDbXrecord
280
     1
270
     1
271
     1
  0
XRECORD
  5
AB38
102
{ACAD_REACTORS
330
AB32
102
}
330
AB32
100
AcDbXrecord
280
     1
270
     1
271
     1
  0
XRECORD
  5
AB35
102
{ACAD_REACTORS
330
AB32
102
}
330
AB32
100
AcDbXrecord
280
     1
270
     1
271
     1
  0
XRECORD
  5
ABB3
102
{ACAD_REACTORS
330
AB42
102
}
330
AB42
100
AcDbXrecord
280
     1
102
MATERIAL
148
0.0
149
0.0
149
0.0
 93
        0
 94
      127
282
     0
 72
     0
 77
     0
171
     0
175
     0
179
     0
273
     0
  0
XRECORD
  5
AB44
102
{ACAD_REACTORS
330
AB42
102
}
330
AB42
100
AcDbXrecord
280
     1
270
     1
271
     1
  0
XRECORD
  5
AB43
102
{ACAD_REACTORS
330
AB42
102
}
330
AB42
100
AcDbXrecord
280
     1
270
     1
271
     1
  0
XRECORD
  5
AB47
102
{ACAD_REACTORS
330
AB42
102
}
330
AB42
100
AcDbXrecord
280
     1
270
     1
271
     1
  0
XRECORD
  5
AB46
102
{ACAD_REACTORS
330
AB42
102
}
330
AB42
100
AcDbXrecord
280
     1
270
     1
271
     1
  0
XRECORD
  5
AB48
102
{ACAD_REACTORS
330
AB42
102
}
330
AB42
100
AcDbXrecord
280
     1
270
     1
271
     1
  0
XRECORD
  5
AB45
102
{ACAD_REACTORS
330
AB42
102
}
330
AB42
100
AcDbXrecord
280
     1
270
     1
271
     1
  0
XRECORD
  5
ACD1
102
{ACAD_REACTORS
330
ACD0
102
}
330
ACD0
100
AcDbXrecord
280
     1
102
DISPLAYNAME
  1
Imperial24
102
FLAGS
 90
        0
  0
CELLSTYLEMAP
  5
AC9D
102
{ACAD_REACTORS
330
ABAE
102
}
330
ABAE
100
AcDbCellStyleMap
 90
        3
300
CELLSTYLE
  1
TABLEFORMAT_BEGIN
 90
        5
170
     1
 91
        0
 92
    32768
 62
   257
 93
        1
300
CONTENTFORMAT
  1
CONTENTFORMAT_BEGIN
 90
        0
 91
        0
 92
      512
 93
        0
300

 40
0.0
140
1.0
 94
        5
 62
     0
340
11
144
0.25
309
CONTENTFORMAT_END
171
     1
301
MARGIN
  1
CELLMARGIN_BEGIN
 40
0.06
 40
0.06
 40
0.06
 40
0.06
 40
0.18
 40
0.18
309
CELLMARGIN_END
 94
        6
 95
        1
302
GRIDFORMAT
  1
GRIDFORMAT_BEGIN
 90
        0
 91
        1
 62
     0
 92
       -2
340
0
 93
        0
 40
0.045
309
GRIDFORMAT_END
 95
        2
302
GRIDFORMAT
  1
GRIDFORMAT_BEGIN
 90
        0
 91
        1
 62
     0
 92
       -2
340
0
 93
        0
 40
0.045
309
GRIDFORMAT_END
 95
        4
302
GRIDFORMAT
  1
GRIDFORMAT_BEGIN
 90
        0
 91
        1
 62
     0
 92
       -2
340
0
 93
        0
 40
0.045
309
GRIDFORMAT_END
 95
        8
302
GRIDFORMAT
  1
GRIDFORMAT_BEGIN
 90
        0
 91
        1
 62
     0
 92
       -2
340
0
 93
        0
 40
0.045
309
GRIDFORMAT_END
 95
       16
302
GRIDFORMAT
  1
GRIDFORMAT_BEGIN
 90
        0
 91
        1
 62
     0
 92
       -2
340
0
 93
        0
 40
0.045
309
GRIDFORMAT_END
 95
       32
302
GRIDFORMAT
  1
GRIDFORMAT_BEGIN
 90
        0
 91
        1
 62
     0
 92
       -2
340
0
 93
        0
 40
0.045
309
GRIDFORMAT_END
309
TABLEFORMAT_END
  1
CELLSTYLE_BEGIN
 90
        1
 91
        1
300
_TITLE
309
CELLSTYLE_END
300
CELLSTYLE
  1
TABLEFORMAT_BEGIN
 90
        5
170
     1
 91
        0
 92
        0
 62
   257
 93
        1
300
CONTENTFORMAT
  1
CONTENTFORMAT_BEGIN
 90
        0
 91
        0
 92
      512
 93
        0
300

 40
0.0
140
1.0
 94
        5
 62
     0
340
11
144
0.18
309
CONTENTFORMAT_END
171
     1
301
MARGIN
  1
CELLMARGIN_BEGIN
 40
0.06
 40
0.06
 40
0.06
 40
0.06
 40
0.18
 40
0.18
309
CELLMARGIN_END
 94
        6
 95
        1
302
GRIDFORMAT
  1
GRIDFORMAT_BEGIN
 90
        0
 91
        1
 62
     0
 92
       -2
340
0
 93
        0
 40
0.045
309
GRIDFORMAT_END
 95
        2
302
GRIDFORMAT
  1
GRIDFORMAT_BEGIN
 90
        0
 91
        1
 62
     0
 92
       -2
340
0
 93
        0
 40
0.045
309
GRIDFORMAT_END
 95
        4
302
GRIDFORMAT
  1
GRIDFORMAT_BEGIN
 90
        0
 91
        1
 62
     0
 92
       -2
340
0
 93
        0
 40
0.045
309
GRIDFORMAT_END
 95
        8
302
GRIDFORMAT
  1
GRIDFORMAT_BEGIN
 90
        0
 91
        1
 62
     0
 92
       -2
340
0
 93
        0
 40
0.045
309
GRIDFORMAT_END
 95
       16
302
GRIDFORMAT
  1
GRIDFORMAT_BEGIN
 90
        0
 91
        1
 62
     0
 92
       -2
340
0
 93
        0
 40
0.045
309
GRIDFORMAT_END
 95
       32
302
GRIDFORMAT
  1
GRIDFORMAT_BEGIN
 90
        0
 91
        1
 62
     0
 92
       -2
340
0
 93
        0
 40
0.045
309
GRIDFORMAT_END
309
TABLEFORMAT_END
  1
CELLSTYLE_BEGIN
 90
        2
 91
        1
300
_HEADER
309
CELLSTYLE_END
300
CELLSTYLE
  1
TABLEFORMAT_BEGIN
 90
        5
170
     1
 91
        0
 92
        0
 62
   257
 93
        1
300
CONTENTFORMAT
  1
CONTENTFORMAT_BEGIN
 90
        0
 91
        0
 92
      512
 93
        0
300

 40
0.0
140
1.0
 94
        2
 62
     0
340
11
144
0.18
309
CONTENTFORMAT_END
171
     1
301
MARGIN
  1
CELLMARGIN_BEGIN
 40
0.06
 40
0.06
 40
0.06
 40
0.06
 40
0.18
 40
0.18
309
CELLMARGIN_END
 94
        6
 95
        1
302
GRIDFORMAT
  1
GRIDFORMAT_BEGIN
 90
        0
 91
        1
 62
     0
 92
       -2
340
0
 93
        0
 40
0.045
309
GRIDFORMAT_END
 95
        2
302
GRIDFORMAT
  1
GRIDFORMAT_BEGIN
 90
        0
 91
        1
 62
     0
 92
       -2
340
0
 93
        0
 40
0.045
309
GRIDFORMAT_END
 95
        4
302
GRIDFORMAT
  1
GRIDFORMAT_BEGIN
 90
        0
 91
        1
 62
     0
 92
       -2
340
0
 93
        0
 40
0.045
309
GRIDFORMAT_END
 95
        8
302
GRIDFORMAT
  1
GRIDFORMAT_BEGIN
 90
        0
 91
        1
 62
     0
 92
       -2
340
0
 93
        0
 40
0.045
309
GRIDFORMAT_END
 95
       16
302
GRIDFORMAT
  1
GRIDFORMAT_BEGIN
 90
        0
 91
        1
 62
     0
 92
       -2
340
0
 93
        0
 40
0.045
309
GRIDFORMAT_END
 95
       32
302
GRIDFORMAT
  1
GRIDFORMAT_BEGIN
 90
        0
 91
        1
 62
     0
 92
       -2
340
0
 93
        0
 40
0.045
309
GRIDFORMAT_END
309
TABLEFORMAT_END
  1
CELLSTYLE_BEGIN
 90
        3
 91
        2
300
_DATA
309
CELLSTYLE_END
  0
XRECORD
  5
ACCF
102
{ACAD_REACTORS
330
ABAE
102
}
330
ABAE
100
AcDbXrecord
280
     1
102
ACAD_ROUNDTRIP_PRE2007_TABLESTYLE
 90
      512
 91
        0
  1

 92
      512
 93
        0
  2

 94
      512
 95
        0
  3

  0
XRECORD
  5
ACAA
102
{ACAD_REACTORS
330
ACA9
102
}
330
ACA9
100
AcDbXrecord
280
     1
102
RTVSPost2010Prop28
280
     1
102
RTVSPost2010PropOp28
 70
     1
102
RTVSPost2010Prop29
280
     1
102
RTVSPost2010PropOp29
 70
     1
102
RTVSPost2010Prop30
280
     0
102
RTVSPost2010PropOp30
 70
     1
102
RTVSPost2010Prop31
280
     0
102
RTVSPost2010PropOp31
 70
     1
102
RTVSPost2010Prop32
280
     0
102
RTVSPost2010PropOp32
 70
     1
102
RTVSPost2010Prop33
280
     0
102
RTVSPost2010PropOp33
 70
     1
102
RTVSPost2010Prop34
280
     0
102
RTVSPost2010PropOp34
 70
     1
102
RTVSPost2010Prop35
280
     0
102
RTVSPost2010PropOp35
 70
     1
102
RTVSPost2010Prop36
280
     0
102
RTVSPost2010PropOp36
 70
     1
102
RTVSPost2010Prop37
 90
       50
102
RTVSPost2010PropOp37
 70
     1
102
RTVSPost2010Prop38
140
0.0
102
RTVSPost2010PropOp38
 70
     1
102
RTVSPost2010Prop39
140
1.0
102
RTVSPost2010PropOp39
 70
     1
102
RTVSPost2010Prop40
 90
        0
102
RTVSPost2010PropOp40
 70
     1
102
RTVSPost2010Prop41ColorIndex
 90
       18
102
RTVSPost2010Prop41ColorRGB
 90
        0
102
RTVSPost2010PropOp41
 70
     1
102
RTVSPost2010Prop42
 90
       50
102
RTVSPost2010PropOp42
 70
     1
102
RTVSPost2010Prop43
 90
        3
102
RTVSPost2010PropOp43
 70
     1
102
RTVSPost2010Prop44ColorIndex
 90
        5
102
RTVSPost2010Prop44ColorRGB
 90
      255
102
RTVSPost2010PropOp44
 70
     1
102
RTVSPost2010Prop45
280
     0
102
RTVSPost2010PropOp45
 70
     1
102
RTVSPost2010Prop46
 90
       50
102
RTVSPost2010PropOp46
 70
     1
102
RTVSPost2010Prop47
 90
       50
102
RTVSPost2010PropOp47
 70
     1
102
RTVSPost2010Prop48
 90
       50
102
RTVSPost2010PropOp48
 70
     1
102
RTVSPost2010Prop49
280
     0
102
RTVSPost2010PropOp49
 70
     1
102
RTVSPost2010Prop50
 90
       50
102
RTVSPost2010PropOp50
 70
     1
102
RTVSPost2010Prop51ColorIndex
 90
      256
102
RTVSPost2010Prop51ColorRGB
 90
-16777216
102
RTVSPost2010PropOp51
 70
     0
102
RTVSPost2010Prop52
140
1.0
102
RTVSPost2010PropOp52
 70
     0
102
RTVSPost2010Prop53
 90
        2
102
RTVSPost2010PropOp53
 70
     1
102
RTVSPost2010Prop54
  1
strokes_ogs.tif
102
RTVSPost2010PropOp54
 70
     1
102
RTVSPost2010Prop55
280
     0
102
RTVSPost2010PropOp55
 70
     1
102
RTVSPost2010Prop56
140
1.0
102
RTVSPost2010PropOp56
 70
     1
102
RTVSPost2010Prop57
140
1.0
102
RTVSPost2010PropOp57
 70
     1
102
RTVSPropertyOp0
 70
     1
102
RTVSPropertyOp1
 70
     1
102
RTVSPropertyOp2
 70
     1
102
RTVSPropertyOp3
 70
     1
102
RTVSPropertyOp4
 70
     1
102
RTVSPropertyOp5
 70
     1
102
RTVSPropertyOp6
 70
     1
102
RTVSPropertyOp7
 70
     1
102
RTVSPropertyOp8
 70
     1
102
RTVSPropertyOp9
 70
     1
102
RTVSPropertyOp10
 70
     1
102
RTVSPropertyOp11
 70
     1
102
RTVSPropertyOp12
 70
     1
102
RTVSPropertyOp13
 70
     1
102
RTVSPropertyOp14
 70
     1
102
RTVSPropertyOp15
 70
     1
102
RTVSPropertyOp16
 70
     1
102
RTVSPropertyOp17
 70
     1
102
RTVSPropertyOp18
 70
     1
102
RTVSPropertyOp19
 70
     1
102
RTVSPropertyOp20
 70
     1
102
RTVSPropertyOp21
 70
     1
102
RTVSPropertyOp22
 70
     1
102
RTVSPropertyOp23
 70
     1
102
RTVSPropertyOp24
 70
     1
102
RTVSPropertyOp25
 70
     1
102
RTVSPropertyOp26
 70
     1
102
RTVSPropertyOp27
 70
     1
102
RTVSPropertyOp28
 70
     1
102
RTVSPropertyOp29
 70
     1
102
RTVSPropertyOp30
 70
     1
102
RTVSPropertyOp31
 70
     1
102
RTVSPropertyOp32
 70
     1
102
RTVSPropertyOp33
 70
     1
102
RTVSPropertyOp34
 70
     1
102
RTVSPropertyOp35
 70
     1
102
RTVSPropertyOp36
 70
     1
102
RTVSPropertyOp37
 70
     1
102
RTVSPropertyOp38
 70
     1
102
RTVSPropertyOp39
 70
     1
102
RTVSPropertyOp40
 70
     1
102
RTVSPropertyOp41
 70
     1
102
RTVSPropertyOp42
 70
     1
102
RTVSPropertyOp43
 70
     1
102
RTVSPropertyOp44
 70
     1
102
RTVSPropertyOp45
 70
     1
102
RTVSPropertyOp46
 70
     1
102
RTVSPropertyOp47
 70
     1
102
RTVSPropertyOp48
 70
     1
102
RTVSPropertyOp49
 70
     1
102
RTVSPropertyOp50
 70
     1
102
RTVSPropertyOp51
 70
     0
102
RTVSPropertyOp52
 70
     0
102
RTVSPropertyOp53
 70
     1
102
RTVSPropertyOp54
 70
     1
102
RTVSPropertyOp55
 70
     1
102
RTVSPropertyOp56
 70
     1
102
RTVSPropertyOp57
 70
     1
102
RTVSPropertyOp58
 70
     1
102
RTVSPropertyOp59
 70
     1
102
RTVSPropertyOp60
 70
     1
102
RTVSPropertyOp61
 70
     1
102
RTVSPropertyOp62
 70
     1
  0
XRECORD
  5
ACA8
102
{ACAD_REACTORS
330
ACA7
102
}
330
ACA7
100
AcDbXrecord
280
     1
102
RTVSPost2010Prop28
280
     0
102
RTVSPost2010PropOp28
 70
     1
102
RTVSPost2010Prop29
280
     1
102
RTVSPost2010PropOp29
 70
     1
102
RTVSPost2010Prop30
280
     1
102
RTVSPost2010PropOp30
 70
     1
102
RTVSPost2010Prop31
280
     0
102
RTVSPost2010PropOp31
 70
     1
102
RTVSPost2010Prop32
280
     0
102
RTVSPost2010PropOp32
 70
     1
102
RTVSPost2010Prop33
280
     0
102
RTVSPost2010PropOp33
 70
     1
102
RTVSPost2010Prop34
280
     0
102
RTVSPost2010PropOp34
 70
     1
102
RTVSPost2010Prop35
280
     0
102
RTVSPost2010PropOp35
 70
     1
102
RTVSPost2010Prop36
280
     0
102
RTVSPost2010PropOp36
 70
     1
102
RTVSPost2010Prop37
 90
       50
102
RTVSPost2010PropOp37
 70
     1
102
RTVSPost2010Prop38
140
0.0
102
RTVSPost2010PropOp38
 70
     1
102
RTVSPost2010Prop39
140
1.0
102
RTVSPost2010PropOp39
 70
     1
102
RTVSPost2010Prop40
 90
        0
102
RTVSPost2010PropOp40
 70
     1
102
RTVSPost2010Prop41ColorIndex
 90
       18
102
RTVSPost2010Prop41ColorRGB
 90
        0
102
RTVSPost2010PropOp41
 70
     1
102
RTVSPost2010Prop42
 90
       50
102
RTVSPost2010PropOp42
 70
     1
102
RTVSPost2010Prop43
 90
        3
102
RTVSPost2010PropOp43
 70
     1
102
RTVSPost2010Prop44ColorIndex
 90
        5
102
RTVSPost2010Prop44ColorRGB
 90
      255
102
RTVSPost2010PropOp44
 70
     1
102
RTVSPost2010Prop45
280
     0
102
RTVSPost2010PropOp45
 70
     1
102
RTVSPost2010Prop46
 90
       50
102
RTVSPost2010PropOp46
 70
     1
102
RTVSPost2010Prop47
 90
       50
102
RTVSPost2010PropOp47
 70
     1
102
RTVSPost2010Prop48
 90
       50
102
RTVSPost2010PropOp48
 70
     1
102
RTVSPost2010Prop49
280
     0
102
RTVSPost2010PropOp49
 70
     1
102
RTVSPost2010Prop50
 90
       50
102
RTVSPost2010PropOp50
 70
     1
102
RTVSPost2010Prop51ColorIndex
 90
      256
102
RTVSPost2010Prop51ColorRGB
 90
-16777216
102
RTVSPost2010PropOp51
 70
     0
102
RTVSPost2010Prop52
140
1.0
102
RTVSPost2010PropOp52
 70
     0
102
RTVSPost2010Prop53
 90
        2
102
RTVSPost2010PropOp53
 70
     1
102
RTVSPost2010Prop54
  1
strokes_ogs.tif
102
RTVSPost2010PropOp54
 70
     1
102
RTVSPost2010Prop55
280
     0
102
RTVSPost2010PropOp55
 70
     1
102
RTVSPost2010Prop56
140
1.0
102
RTVSPost2010PropOp56
 70
     1
102
RTVSPost2010Prop57
140
1.0
102
RTVSPost2010PropOp57
 70
     1
102
RTVSPropertyOp0
 70
     1
102
RTVSPropertyOp1
 70
     1
102
RTVSPropertyOp2
 70
     1
102
RTVSPropertyOp3
 70
     1
102
RTVSPropertyOp4
 70
     1
102
RTVSPropertyOp5
 70
     1
102
RTVSPropertyOp6
 70
     1
102
RTVSPropertyOp7
 70
     1
102
RTVSPropertyOp8
 70
     1
102
RTVSPropertyOp9
 70
     1
102
RTVSPropertyOp10
 70
     1
102
RTVSPropertyOp11
 70
     1
102
RTVSPropertyOp12
 70
     1
102
RTVSPropertyOp13
 70
     1
102
RTVSPropertyOp14
 70
     1
102
RTVSPropertyOp15
 70
     1
102
RTVSPropertyOp16
 70
     1
102
RTVSPropertyOp17
 70
     1
102
RTVSPropertyOp18
 70
     1
102
RTVSPropertyOp19
 70
     1
102
RTVSPropertyOp20
 70
     1
102
RTVSPropertyOp21
 70
     1
102
RTVSPropertyOp22
 70
     1
102
RTVSPropertyOp23
 70
     1
102
RTVSPropertyOp24
 70
     1
102
RTVSPropertyOp25
 70
     1
102
RTVSPropertyOp26
 70
     1
102
RTVSPropertyOp27
 70
     1
102
RTVSPropertyOp28
 70
     1
102
RTVSPropertyOp29
 70
     1
102
RTVSPropertyOp30
 70
     1
102
RTVSPropertyOp31
 70
     1
102
RTVSPropertyOp32
 70
     1
102
RTVSPropertyOp33
 70
     1
102
RTVSPropertyOp34
 70
     1
102
RTVSPropertyOp35
 70
     1
102
RTVSPropertyOp36
 70
     1
102
RTVSPropertyOp37
 70
     1
102
RTVSPropertyOp38
 70
     1
102
RTVSPropertyOp39
 70
     1
102
RTVSPropertyOp40
 70
     1
102
RTVSPropertyOp41
 70
     1
102
RTVSPropertyOp42
 70
     1
102
RTVSPropertyOp43
 70
     1
102
RTVSPropertyOp44
 70
     1
102
RTVSPropertyOp45
 70
     1
102
RTVSPropertyOp46
 70
     1
102
RTVSPropertyOp47
 70
     1
102
RTVSPropertyOp48
 70
     1
102
RTVSPropertyOp49
 70
     1
102
RTVSPropertyOp50
 70
     1
102
RTVSPropertyOp51
 70
     0
102
RTVSPropertyOp52
 70
     0
102
RTVSPropertyOp53
 70
     1
102
RTVSPropertyOp54
 70
     1
102
RTVSPropertyOp55
 70
     1
102
RTVSPropertyOp56
 70
     1
102
RTVSPropertyOp57
 70
     1
102
RTVSPropertyOp58
 70
     1
102
RTVSPropertyOp59
 70
     1
102
RTVSPropertyOp60
 70
     1
102
RTVSPropertyOp61
 70
     1
102
RTVSPropertyOp62
 70
     1
  0
XRECORD
  5
ACB6
102
{ACAD_REACTORS
330
ACB5
102
}
330
ACB5
100
AcDbXrecord
280
     1
102
RTVSPost2010Prop28
280
     0
102
RTVSPost2010PropOp28
 70
     1
102
RTVSPost2010Prop29
280
     1
102
RTVSPost2010PropOp29
 70
     1
102
RTVSPost2010Prop30
280
     1
102
RTVSPost2010PropOp30
 70
     1
102
RTVSPost2010Prop31
280
     0
102
RTVSPost2010PropOp31
 70
     1
102
RTVSPost2010Prop32
280
     0
102
RTVSPost2010PropOp32
 70
     1
102
RTVSPost2010Prop33
280
     0
102
RTVSPost2010PropOp33
 70
     1
102
RTVSPost2010Prop34
280
     0
102
RTVSPost2010PropOp34
 70
     1
102
RTVSPost2010Prop35
280
     0
102
RTVSPost2010PropOp35
 70
     1
102
RTVSPost2010Prop36
280
     0
102
RTVSPost2010PropOp36
 70
     1
102
RTVSPost2010Prop37
 90
       50
102
RTVSPost2010PropOp37
 70
     1
102
RTVSPost2010Prop38
140
0.0
102
RTVSPost2010PropOp38
 70
     1
102
RTVSPost2010Prop39
140
1.0
102
RTVSPost2010PropOp39
 70
     1
102
RTVSPost2010Prop40
 90
        0
102
RTVSPost2010PropOp40
 70
     1
102
RTVSPost2010Prop41ColorIndex
 90
       18
102
RTVSPost2010Prop41ColorRGB
 90
        0
102
RTVSPost2010PropOp41
 70
     1
102
RTVSPost2010Prop42
 90
       50
102
RTVSPost2010PropOp42
 70
     1
102
RTVSPost2010Prop43
 90
        3
102
RTVSPost2010PropOp43
 70
     1
102
RTVSPost2010Prop44ColorIndex
 90
        5
102
RTVSPost2010Prop44ColorRGB
 90
      255
102
RTVSPost2010PropOp44
 70
     1
102
RTVSPost2010Prop45
280
     0
102
RTVSPost2010PropOp45
 70
     1
102
RTVSPost2010Prop46
 90
       50
102
RTVSPost2010PropOp46
 70
     1
102
RTVSPost2010Prop47
 90
       50
102
RTVSPost2010PropOp47
 70
     1
102
RTVSPost2010Prop48
 90
       50
102
RTVSPost2010PropOp48
 70
     1
102
RTVSPost2010Prop49
280
     0
102
RTVSPost2010PropOp49
 70
     1
102
RTVSPost2010Prop50
 90
       50
102
RTVSPost2010PropOp50
 70
     1
102
RTVSPost2010Prop51ColorIndex
 90
      256
102
RTVSPost2010Prop51ColorRGB
 90
-16777216
102
RTVSPost2010PropOp51
 70
     0
102
RTVSPost2010Prop52
140
1.0
102
RTVSPost2010PropOp52
 70
     0
102
RTVSPost2010Prop53
 90
        2
102
RTVSPost2010PropOp53
 70
     1
102
RTVSPost2010Prop54
  1
strokes_ogs.tif
102
RTVSPost2010PropOp54
 70
     1
102
RTVSPost2010Prop55
280
     0
102
RTVSPost2010PropOp55
 70
     1
102
RTVSPost2010Prop56
140
1.0
102
RTVSPost2010PropOp56
 70
     1
102
RTVSPost2010Prop57
140
1.0
102
RTVSPost2010PropOp57
 70
     1
102
RTVSPropertyOp0
 70
     1
102
RTVSPropertyOp1
 70
     1
102
RTVSPropertyOp2
 70
     1
102
RTVSPropertyOp3
 70
     1
102
RTVSPropertyOp4
 70
     1
102
RTVSPropertyOp5
 70
     1
102
RTVSPropertyOp6
 70
     1
102
RTVSPropertyOp7
 70
     1
102
RTVSPropertyOp8
 70
     1
102
RTVSPropertyOp9
 70
     1
102
RTVSPropertyOp10
 70
     1
102
RTVSPropertyOp11
 70
     1
102
RTVSPropertyOp12
 70
     1
102
RTVSPropertyOp13
 70
     1
102
RTVSPropertyOp14
 70
     1
102
RTVSPropertyOp15
 70
     1
102
RTVSPropertyOp16
 70
     1
102
RTVSPropertyOp17
 70
     1
102
RTVSPropertyOp18
 70
     1
102
RTVSPropertyOp19
 70
     1
102
RTVSPropertyOp20
 70
     1
102
RTVSPropertyOp21
 70
     1
102
RTVSPropertyOp22
 70
     1
102
RTVSPropertyOp23
 70
     1
102
RTVSPropertyOp24
 70
     1
102
RTVSPropertyOp25
 70
     1
102
RTVSPropertyOp26
 70
     1
102
RTVSPropertyOp27
 70
     1
102
RTVSPropertyOp28
 70
     1
102
RTVSPropertyOp29
 70
     1
102
RTVSPropertyOp30
 70
     1
102
RTVSPropertyOp31
 70
     1
102
RTVSPropertyOp32
 70
     1
102
RTVSPropertyOp33
 70
     1
102
RTVSPropertyOp34
 70
     1
102
RTVSPropertyOp35
 70
     1
102
RTVSPropertyOp36
 70
     1
102
RTVSPropertyOp37
 70
     1
102
RTVSPropertyOp38
 70
     1
102
RTVSPropertyOp39
 70
     1
102
RTVSPropertyOp40
 70
     1
102
RTVSPropertyOp41
 70
     1
102
RTVSPropertyOp42
 70
     1
102
RTVSPropertyOp43
 70
     1
102
RTVSPropertyOp44
 70
     1
102
RTVSPropertyOp45
 70
     1
102
RTVSPropertyOp46
 70
     1
102
RTVSPropertyOp47
 70
     1
102
RTVSPropertyOp48
 70
     1
102
RTVSPropertyOp49
 70
     1
102
RTVSPropertyOp50
 70
     1
102
RTVSPropertyOp51
 70
     0
102
RTVSPropertyOp52
 70
     0
102
RTVSPropertyOp53
 70
     1
102
RTVSPropertyOp54
 70
     1
102
RTVSPropertyOp55
 70
     1
102
RTVSPropertyOp56
 70
     1
102
RTVSPropertyOp57
 70
     1
102
RTVSPropertyOp58
 70
     1
102
RTVSPropertyOp59
 70
     1
102
RTVSPropertyOp60
 70
     1
102
RTVSPropertyOp61
 70
     1
102
RTVSPropertyOp62
 70
     1
  0
XRECORD
  5
ACBE
102
{ACAD_REACTORS
330
ACBD
102
}
330
ACBD
100
AcDbXrecord
280
     1
102
RTVSPost2010Prop28
280
     0
102
RTVSPost2010PropOp28
 70
     1
102
RTVSPost2010Prop29
280
     1
102
RTVSPost2010PropOp29
 70
     1
102
RTVSPost2010Prop30
280
     1
102
RTVSPost2010PropOp30
 70
     1
102
RTVSPost2010Prop31
280
     0
102
RTVSPost2010PropOp31
 70
     1
102
RTVSPost2010Prop32
280
     0
102
RTVSPost2010PropOp32
 70
     1
102
RTVSPost2010Prop33
280
     0
102
RTVSPost2010PropOp33
 70
     1
102
RTVSPost2010Prop34
280
     0
102
RTVSPost2010PropOp34
 70
     1
102
RTVSPost2010Prop35
280
     0
102
RTVSPost2010PropOp35
 70
     1
102
RTVSPost2010Prop36
280
     0
102
RTVSPost2010PropOp36
 70
     1
102
RTVSPost2010Prop37
 90
       50
102
RTVSPost2010PropOp37
 70
     1
102
RTVSPost2010Prop38
140
0.0
102
RTVSPost2010PropOp38
 70
     1
102
RTVSPost2010Prop39
140
1.0
102
RTVSPost2010PropOp39
 70
     1
102
RTVSPost2010Prop40
 90
        0
102
RTVSPost2010PropOp40
 70
     1
102
RTVSPost2010Prop41ColorIndex
 90
       18
102
RTVSPost2010Prop41ColorRGB
 90
        0
102
RTVSPost2010PropOp41
 70
     1
102
RTVSPost2010Prop42
 90
       50
102
RTVSPost2010PropOp42
 70
     1
102
RTVSPost2010Prop43
 90
        3
102
RTVSPost2010PropOp43
 70
     1
102
RTVSPost2010Prop44ColorIndex
 90
        5
102
RTVSPost2010Prop44ColorRGB
 90
      255
102
RTVSPost2010PropOp44
 70
     1
102
RTVSPost2010Prop45
280
     0
102
RTVSPost2010PropOp45
 70
     1
102
RTVSPost2010Prop46
 90
       50
102
RTVSPost2010PropOp46
 70
     1
102
RTVSPost2010Prop47
 90
       50
102
RTVSPost2010PropOp47
 70
     1
102
RTVSPost2010Prop48
 90
       50
102
RTVSPost2010PropOp48
 70
     1
102
RTVSPost2010Prop49
280
     0
102
RTVSPost2010PropOp49
 70
     1
102
RTVSPost2010Prop50
 90
       50
102
RTVSPost2010PropOp50
 70
     1
102
RTVSPost2010Prop51ColorIndex
 90
      256
102
RTVSPost2010Prop51ColorRGB
 90
-16777216
102
RTVSPost2010PropOp51
 70
     0
102
RTVSPost2010Prop52
140
1.0
102
RTVSPost2010PropOp52
 70
     0
102
RTVSPost2010Prop53
 90
        2
102
RTVSPost2010PropOp53
 70
     1
102
RTVSPost2010Prop54
  1
strokes_ogs.tif
102
RTVSPost2010PropOp54
 70
     1
102
RTVSPost2010Prop55
280
     0
102
RTVSPost2010PropOp55
 70
     1
102
RTVSPost2010Prop56
140
1.0
102
RTVSPost2010PropOp56
 70
     1
102
RTVSPost2010Prop57
140
1.0
102
RTVSPost2010PropOp57
 70
     1
102
RTVSPropertyOp0
 70
     1
102
RTVSPropertyOp1
 70
     1
102
RTVSPropertyOp2
 70
     1
102
RTVSPropertyOp3
 70
     1
102
RTVSPropertyOp4
 70
     1
102
RTVSPropertyOp5
 70
     1
102
RTVSPropertyOp6
 70
     1
102
RTVSPropertyOp7
 70
     1
102
RTVSPropertyOp8
 70
     1
102
RTVSPropertyOp9
 70
     1
102
RTVSPropertyOp10
 70
     1
102
RTVSPropertyOp11
 70
     1
102
RTVSPropertyOp12
 70
     1
102
RTVSPropertyOp13
 70
     1
102
RTVSPropertyOp14
 70
     1
102
RTVSPropertyOp15
 70
     1
102
RTVSPropertyOp16
 70
     1
102
RTVSPropertyOp17
 70
     1
102
RTVSPropertyOp18
 70
     1
102
RTVSPropertyOp19
 70
     1
102
RTVSPropertyOp20
 70
     1
102
RTVSPropertyOp21
 70
     1
102
RTVSPropertyOp22
 70
     1
102
RTVSPropertyOp23
 70
     1
102
RTVSPropertyOp24
 70
     1
102
RTVSPropertyOp25
 70
     1
102
RTVSPropertyOp26
 70
     1
102
RTVSPropertyOp27
 70
     1
102
RTVSPropertyOp28
 70
     1
102
RTVSPropertyOp29
 70
     1
102
RTVSPropertyOp30
 70
     1
102
RTVSPropertyOp31
 70
     1
102
RTVSPropertyOp32
 70
     1
102
RTVSPropertyOp33
 70
     1
102
RTVSPropertyOp34
 70
     1
102
RTVSPropertyOp35
 70
     1
102
RTVSPropertyOp36
 70
     1
102
RTVSPropertyOp37
 70
     1
102
RTVSPropertyOp38
 70
     1
102
RTVSPropertyOp39
 70
     1
102
RTVSPropertyOp40
 70
     1
102
RTVSPropertyOp41
 70
     1
102
RTVSPropertyOp42
 70
     1
102
RTVSPropertyOp43
 70
     1
102
RTVSPropertyOp44
 70
     1
102
RTVSPropertyOp45
 70
     1
102
RTVSPropertyOp46
 70
     1
102
RTVSPropertyOp47
 70
     1
102
RTVSPropertyOp48
 70
     1
102
RTVSPropertyOp49
 70
     1
102
RTVSPropertyOp50
 70
     1
102
RTVSPropertyOp51
 70
     0
102
RTVSPropertyOp52
 70
     0
102
RTVSPropertyOp53
 70
     1
102
RTVSPropertyOp54
 70
     1
102
RTVSPropertyOp55
 70
     1
102
RTVSPropertyOp56
 70
     1
102
RTVSPropertyOp57
 70
     1
102
RTVSPropertyOp58
 70
     1
102
RTVSPropertyOp59
 70
     1
102
RTVSPropertyOp60
 70
     1
102
RTVSPropertyOp61
 70
     1
102
RTVSPropertyOp62
 70
     1
  0
XRECORD
  5
ACB0
102
{ACAD_REACTORS
330
ACAF
102
}
330
ACAF
100
AcDbXrecord
280
     1
102
RTVSPost2010Prop28
280
     0
102
RTVSPost2010PropOp28
 70
     1
102
RTVSPost2010Prop29
280
     1
102
RTVSPost2010PropOp29
 70
     1
102
RTVSPost2010Prop30
280
     1
102
RTVSPost2010PropOp30
 70
     1
102
RTVSPost2010Prop31
280
     0
102
RTVSPost2010PropOp31
 70
     1
102
RTVSPost2010Prop32
280
     0
102
RTVSPost2010PropOp32
 70
     1
102
RTVSPost2010Prop33
280
     0
102
RTVSPost2010PropOp33
 70
     1
102
RTVSPost2010Prop34
280
     0
102
RTVSPost2010PropOp34
 70
     1
102
RTVSPost2010Prop35
280
     0
102
RTVSPost2010PropOp35
 70
     1
102
RTVSPost2010Prop36
280
     0
102
RTVSPost2010PropOp36
 70
     1
102
RTVSPost2010Prop37
 90
       50
102
RTVSPost2010PropOp37
 70
     1
102
RTVSPost2010Prop38
140
0.0
102
RTVSPost2010PropOp38
 70
     1
102
RTVSPost2010Prop39
140
1.0
102
RTVSPost2010PropOp39
 70
     1
102
RTVSPost2010Prop40
 90
        0
102
RTVSPost2010PropOp40
 70
     1
102
RTVSPost2010Prop41ColorIndex
 90
       18
102
RTVSPost2010Prop41ColorRGB
 90
        0
102
RTVSPost2010PropOp41
 70
     1
102
RTVSPost2010Prop42
 90
       50
102
RTVSPost2010PropOp42
 70
     1
102
RTVSPost2010Prop43
 90
        3
102
RTVSPost2010PropOp43
 70
     1
102
RTVSPost2010Prop44ColorIndex
 90
        5
102
RTVSPost2010Prop44ColorRGB
 90
      255
102
RTVSPost2010PropOp44
 70
     1
102
RTVSPost2010Prop45
280
     0
102
RTVSPost2010PropOp45
 70
     1
102
RTVSPost2010Prop46
 90
       50
102
RTVSPost2010PropOp46
 70
     1
102
RTVSPost2010Prop47
 90
       50
102
RTVSPost2010PropOp47
 70
     1
102
RTVSPost2010Prop48
 90
       50
102
RTVSPost2010PropOp48
 70
     1
102
RTVSPost2010Prop49
280
     0
102
RTVSPost2010PropOp49
 70
     1
102
RTVSPost2010Prop50
 90
       50
102
RTVSPost2010PropOp50
 70
     1
102
RTVSPost2010Prop51ColorIndex
 90
      256
102
RTVSPost2010Prop51ColorRGB
 90
-16777216
102
RTVSPost2010PropOp51
 70
     0
102
RTVSPost2010Prop52
140
1.0
102
RTVSPost2010PropOp52
 70
     0
102
RTVSPost2010Prop53
 90
        2
102
RTVSPost2010PropOp53
 70
     1
102
RTVSPost2010Prop54
  1
strokes_ogs.tif
102
RTVSPost2010PropOp54
 70
     1
102
RTVSPost2010Prop55
280
     0
102
RTVSPost2010PropOp55
 70
     1
102
RTVSPost2010Prop56
140
1.0
102
RTVSPost2010PropOp56
 70
     1
102
RTVSPost2010Prop57
140
1.0
102
RTVSPost2010PropOp57
 70
     1
102
RTVSPropertyOp0
 70
     1
102
RTVSPropertyOp1
 70
     1
102
RTVSPropertyOp2
 70
     1
102
RTVSPropertyOp3
 70
     1
102
RTVSPropertyOp4
 70
     1
102
RTVSPropertyOp5
 70
     1
102
RTVSPropertyOp6
 70
     1
102
RTVSPropertyOp7
 70
     1
102
RTVSPropertyOp8
 70
     1
102
RTVSPropertyOp9
 70
     1
102
RTVSPropertyOp10
 70
     1
102
RTVSPropertyOp11
 70
     1
102
RTVSPropertyOp12
 70
     1
102
RTVSPropertyOp13
 70
     1
102
RTVSPropertyOp14
 70
     1
102
RTVSPropertyOp15
 70
     1
102
RTVSPropertyOp16
 70
     1
102
RTVSPropertyOp17
 70
     1
102
RTVSPropertyOp18
 70
     1
102
RTVSPropertyOp19
 70
     1
102
RTVSPropertyOp20
 70
     1
102
RTVSPropertyOp21
 70
     1
102
RTVSPropertyOp22
 70
     1
102
RTVSPropertyOp23
 70
     1
102
RTVSPropertyOp24
 70
     1
102
RTVSPropertyOp25
 70
     1
102
RTVSPropertyOp26
 70
     1
102
RTVSPropertyOp27
 70
     1
102
RTVSPropertyOp28
 70
     1
102
RTVSPropertyOp29
 70
     1
102
RTVSPropertyOp30
 70
     1
102
RTVSPropertyOp31
 70
     1
102
RTVSPropertyOp32
 70
     1
102
RTVSPropertyOp33
 70
     1
102
RTVSPropertyOp34
 70
     1
102
RTVSPropertyOp35
 70
     1
102
RTVSPropertyOp36
 70
     1
102
RTVSPropertyOp37
 70
     1
102
RTVSPropertyOp38
 70
     1
102
RTVSPropertyOp39
 70
     1
102
RTVSPropertyOp40
 70
     1
102
RTVSPropertyOp41
 70
     1
102
RTVSPropertyOp42
 70
     1
102
RTVSPropertyOp43
 70
     1
102
RTVSPropertyOp44
 70
     1
102
RTVSPropertyOp45
 70
     1
102
RTVSPropertyOp46
 70
     1
102
RTVSPropertyOp47
 70
     1
102
RTVSPropertyOp48
 70
     1
102
RTVSPropertyOp49
 70
     1
102
RTVSPropertyOp50
 70
     1
102
RTVSPropertyOp51
 70
     0
102
RTVSPropertyOp52
 70
     0
102
RTVSPropertyOp53
 70
     1
102
RTVSPropertyOp54
 70
     1
102
RTVSPropertyOp55
 70
     1
102
RTVSPropertyOp56
 70
     1
102
RTVSPropertyOp57
 70
     1
102
RTVSPropertyOp58
 70
     1
102
RTVSPropertyOp59
 70
     1
102
RTVSPropertyOp60
 70
     1
102
RTVSPropertyOp61
 70
     1
102
RTVSPropertyOp62
 70
     1
  0
XRECORD
  5
ACB4
102
{ACAD_REACTORS
330
ACB3
102
}
330
ACB3
100
AcDbXrecord
280
     1
102
RTVSPost2010Prop28
280
     0
102
RTVSPost2010PropOp28
 70
     1
102
RTVSPost2010Prop29
280
     1
102
RTVSPost2010PropOp29
 70
     1
102
RTVSPost2010Prop30
280
     1
102
RTVSPost2010PropOp30
 70
     1
102
RTVSPost2010Prop31
280
     0
102
RTVSPost2010PropOp31
 70
     1
102
RTVSPost2010Prop32
280
     0
102
RTVSPost2010PropOp32
 70
     1
102
RTVSPost2010Prop33
280
     0
102
RTVSPost2010PropOp33
 70
     1
102
RTVSPost2010Prop34
280
     0
102
RTVSPost2010PropOp34
 70
     1
102
RTVSPost2010Prop35
280
     0
102
RTVSPost2010PropOp35
 70
     1
102
RTVSPost2010Prop36
280
     0
102
RTVSPost2010PropOp36
 70
     1
102
RTVSPost2010Prop37
 90
       50
102
RTVSPost2010PropOp37
 70
     1
102
RTVSPost2010Prop38
140
0.0
102
RTVSPost2010PropOp38
 70
     1
102
RTVSPost2010Prop39
140
1.0
102
RTVSPost2010PropOp39
 70
     1
102
RTVSPost2010Prop40
 90
        0
102
RTVSPost2010PropOp40
 70
     1
102
RTVSPost2010Prop41ColorIndex
 90
       18
102
RTVSPost2010Prop41ColorRGB
 90
        0
102
RTVSPost2010PropOp41
 70
     1
102
RTVSPost2010Prop42
 90
       50
102
RTVSPost2010PropOp42
 70
     1
102
RTVSPost2010Prop43
 90
        3
102
RTVSPost2010PropOp43
 70
     1
102
RTVSPost2010Prop44ColorIndex
 90
        5
102
RTVSPost2010Prop44ColorRGB
 90
      255
102
RTVSPost2010PropOp44
 70
     1
102
RTVSPost2010Prop45
280
     0
102
RTVSPost2010PropOp45
 70
     1
102
RTVSPost2010Prop46
 90
       50
102
RTVSPost2010PropOp46
 70
     1
102
RTVSPost2010Prop47
 90
       50
102
RTVSPost2010PropOp47
 70
     1
102
RTVSPost2010Prop48
 90
       50
102
RTVSPost2010PropOp48
 70
     1
102
RTVSPost2010Prop49
280
     0
102
RTVSPost2010PropOp49
 70
     1
102
RTVSPost2010Prop50
 90
       50
102
RTVSPost2010PropOp50
 70
     1
102
RTVSPost2010Prop51ColorIndex
 90
      256
102
RTVSPost2010Prop51ColorRGB
 90
-16777216
102
RTVSPost2010PropOp51
 70
     0
102
RTVSPost2010Prop52
140
1.0
102
RTVSPost2010PropOp52
 70
     0
102
RTVSPost2010Prop53
 90
        2
102
RTVSPost2010PropOp53
 70
     1
102
RTVSPost2010Prop54
  1
strokes_ogs.tif
102
RTVSPost2010PropOp54
 70
     1
102
RTVSPost2010Prop55
280
     0
102
RTVSPost2010PropOp55
 70
     1
102
RTVSPost2010Prop56
140
1.0
102
RTVSPost2010PropOp56
 70
     1
102
RTVSPost2010Prop57
140
1.0
102
RTVSPost2010PropOp57
 70
     1
102
RTVSPropertyOp0
 70
     1
102
RTVSPropertyOp1
 70
     1
102
RTVSPropertyOp2
 70
     1
102
RTVSPropertyOp3
 70
     1
102
RTVSPropertyOp4
 70
     1
102
RTVSPropertyOp5
 70
     1
102
RTVSPropertyOp6
 70
     1
102
RTVSPropertyOp7
 70
     1
102
RTVSPropertyOp8
 70
     1
102
RTVSPropertyOp9
 70
     1
102
RTVSPropertyOp10
 70
     1
102
RTVSPropertyOp11
 70
     1
102
RTVSPropertyOp12
 70
     1
102
RTVSPropertyOp13
 70
     1
102
RTVSPropertyOp14
 70
     1
102
RTVSPropertyOp15
 70
     1
102
RTVSPropertyOp16
 70
     1
102
RTVSPropertyOp17
 70
     1
102
RTVSPropertyOp18
 70
     1
102
RTVSPropertyOp19
 70
     1
102
RTVSPropertyOp20
 70
     1
102
RTVSPropertyOp21
 70
     1
102
RTVSPropertyOp22
 70
     1
102
RTVSPropertyOp23
 70
     1
102
RTVSPropertyOp24
 70
     1
102
RTVSPropertyOp25
 70
     1
102
RTVSPropertyOp26
 70
     1
102
RTVSPropertyOp27
 70
     1
102
RTVSPropertyOp28
 70
     1
102
RTVSPropertyOp29
 70
     1
102
RTVSPropertyOp30
 70
     1
102
RTVSPropertyOp31
 70
     1
102
RTVSPropertyOp32
 70
     1
102
RTVSPropertyOp33
 70
     1
102
RTVSPropertyOp34
 70
     1
102
RTVSPropertyOp35
 70
     1
102
RTVSPropertyOp36
 70
     1
102
RTVSPropertyOp37
 70
     1
102
RTVSPropertyOp38
 70
     1
102
RTVSPropertyOp39
 70
     1
102
RTVSPropertyOp40
 70
     1
102
RTVSPropertyOp41
 70
     1
102
RTVSPropertyOp42
 70
     1
102
RTVSPropertyOp43
 70
     1
102
RTVSPropertyOp44
 70
     1
102
RTVSPropertyOp45
 70
     1
102
RTVSPropertyOp46
 70
     1
102
RTVSPropertyOp47
 70
     1
102
RTVSPropertyOp48
 70
     1
102
RTVSPropertyOp49
 70
     1
102
RTVSPropertyOp50
 70
     1
102
RTVSPropertyOp51
 70
     0
102
RTVSPropertyOp52
 70
     0
102
RTVSPropertyOp53
 70
     1
102
RTVSPropertyOp54
 70
     1
102
RTVSPropertyOp55
 70
     1
102
RTVSPropertyOp56
 70
     1
102
RTVSPropertyOp57
 70
     1
102
RTVSPropertyOp58
 70
     1
102
RTVSPropertyOp59
 70
     1
102
RTVSPropertyOp60
 70
     1
102
RTVSPropertyOp61
 70
     1
102
RTVSPropertyOp62
 70
     1
  0
XRECORD
  5
ACCE
102
{ACAD_REACTORS
330
ACCD
102
}
330
ACCD
100
AcDbXrecord
280
     1
102
RTVSPost2010Prop28
280
     0
102
RTVSPost2010PropOp28
 70
     1
102
RTVSPost2010Prop29
280
     1
102
RTVSPost2010PropOp29
 70
     1
102
RTVSPost2010Prop30
280
     1
102
RTVSPost2010PropOp30
 70
     1
102
RTVSPost2010Prop31
280
     0
102
RTVSPost2010PropOp31
 70
     1
102
RTVSPost2010Prop32
280
     0
102
RTVSPost2010PropOp32
 70
     1
102
RTVSPost2010Prop33
280
     0
102
RTVSPost2010PropOp33
 70
     1
102
RTVSPost2010Prop34
280
     0
102
RTVSPost2010PropOp34
 70
     1
102
RTVSPost2010Prop35
280
     0
102
RTVSPost2010PropOp35
 70
     1
102
RTVSPost2010Prop36
280
     0
102
RTVSPost2010PropOp36
 70
     1
102
RTVSPost2010Prop37
 90
       50
102
RTVSPost2010PropOp37
 70
     0
102
RTVSPost2010Prop38
140
0.0
102
RTVSPost2010PropOp38
 70
     0
102
RTVSPost2010Prop39
140
1.0
102
RTVSPost2010PropOp39
 70
     0
102
RTVSPost2010Prop40
 90
        0
102
RTVSPost2010PropOp40
 70
     0
102
RTVSPost2010Prop41ColorIndex
 90
       18
102
RTVSPost2010Prop41ColorRGB
 90
        0
102
RTVSPost2010PropOp41
 70
     0
102
RTVSPost2010Prop42
 90
       50
102
RTVSPost2010PropOp42
 70
     0
102
RTVSPost2010Prop43
 90
        3
102
RTVSPost2010PropOp43
 70
     0
102
RTVSPost2010Prop44ColorIndex
 90
        5
102
RTVSPost2010Prop44ColorRGB
 90
      255
102
RTVSPost2010PropOp44
 70
     0
102
RTVSPost2010Prop45
280
     0
102
RTVSPost2010PropOp45
 70
     1
102
RTVSPost2010Prop46
 90
       50
102
RTVSPost2010PropOp46
 70
     0
102
RTVSPost2010Prop47
 90
       50
102
RTVSPost2010PropOp47
 70
     0
102
RTVSPost2010Prop48
 90
       50
102
RTVSPost2010PropOp48
 70
     0
102
RTVSPost2010Prop49
280
     0
102
RTVSPost2010PropOp49
 70
     1
102
RTVSPost2010Prop50
 90
       50
102
RTVSPost2010PropOp50
 70
     0
102
RTVSPost2010Prop51ColorIndex
 90
      256
102
RTVSPost2010Prop51ColorRGB
 90
-16777216
102
RTVSPost2010PropOp51
 70
     0
102
RTVSPost2010Prop52
140
1.0
102
RTVSPost2010PropOp52
 70
     0
102
RTVSPost2010Prop53
 90
        2
102
RTVSPost2010PropOp53
 70
     0
102
RTVSPost2010Prop54
  1
strokes_ogs.tif
102
RTVSPost2010PropOp54
 70
     0
102
RTVSPost2010Prop55
280
     0
102
RTVSPost2010PropOp55
 70
     1
102
RTVSPost2010Prop56
140
1.0
102
RTVSPost2010PropOp56
 70
     0
102
RTVSPost2010Prop57
140
1.0
102
RTVSPost2010PropOp57
 70
     0
102
RTVSPropertyOp0
 70
     0
102
RTVSPropertyOp1
 70
     0
102
RTVSPropertyOp2
 70
     0
102
RTVSPropertyOp3
 70
     0
102
RTVSPropertyOp4
 70
     0
102
RTVSPropertyOp5
 70
     0
102
RTVSPropertyOp6
 70
     0
102
RTVSPropertyOp7
 70
     0
102
RTVSPropertyOp8
 70
     0
102
RTVSPropertyOp9
 70
     0
102
RTVSPropertyOp10
 70
     0
102
RTVSPropertyOp11
 70
     0
102
RTVSPropertyOp12
 70
     0
102
RTVSPropertyOp13
 70
     0
102
RTVSPropertyOp14
 70
     2
102
RTVSPropertyOp15
 70
     0
102
RTVSPropertyOp16
 70
     0
102
RTVSPropertyOp17
 70
     0
102
RTVSPropertyOp18
 70
     0
102
RTVSPropertyOp19
 70
     0
102
RTVSPropertyOp20
 70
     0
102
RTVSPropertyOp21
 70
     0
102
RTVSPropertyOp22
 70
     0
102
RTVSPropertyOp23
 70
     0
102
RTVSPropertyOp24
 70
     0
102
RTVSPropertyOp25
 70
     0
102
RTVSPropertyOp26
 70
     0
102
RTVSPropertyOp27
 70
     0
102
RTVSPropertyOp28
 70
     1
102
RTVSPropertyOp29
 70
     1
102
RTVSPropertyOp30
 70
     1
102
RTVSPropertyOp31
 70
     1
102
RTVSPropertyOp32
 70
     1
102
RTVSPropertyOp33
 70
     1
102
RTVSPropertyOp34
 70
     1
102
RTVSPropertyOp35
 70
     1
102
RTVSPropertyOp36
 70
     1
102
RTVSPropertyOp37
 70
     0
102
RTVSPropertyOp38
 70
     0
102
RTVSPropertyOp39
 70
     0
102
RTVSPropertyOp40
 70
     0
102
RTVSPropertyOp41
 70
     0
102
RTVSPropertyOp42
 70
     0
102
RTVSPropertyOp43
 70
     0
102
RTVSPropertyOp44
 70
     0
102
RTVSPropertyOp45
 70
     1
102
RTVSPropertyOp46
 70
     0
102
RTVSPropertyOp47
 70
     0
102
RTVSPropertyOp48
 70
     0
102
RTVSPropertyOp49
 70
     1
102
RTVSPropertyOp50
 70
     0
102
RTVSPropertyOp51
 70
     0
102
RTVSPropertyOp52
 70
     0
102
RTVSPropertyOp53
 70
     0
102
RTVSPropertyOp54
 70
     0
102
RTVSPropertyOp55
 70
     1
102
RTVSPropertyOp56
 70
     0
102
RTVSPropertyOp57
 70
     0
102
RTVSPropertyOp58
 70
     0
102
RTVSPropertyOp59
 70
     0
102
RTVSPropertyOp60
 70
     0
102
RTVSPropertyOp61
 70
     0
102
RTVSPropertyOp62
 70
     0
  0
XRECORD
  5
ACBC
102
{ACAD_REACTORS
330
ACBB
102
}
330
ACBB
100
AcDbXrecord
280
     1
102
RTVSPost2010Prop28
280
     0
102
RTVSPost2010PropOp28
 70
     1
102
RTVSPost2010Prop29
280
     1
102
RTVSPost2010PropOp29
 70
     1
102
RTVSPost2010Prop30
280
     1
102
RTVSPost2010PropOp30
 70
     1
102
RTVSPost2010Prop31
280
     0
102
RTVSPost2010PropOp31
 70
     1
102
RTVSPost2010Prop32
280
     0
102
RTVSPost2010PropOp32
 70
     1
102
RTVSPost2010Prop33
280
     0
102
RTVSPost2010PropOp33
 70
     1
102
RTVSPost2010Prop34
280
     0
102
RTVSPost2010PropOp34
 70
     1
102
RTVSPost2010Prop35
280
     0
102
RTVSPost2010PropOp35
 70
     1
102
RTVSPost2010Prop36
280
     0
102
RTVSPost2010PropOp36
 70
     1
102
RTVSPost2010Prop37
 90
       50
102
RTVSPost2010PropOp37
 70
     1
102
RTVSPost2010Prop38
140
0.0
102
RTVSPost2010PropOp38
 70
     1
102
RTVSPost2010Prop39
140
1.0
102
RTVSPost2010PropOp39
 70
     1
102
RTVSPost2010Prop40
 90
        0
102
RTVSPost2010PropOp40
 70
     1
102
RTVSPost2010Prop41ColorIndex
 90
       18
102
RTVSPost2010Prop41ColorRGB
 90
        0
102
RTVSPost2010PropOp41
 70
     1
102
RTVSPost2010Prop42
 90
       50
102
RTVSPost2010PropOp42
 70
     1
102
RTVSPost2010Prop43
 90
        3
102
RTVSPost2010PropOp43
 70
     1
102
RTVSPost2010Prop44ColorIndex
 90
        5
102
RTVSPost2010Prop44ColorRGB
 90
      255
102
RTVSPost2010PropOp44
 70
     1
102
RTVSPost2010Prop45
280
     0
102
RTVSPost2010PropOp45
 70
     1
102
RTVSPost2010Prop46
 90
       50
102
RTVSPost2010PropOp46
 70
     1
102
RTVSPost2010Prop47
 90
       50
102
RTVSPost2010PropOp47
 70
     1
102
RTVSPost2010Prop48
 90
       50
102
RTVSPost2010PropOp48
 70
     1
102
RTVSPost2010Prop49
280
     0
102
RTVSPost2010PropOp49
 70
     1
102
RTVSPost2010Prop50
 90
       50
102
RTVSPost2010PropOp50
 70
     1
102
RTVSPost2010Prop51ColorIndex
 90
      256
102
RTVSPost2010Prop51ColorRGB
 90
-16777216
102
RTVSPost2010PropOp51
 70
     0
102
RTVSPost2010Prop52
140
1.0
102
RTVSPost2010PropOp52
 70
     0
102
RTVSPost2010Prop53
 90
        2
102
RTVSPost2010PropOp53
 70
     1
102
RTVSPost2010Prop54
  1
strokes_ogs.tif
102
RTVSPost2010PropOp54
 70
     1
102
RTVSPost2010Prop55
280
     0
102
RTVSPost2010PropOp55
 70
     1
102
RTVSPost2010Prop56
140
1.0
102
RTVSPost2010PropOp56
 70
     1
102
RTVSPost2010Prop57
140
1.0
102
RTVSPost2010PropOp57
 70
     1
102
RTVSPropertyOp0
 70
     1
102
RTVSPropertyOp1
 70
     1
102
RTVSPropertyOp2
 70
     1
102
RTVSPropertyOp3
 70
     1
102
RTVSPropertyOp4
 70
     1
102
RTVSPropertyOp5
 70
     1
102
RTVSPropertyOp6
 70
     1
102
RTVSPropertyOp7
 70
     1
102
RTVSPropertyOp8
 70
     1
102
RTVSPropertyOp9
 70
     1
102
RTVSPropertyOp10
 70
     1
102
RTVSPropertyOp11
 70
     1
102
RTVSPropertyOp12
 70
     1
102
RTVSPropertyOp13
 70
     1
102
RTVSPropertyOp14
 70
     1
102
RTVSPropertyOp15
 70
     1
102
RTVSPropertyOp16
 70
     1
102
RTVSPropertyOp17
 70
     1
102
RTVSPropertyOp18
 70
     1
102
RTVSPropertyOp19
 70
     1
102
RTVSPropertyOp20
 70
     1
102
RTVSPropertyOp21
 70
     1
102
RTVSPropertyOp22
 70
     1
102
RTVSPropertyOp23
 70
     1
102
RTVSPropertyOp24
 70
     1
102
RTVSPropertyOp25
 70
     1
102
RTVSPropertyOp26
 70
     1
102
RTVSPropertyOp27
 70
     1
102
RTVSPropertyOp28
 70
     1
102
RTVSPropertyOp29
 70
     1
102
RTVSPropertyOp30
 70
     1
102
RTVSPropertyOp31
 70
     1
102
RTVSPropertyOp32
 70
     1
102
RTVSPropertyOp33
 70
     1
102
RTVSPropertyOp34
 70
     1
102
RTVSPropertyOp35
 70
     1
102
RTVSPropertyOp36
 70
     1
102
RTVSPropertyOp37
 70
     1
102
RTVSPropertyOp38
 70
     1
102
RTVSPropertyOp39
 70
     1
102
RTVSPropertyOp40
 70
     1
102
RTVSPropertyOp41
 70
     1
102
RTVSPropertyOp42
 70
     1
102
RTVSPropertyOp43
 70
     1
102
RTVSPropertyOp44
 70
     1
102
RTVSPropertyOp45
 70
     1
102
RTVSPropertyOp46
 70
     1
102
RTVSPropertyOp47
 70
     1
102
RTVSPropertyOp48
 70
     1
102
RTVSPropertyOp49
 70
     1
102
RTVSPropertyOp50
 70
     1
102
RTVSPropertyOp51
 70
     0
102
RTVSPropertyOp52
 70
     0
102
RTVSPropertyOp53
 70
     1
102
RTVSPropertyOp54
 70
     1
102
RTVSPropertyOp55
 70
     1
102
RTVSPropertyOp56
 70
     1
102
RTVSPropertyOp57
 70
     1
102
RTVSPropertyOp58
 70
     1
102
RTVSPropertyOp59
 70
     1
102
RTVSPropertyOp60
 70
     1
102
RTVSPropertyOp61
 70
     1
102
RTVSPropertyOp62
 70
     1
  0
XRECORD
  5
ACA0
102
{ACAD_REACTORS
330
AC9F
102
}
330
AC9F
100
AcDbXrecord
280
     1
102
RTVSPost2010Prop28
280
     0
102
RTVSPost2010PropOp28
 70
     1
102
RTVSPost2010Prop29
280
     1
102
RTVSPost2010PropOp29
 70
     1
102
RTVSPost2010Prop30
280
     1
102
RTVSPost2010PropOp30
 70
     1
102
RTVSPost2010Prop31
280
     0
102
RTVSPost2010PropOp31
 70
     1
102
RTVSPost2010Prop32
280
     0
102
RTVSPost2010PropOp32
 70
     1
102
RTVSPost2010Prop33
280
     0
102
RTVSPost2010PropOp33
 70
     1
102
RTVSPost2010Prop34
280
     0
102
RTVSPost2010PropOp34
 70
     1
102
RTVSPost2010Prop35
280
     0
102
RTVSPost2010PropOp35
 70
     1
102
RTVSPost2010Prop36
280
     0
102
RTVSPost2010PropOp36
 70
     1
102
RTVSPost2010Prop37
 90
       50
102
RTVSPost2010PropOp37
 70
     1
102
RTVSPost2010Prop38
140
0.0
102
RTVSPost2010PropOp38
 70
     1
102
RTVSPost2010Prop39
140
1.0
102
RTVSPost2010PropOp39
 70
     1
102
RTVSPost2010Prop40
 90
        0
102
RTVSPost2010PropOp40
 70
     1
102
RTVSPost2010Prop41ColorIndex
 90
       18
102
RTVSPost2010Prop41ColorRGB
 90
        0
102
RTVSPost2010PropOp41
 70
     1
102
RTVSPost2010Prop42
 90
       50
102
RTVSPost2010PropOp42
 70
     1
102
RTVSPost2010Prop43
 90
        3
102
RTVSPost2010PropOp43
 70
     1
102
RTVSPost2010Prop44ColorIndex
 90
        5
102
RTVSPost2010Prop44ColorRGB
 90
      255
102
RTVSPost2010PropOp44
 70
     1
102
RTVSPost2010Prop45
280
     0
102
RTVSPost2010PropOp45
 70
     1
102
RTVSPost2010Prop46
 90
       50
102
RTVSPost2010PropOp46
 70
     1
102
RTVSPost2010Prop47
 90
       50
102
RTVSPost2010PropOp47
 70
     1
102
RTVSPost2010Prop48
 90
       50
102
RTVSPost2010PropOp48
 70
     1
102
RTVSPost2010Prop49
280
     0
102
RTVSPost2010PropOp49
 70
     1
102
RTVSPost2010Prop50
 90
       50
102
RTVSPost2010PropOp50
 70
     1
102
RTVSPost2010Prop51ColorIndex
 90
      256
102
RTVSPost2010Prop51ColorRGB
 90
-16777216
102
RTVSPost2010PropOp51
 70
     0
102
RTVSPost2010Prop52
140
1.0
102
RTVSPost2010PropOp52
 70
     0
102
RTVSPost2010Prop53
 90
        2
102
RTVSPost2010PropOp53
 70
     1
102
RTVSPost2010Prop54
  1
strokes_ogs.tif
102
RTVSPost2010PropOp54
 70
     1
102
RTVSPost2010Prop55
280
     0
102
RTVSPost2010PropOp55
 70
     1
102
RTVSPost2010Prop56
140
1.0
102
RTVSPost2010PropOp56
 70
     1
102
RTVSPost2010Prop57
140
1.0
102
RTVSPost2010PropOp57
 70
     1
102
RTVSPropertyOp0
 70
     1
102
RTVSPropertyOp1
 70
     1
102
RTVSPropertyOp2
 70
     1
102
RTVSPropertyOp3
 70
     1
102
RTVSPropertyOp4
 70
     1
102
RTVSPropertyOp5
 70
     1
102
RTVSPropertyOp6
 70
     1
102
RTVSPropertyOp7
 70
     1
102
RTVSPropertyOp8
 70
     1
102
RTVSPropertyOp9
 70
     1
102
RTVSPropertyOp10
 70
     1
102
RTVSPropertyOp11
 70
     1
102
RTVSPropertyOp12
 70
     1
102
RTVSPropertyOp13
 70
     1
102
RTVSPropertyOp14
 70
     1
102
RTVSPropertyOp15
 70
     1
102
RTVSPropertyOp16
 70
     1
102
RTVSPropertyOp17
 70
     1
102
RTVSPropertyOp18
 70
     1
102
RTVSPropertyOp19
 70
     1
102
RTVSPropertyOp20
 70
     1
102
RTVSPropertyOp21
 70
     1
102
RTVSPropertyOp22
 70
     1
102
RTVSPropertyOp23
 70
     1
102
RTVSPropertyOp24
 70
     1
102
RTVSPropertyOp25
 70
     1
102
RTVSPropertyOp26
 70
     1
102
RTVSPropertyOp27
 70
     1
102
RTVSPropertyOp28
 70
     1
102
RTVSPropertyOp29
 70
     1
102
RTVSPropertyOp30
 70
     1
102
RTVSPropertyOp31
 70
     1
102
RTVSPropertyOp32
 70
     1
102
RTVSPropertyOp33
 70
     1
102
RTVSPropertyOp34
 70
     1
102
RTVSPropertyOp35
 70
     1
102
RTVSPropertyOp36
 70
     1
102
RTVSPropertyOp37
 70
     1
102
RTVSPropertyOp38
 70
     1
102
RTVSPropertyOp39
 70
     1
102
RTVSPropertyOp40
 70
     1
102
RTVSPropertyOp41
 70
     1
102
RTVSPropertyOp42
 70
     1
102
RTVSPropertyOp43
 70
     1
102
RTVSPropertyOp44
 70
     1
102
RTVSPropertyOp45
 70
     1
102
RTVSPropertyOp46
 70
     1
102
RTVSPropertyOp47
 70
     1
102
RTVSPropertyOp48
 70
     1
102
RTVSPropertyOp49
 70
     1
102
RTVSPropertyOp50
 70
     1
102
RTVSPropertyOp51
 70
     0
102
RTVSPropertyOp52
 70
     0
102
RTVSPropertyOp53
 70
     1
102
RTVSPropertyOp54
 70
     1
102
RTVSPropertyOp55
 70
     1
102
RTVSPropertyOp56
 70
     1
102
RTVSPropertyOp57
 70
     1
102
RTVSPropertyOp58
 70
     1
102
RTVSPropertyOp59
 70
     1
102
RTVSPropertyOp60
 70
     1
102
RTVSPropertyOp61
 70
     1
102
RTVSPropertyOp62
 70
     1
  0
XRECORD
  5
ACA2
102
{ACAD_REACTORS
330
ACA1
102
}
330
ACA1
100
AcDbXrecord
280
     1
102
RTVSPost2010Prop28
280
     0
102
RTVSPost2010PropOp28
 70
     1
102
RTVSPost2010Prop29
280
     1
102
RTVSPost2010PropOp29
 70
     1
102
RTVSPost2010Prop30
280
     1
102
RTVSPost2010PropOp30
 70
     1
102
RTVSPost2010Prop31
280
     0
102
RTVSPost2010PropOp31
 70
     1
102
RTVSPost2010Prop32
280
     0
102
RTVSPost2010PropOp32
 70
     1
102
RTVSPost2010Prop33
280
     0
102
RTVSPost2010PropOp33
 70
     1
102
RTVSPost2010Prop34
280
     0
102
RTVSPost2010PropOp34
 70
     1
102
RTVSPost2010Prop35
280
     0
102
RTVSPost2010PropOp35
 70
     1
102
RTVSPost2010Prop36
280
     0
102
RTVSPost2010PropOp36
 70
     1
102
RTVSPost2010Prop37
 90
       50
102
RTVSPost2010PropOp37
 70
     1
102
RTVSPost2010Prop38
140
0.0
102
RTVSPost2010PropOp38
 70
     1
102
RTVSPost2010Prop39
140
1.0
102
RTVSPost2010PropOp39
 70
     1
102
RTVSPost2010Prop40
 90
        0
102
RTVSPost2010PropOp40
 70
     1
102
RTVSPost2010Prop41ColorIndex
 90
       18
102
RTVSPost2010Prop41ColorRGB
 90
        0
102
RTVSPost2010PropOp41
 70
     1
102
RTVSPost2010Prop42
 90
       50
102
RTVSPost2010PropOp42
 70
     1
102
RTVSPost2010Prop43
 90
        3
102
RTVSPost2010PropOp43
 70
     1
102
RTVSPost2010Prop44ColorIndex
 90
        5
102
RTVSPost2010Prop44ColorRGB
 90
      255
102
RTVSPost2010PropOp44
 70
     1
102
RTVSPost2010Prop45
280
     0
102
RTVSPost2010PropOp45
 70
     1
102
RTVSPost2010Prop46
 90
       50
102
RTVSPost2010PropOp46
 70
     1
102
RTVSPost2010Prop47
 90
       50
102
RTVSPost2010PropOp47
 70
     1
102
RTVSPost2010Prop48
 90
       50
102
RTVSPost2010PropOp48
 70
     1
102
RTVSPost2010Prop49
280
     0
102
RTVSPost2010PropOp49
 70
     1
102
RTVSPost2010Prop50
 90
       50
102
RTVSPost2010PropOp50
 70
     1
102
RTVSPost2010Prop51ColorIndex
 90
      256
102
RTVSPost2010Prop51ColorRGB
 90
-16777216
102
RTVSPost2010PropOp51
 70
     0
102
RTVSPost2010Prop52
140
1.0
102
RTVSPost2010PropOp52
 70
     0
102
RTVSPost2010Prop53
 90
        2
102
RTVSPost2010PropOp53
 70
     1
102
RTVSPost2010Prop54
  1
strokes_ogs.tif
102
RTVSPost2010PropOp54
 70
     1
102
RTVSPost2010Prop55
280
     0
102
RTVSPost2010PropOp55
 70
     1
102
RTVSPost2010Prop56
140
1.0
102
RTVSPost2010PropOp56
 70
     1
102
RTVSPost2010Prop57
140
1.0
102
RTVSPost2010PropOp57
 70
     1
102
RTVSPropertyOp0
 70
     1
102
RTVSPropertyOp1
 70
     1
102
RTVSPropertyOp2
 70
     1
102
RTVSPropertyOp3
 70
     1
102
RTVSPropertyOp4
 70
     1
102
RTVSPropertyOp5
 70
     1
102
RTVSPropertyOp6
 70
     1
102
RTVSPropertyOp7
 70
     1
102
RTVSPropertyOp8
 70
     1
102
RTVSPropertyOp9
 70
     1
102
RTVSPropertyOp10
 70
     1
102
RTVSPropertyOp11
 70
     1
102
RTVSPropertyOp12
 70
     1
102
RTVSPropertyOp13
 70
     1
102
RTVSPropertyOp14
 70
     1
102
RTVSPropertyOp15
 70
     1
102
RTVSPropertyOp16
 70
     1
102
RTVSPropertyOp17
 70
     1
102
RTVSPropertyOp18
 70
     1
102
RTVSPropertyOp19
 70
     1
102
RTVSPropertyOp20
 70
     1
102
RTVSPropertyOp21
 70
     1
102
RTVSPropertyOp22
 70
     1
102
RTVSPropertyOp23
 70
     1
102
RTVSPropertyOp24
 70
     1
102
RTVSPropertyOp25
 70
     1
102
RTVSPropertyOp26
 70
     1
102
RTVSPropertyOp27
 70
     1
102
RTVSPropertyOp28
 70
     1
102
RTVSPropertyOp29
 70
     1
102
RTVSPropertyOp30
 70
     1
102
RTVSPropertyOp31
 70
     1
102
RTVSPropertyOp32
 70
     1
102
RTVSPropertyOp33
 70
     1
102
RTVSPropertyOp34
 70
     1
102
RTVSPropertyOp35
 70
     1
102
RTVSPropertyOp36
 70
     1
102
RTVSPropertyOp37
 70
     1
102
RTVSPropertyOp38
 70
     1
102
RTVSPropertyOp39
 70
     1
102
RTVSPropertyOp40
 70
     1
102
RTVSPropertyOp41
 70
     1
102
RTVSPropertyOp42
 70
     1
102
RTVSPropertyOp43
 70
     1
102
RTVSPropertyOp44
 70
     1
102
RTVSPropertyOp45
 70
     1
102
RTVSPropertyOp46
 70
     1
102
RTVSPropertyOp47
 70
     1
102
RTVSPropertyOp48
 70
     1
102
RTVSPropertyOp49
 70
     1
102
RTVSPropertyOp50
 70
     1
102
RTVSPropertyOp51
 70
     0
102
RTVSPropertyOp52
 70
     0
102
RTVSPropertyOp53
 70
     1
102
RTVSPropertyOp54
 70
     1
102
RTVSPropertyOp55
 70
     1
102
RTVSPropertyOp56
 70
     1
102
RTVSPropertyOp57
 70
     1
102
RTVSPropertyOp58
 70
     1
102
RTVSPropertyOp59
 70
     1
102
RTVSPropertyOp60
 70
     1
102
RTVSPropertyOp61
 70
     1
102
RTVSPropertyOp62
 70
     1
  0
XRECORD
  5
ACA4
102
{ACAD_REACTORS
330
ACA3
102
}
330
ACA3
100
AcDbXrecord
280
     1
102
RTVSPost2010Prop28
280
     0
102
RTVSPost2010PropOp28
 70
     1
102
RTVSPost2010Prop29
280
     1
102
RTVSPost2010PropOp29
 70
     1
102
RTVSPost2010Prop30
280
     1
102
RTVSPost2010PropOp30
 70
     1
102
RTVSPost2010Prop31
280
     0
102
RTVSPost2010PropOp31
 70
     1
102
RTVSPost2010Prop32
280
     0
102
RTVSPost2010PropOp32
 70
     1
102
RTVSPost2010Prop33
280
     0
102
RTVSPost2010PropOp33
 70
     1
102
RTVSPost2010Prop34
280
     0
102
RTVSPost2010PropOp34
 70
     1
102
RTVSPost2010Prop35
280
     0
102
RTVSPost2010PropOp35
 70
     1
102
RTVSPost2010Prop36
280
     0
102
RTVSPost2010PropOp36
 70
     1
102
RTVSPost2010Prop37
 90
       50
102
RTVSPost2010PropOp37
 70
     1
102
RTVSPost2010Prop38
140
0.0
102
RTVSPost2010PropOp38
 70
     1
102
RTVSPost2010Prop39
140
1.0
102
RTVSPost2010PropOp39
 70
     1
102
RTVSPost2010Prop40
 90
        0
102
RTVSPost2010PropOp40
 70
     1
102
RTVSPost2010Prop41ColorIndex
 90
       18
102
RTVSPost2010Prop41ColorRGB
 90
        0
102
RTVSPost2010PropOp41
 70
     1
102
RTVSPost2010Prop42
 90
       50
102
RTVSPost2010PropOp42
 70
     1
102
RTVSPost2010Prop43
 90
        3
102
RTVSPost2010PropOp43
 70
     1
102
RTVSPost2010Prop44ColorIndex
 90
        5
102
RTVSPost2010Prop44ColorRGB
 90
      255
102
RTVSPost2010PropOp44
 70
     1
102
RTVSPost2010Prop45
280
     0
102
RTVSPost2010PropOp45
 70
     1
102
RTVSPost2010Prop46
 90
       50
102
RTVSPost2010PropOp46
 70
     1
102
RTVSPost2010Prop47
 90
       50
102
RTVSPost2010PropOp47
 70
     1
102
RTVSPost2010Prop48
 90
       50
102
RTVSPost2010PropOp48
 70
     1
102
RTVSPost2010Prop49
280
     0
102
RTVSPost2010PropOp49
 70
     1
102
RTVSPost2010Prop50
 90
       50
102
RTVSPost2010PropOp50
 70
     1
102
RTVSPost2010Prop51ColorIndex
 90
      256
102
RTVSPost2010Prop51ColorRGB
 90
-16777216
102
RTVSPost2010PropOp51
 70
     0
102
RTVSPost2010Prop52
140
1.0
102
RTVSPost2010PropOp52
 70
     0
102
RTVSPost2010Prop53
 90
        2
102
RTVSPost2010PropOp53
 70
     1
102
RTVSPost2010Prop54
  1
strokes_ogs.tif
102
RTVSPost2010PropOp54
 70
     1
102
RTVSPost2010Prop55
280
     0
102
RTVSPost2010PropOp55
 70
     1
102
RTVSPost2010Prop56
140
1.0
102
RTVSPost2010PropOp56
 70
     1
102
RTVSPost2010Prop57
140
1.0
102
RTVSPost2010PropOp57
 70
     1
102
RTVSPropertyOp0
 70
     1
102
RTVSPropertyOp1
 70
     1
102
RTVSPropertyOp2
 70
     1
102
RTVSPropertyOp3
 70
     1
102
RTVSPropertyOp4
 70
     1
102
RTVSPropertyOp5
 70
     1
102
RTVSPropertyOp6
 70
     1
102
RTVSPropertyOp7
 70
     1
102
RTVSPropertyOp8
 70
     1
102
RTVSPropertyOp9
 70
     1
102
RTVSPropertyOp10
 70
     1
102
RTVSPropertyOp11
 70
     1
102
RTVSPropertyOp12
 70
     1
102
RTVSPropertyOp13
 70
     1
102
RTVSPropertyOp14
 70
     1
102
RTVSPropertyOp15
 70
     1
102
RTVSPropertyOp16
 70
     1
102
RTVSPropertyOp17
 70
     1
102
RTVSPropertyOp18
 70
     1
102
RTVSPropertyOp19
 70
     1
102
RTVSPropertyOp20
 70
     1
102
RTVSPropertyOp21
 70
     1
102
RTVSPropertyOp22
 70
     1
102
RTVSPropertyOp23
 70
     1
102
RTVSPropertyOp24
 70
     1
102
RTVSPropertyOp25
 70
     1
102
RTVSPropertyOp26
 70
     1
102
RTVSPropertyOp27
 70
     1
102
RTVSPropertyOp28
 70
     1
102
RTVSPropertyOp29
 70
     1
102
RTVSPropertyOp30
 70
     1
102
RTVSPropertyOp31
 70
     1
102
RTVSPropertyOp32
 70
     1
102
RTVSPropertyOp33
 70
     1
102
RTVSPropertyOp34
 70
     1
102
RTVSPropertyOp35
 70
     1
102
RTVSPropertyOp36
 70
     1
102
RTVSPropertyOp37
 70
     1
102
RTVSPropertyOp38
 70
     1
102
RTVSPropertyOp39
 70
     1
102
RTVSPropertyOp40
 70
     1
102
RTVSPropertyOp41
 70
     1
102
RTVSPropertyOp42
 70
     1
102
RTVSPropertyOp43
 70
     1
102
RTVSPropertyOp44
 70
     1
102
RTVSPropertyOp45
 70
     1
102
RTVSPropertyOp46
 70
     1
102
RTVSPropertyOp47
 70
     1
102
RTVSPropertyOp48
 70
     1
102
RTVSPropertyOp49
 70
     1
102
RTVSPropertyOp50
 70
     1
102
RTVSPropertyOp51
 70
     0
102
RTVSPropertyOp52
 70
     0
102
RTVSPropertyOp53
 70
     1
102
RTVSPropertyOp54
 70
     1
102
RTVSPropertyOp55
 70
     1
102
RTVSPropertyOp56
 70
     1
102
RTVSPropertyOp57
 70
     1
102
RTVSPropertyOp58
 70
     1
102
RTVSPropertyOp59
 70
     1
102
RTVSPropertyOp60
 70
     1
102
RTVSPropertyOp61
 70
     1
102
RTVSPropertyOp62
 70
     1
  0
XRECORD
  5
ACA6
102
{ACAD_REACTORS
330
ACA5
102
}
330
ACA5
100
AcDbXrecord
280
     1
102
RTVSPost2010Prop28
280
     0
102
RTVSPost2010PropOp28
 70
     1
102
RTVSPost2010Prop29
280
     1
102
RTVSPost2010PropOp29
 70
     1
102
RTVSPost2010Prop30
280
     1
102
RTVSPost2010PropOp30
 70
     1
102
RTVSPost2010Prop31
280
     0
102
RTVSPost2010PropOp31
 70
     1
102
RTVSPost2010Prop32
280
     0
102
RTVSPost2010PropOp32
 70
     1
102
RTVSPost2010Prop33
280
     0
102
RTVSPost2010PropOp33
 70
     1
102
RTVSPost2010Prop34
280
     0
102
RTVSPost2010PropOp34
 70
     1
102
RTVSPost2010Prop35
280
     0
102
RTVSPost2010PropOp35
 70
     1
102
RTVSPost2010Prop36
280
     0
102
RTVSPost2010PropOp36
 70
     1
102
RTVSPost2010Prop37
 90
       50
102
RTVSPost2010PropOp37
 70
     1
102
RTVSPost2010Prop38
140
0.0
102
RTVSPost2010PropOp38
 70
     1
102
RTVSPost2010Prop39
140
1.0
102
RTVSPost2010PropOp39
 70
     1
102
RTVSPost2010Prop40
 90
        0
102
RTVSPost2010PropOp40
 70
     1
102
RTVSPost2010Prop41ColorIndex
 90
       18
102
RTVSPost2010Prop41ColorRGB
 90
        0
102
RTVSPost2010PropOp41
 70
     1
102
RTVSPost2010Prop42
 90
       50
102
RTVSPost2010PropOp42
 70
     1
102
RTVSPost2010Prop43
 90
        3
102
RTVSPost2010PropOp43
 70
     1
102
RTVSPost2010Prop44ColorIndex
 90
        5
102
RTVSPost2010Prop44ColorRGB
 90
      255
102
RTVSPost2010PropOp44
 70
     1
102
RTVSPost2010Prop45
280
     0
102
RTVSPost2010PropOp45
 70
     1
102
RTVSPost2010Prop46
 90
       50
102
RTVSPost2010PropOp46
 70
     1
102
RTVSPost2010Prop47
 90
       50
102
RTVSPost2010PropOp47
 70
     1
102
RTVSPost2010Prop48
 90
       50
102
RTVSPost2010PropOp48
 70
     1
102
RTVSPost2010Prop49
280
     0
102
RTVSPost2010PropOp49
 70
     1
102
RTVSPost2010Prop50
 90
       50
102
RTVSPost2010PropOp50
 70
     1
102
RTVSPost2010Prop51ColorIndex
 90
      256
102
RTVSPost2010Prop51ColorRGB
 90
-16777216
102
RTVSPost2010PropOp51
 70
     0
102
RTVSPost2010Prop52
140
1.0
102
RTVSPost2010PropOp52
 70
     0
102
RTVSPost2010Prop53
 90
        2
102
RTVSPost2010PropOp53
 70
     1
102
RTVSPost2010Prop54
  1
strokes_ogs.tif
102
RTVSPost2010PropOp54
 70
     1
102
RTVSPost2010Prop55
280
     0
102
RTVSPost2010PropOp55
 70
     1
102
RTVSPost2010Prop56
140
1.0
102
RTVSPost2010PropOp56
 70
     1
102
RTVSPost2010Prop57
140
1.0
102
RTVSPost2010PropOp57
 70
     1
102
RTVSPropertyOp0
 70
     1
102
RTVSPropertyOp1
 70
     1
102
RTVSPropertyOp2
 70
     1
102
RTVSPropertyOp3
 70
     1
102
RTVSPropertyOp4
 70
     1
102
RTVSPropertyOp5
 70
     1
102
RTVSPropertyOp6
 70
     1
102
RTVSPropertyOp7
 70
     1
102
RTVSPropertyOp8
 70
     1
102
RTVSPropertyOp9
 70
     1
102
RTVSPropertyOp10
 70
     1
102
RTVSPropertyOp11
 70
     1
102
RTVSPropertyOp12
 70
     1
102
RTVSPropertyOp13
 70
     1
102
RTVSPropertyOp14
 70
     1
102
RTVSPropertyOp15
 70
     1
102
RTVSPropertyOp16
 70
     1
102
RTVSPropertyOp17
 70
     1
102
RTVSPropertyOp18
 70
     1
102
RTVSPropertyOp19
 70
     1
102
RTVSPropertyOp20
 70
     1
102
RTVSPropertyOp21
 70
     1
102
RTVSPropertyOp22
 70
     1
102
RTVSPropertyOp23
 70
     1
102
RTVSPropertyOp24
 70
     1
102
RTVSPropertyOp25
 70
     1
102
RTVSPropertyOp26
 70
     1
102
RTVSPropertyOp27
 70
     1
102
RTVSPropertyOp28
 70
     1
102
RTVSPropertyOp29
 70
     1
102
RTVSPropertyOp30
 70
     1
102
RTVSPropertyOp31
 70
     1
102
RTVSPropertyOp32
 70
     1
102
RTVSPropertyOp33
 70
     1
102
RTVSPropertyOp34
 70
     1
102
RTVSPropertyOp35
 70
     1
102
RTVSPropertyOp36
 70
     1
102
RTVSPropertyOp37
 70
     1
102
RTVSPropertyOp38
 70
     1
102
RTVSPropertyOp39
 70
     1
102
RTVSPropertyOp40
 70
     1
102
RTVSPropertyOp41
 70
     1
102
RTVSPropertyOp42
 70
     1
102
RTVSPropertyOp43
 70
     1
102
RTVSPropertyOp44
 70
     1
102
RTVSPropertyOp45
 70
     1
102
RTVSPropertyOp46
 70
     1
102
RTVSPropertyOp47
 70
     1
102
RTVSPropertyOp48
 70
     1
102
RTVSPropertyOp49
 70
     1
102
RTVSPropertyOp50
 70
     1
102
RTVSPropertyOp51
 70
     0
102
RTVSPropertyOp52
 70
     0
102
RTVSPropertyOp53
 70
     1
102
RTVSPropertyOp54
 70
     1
102
RTVSPropertyOp55
 70
     1
102
RTVSPropertyOp56
 70
     1
102
RTVSPropertyOp57
 70
     1
102
RTVSPropertyOp58
 70
     1
102
RTVSPropertyOp59
 70
     1
102
RTVSPropertyOp60
 70
     1
102
RTVSPropertyOp61
 70
     1
102
RTVSPropertyOp62
 70
     1
  0
XRECORD
  5
ACAE
102
{ACAD_REACTORS
330
ACAD
102
}
330
ACAD
100
AcDbXrecord
280
     1
102
RTVSPost2010Prop28
280
     0
102
RTVSPost2010PropOp28
 70
     1
102
RTVSPost2010Prop29
280
     1
102
RTVSPost2010PropOp29
 70
     1
102
RTVSPost2010Prop30
280
     1
102
RTVSPost2010PropOp30
 70
     1
102
RTVSPost2010Prop31
280
     0
102
RTVSPost2010PropOp31
 70
     1
102
RTVSPost2010Prop32
280
     0
102
RTVSPost2010PropOp32
 70
     1
102
RTVSPost2010Prop33
280
     0
102
RTVSPost2010PropOp33
 70
     1
102
RTVSPost2010Prop34
280
     0
102
RTVSPost2010PropOp34
 70
     1
102
RTVSPost2010Prop35
280
     0
102
RTVSPost2010PropOp35
 70
     1
102
RTVSPost2010Prop36
280
     0
102
RTVSPost2010PropOp36
 70
     1
102
RTVSPost2010Prop37
 90
       50
102
RTVSPost2010PropOp37
 70
     1
102
RTVSPost2010Prop38
140
0.0
102
RTVSPost2010PropOp38
 70
     1
102
RTVSPost2010Prop39
140
1.0
102
RTVSPost2010PropOp39
 70
     1
102
RTVSPost2010Prop40
 90
        0
102
RTVSPost2010PropOp40
 70
     1
102
RTVSPost2010Prop41ColorIndex
 90
       18
102
RTVSPost2010Prop41ColorRGB
 90
        0
102
RTVSPost2010PropOp41
 70
     1
102
RTVSPost2010Prop42
 90
       50
102
RTVSPost2010PropOp42
 70
     1
102
RTVSPost2010Prop43
 90
        3
102
RTVSPost2010PropOp43
 70
     1
102
RTVSPost2010Prop44ColorIndex
 90
        5
102
RTVSPost2010Prop44ColorRGB
 90
      255
102
RTVSPost2010PropOp44
 70
     1
102
RTVSPost2010Prop45
280
     0
102
RTVSPost2010PropOp45
 70
     1
102
RTVSPost2010Prop46
 90
       50
102
RTVSPost2010PropOp46
 70
     1
102
RTVSPost2010Prop47
 90
       50
102
RTVSPost2010PropOp47
 70
     1
102
RTVSPost2010Prop48
 90
       50
102
RTVSPost2010PropOp48
 70
     1
102
RTVSPost2010Prop49
280
     0
102
RTVSPost2010PropOp49
 70
     1
102
RTVSPost2010Prop50
 90
       50
102
RTVSPost2010PropOp50
 70
     1
102
RTVSPost2010Prop51ColorIndex
 90
      256
102
RTVSPost2010Prop51ColorRGB
 90
-16777216
102
RTVSPost2010PropOp51
 70
     0
102
RTVSPost2010Prop52
140
1.0
102
RTVSPost2010PropOp52
 70
     0
102
RTVSPost2010Prop53
 90
        2
102
RTVSPost2010PropOp53
 70
     1
102
RTVSPost2010Prop54
  1
strokes_ogs.tif
102
RTVSPost2010PropOp54
 70
     1
102
RTVSPost2010Prop55
280
     0
102
RTVSPost2010PropOp55
 70
     1
102
RTVSPost2010Prop56
140
1.0
102
RTVSPost2010PropOp56
 70
     1
102
RTVSPost2010Prop57
140
1.0
102
RTVSPost2010PropOp57
 70
     1
102
RTVSPropertyOp0
 70
     1
102
RTVSPropertyOp1
 70
     1
102
RTVSPropertyOp2
 70
     1
102
RTVSPropertyOp3
 70
     1
102
RTVSPropertyOp4
 70
     1
102
RTVSPropertyOp5
 70
     1
102
RTVSPropertyOp6
 70
     1
102
RTVSPropertyOp7
 70
     1
102
RTVSPropertyOp8
 70
     1
102
RTVSPropertyOp9
 70
     1
102
RTVSPropertyOp10
 70
     1
102
RTVSPropertyOp11
 70
     1
102
RTVSPropertyOp12
 70
     1
102
RTVSPropertyOp13
 70
     1
102
RTVSPropertyOp14
 70
     1
102
RTVSPropertyOp15
 70
     1
102
RTVSPropertyOp16
 70
     1
102
RTVSPropertyOp17
 70
     1
102
RTVSPropertyOp18
 70
     1
102
RTVSPropertyOp19
 70
     1
102
RTVSPropertyOp20
 70
     1
102
RTVSPropertyOp21
 70
     1
102
RTVSPropertyOp22
 70
     1
102
RTVSPropertyOp23
 70
     1
102
RTVSPropertyOp24
 70
     1
102
RTVSPropertyOp25
 70
     1
102
RTVSPropertyOp26
 70
     1
102
RTVSPropertyOp27
 70
     1
102
RTVSPropertyOp28
 70
     1
102
RTVSPropertyOp29
 70
     1
102
RTVSPropertyOp30
 70
     1
102
RTVSPropertyOp31
 70
     1
102
RTVSPropertyOp32
 70
     1
102
RTVSPropertyOp33
 70
     1
102
RTVSPropertyOp34
 70
     1
102
RTVSPropertyOp35
 70
     1
102
RTVSPropertyOp36
 70
     1
102
RTVSPropertyOp37
 70
     1
102
RTVSPropertyOp38
 70
     1
102
RTVSPropertyOp39
 70
     1
102
RTVSPropertyOp40
 70
     1
102
RTVSPropertyOp41
 70
     1
102
RTVSPropertyOp42
 70
     1
102
RTVSPropertyOp43
 70
     1
102
RTVSPropertyOp44
 70
     1
102
RTVSPropertyOp45
 70
     1
102
RTVSPropertyOp46
 70
     1
102
RTVSPropertyOp47
 70
     1
102
RTVSPropertyOp48
 70
     1
102
RTVSPropertyOp49
 70
     1
102
RTVSPropertyOp50
 70
     1
102
RTVSPropertyOp51
 70
     0
102
RTVSPropertyOp52
 70
     0
102
RTVSPropertyOp53
 70
     1
102
RTVSPropertyOp54
 70
     1
102
RTVSPropertyOp55
 70
     1
102
RTVSPropertyOp56
 70
     1
102
RTVSPropertyOp57
 70
     1
102
RTVSPropertyOp58
 70
     1
102
RTVSPropertyOp59
 70
     1
102
RTVSPropertyOp60
 70
     1
102
RTVSPropertyOp61
 70
     1
102
RTVSPropertyOp62
 70
     1
  0
XRECORD
  5
ACCA
102
{ACAD_REACTORS
330
ACC9
102
}
330
ACC9
100
AcDbXrecord
280
     1
102
RTVSPost2010Prop28
280
     0
102
RTVSPost2010PropOp28
 70
     1
102
RTVSPost2010Prop29
280
     1
102
RTVSPost2010PropOp29
 70
     1
102
RTVSPost2010Prop30
280
     1
102
RTVSPost2010PropOp30
 70
     1
102
RTVSPost2010Prop31
280
     0
102
RTVSPost2010PropOp31
 70
     1
102
RTVSPost2010Prop32
280
     0
102
RTVSPost2010PropOp32
 70
     1
102
RTVSPost2010Prop33
280
     0
102
RTVSPost2010PropOp33
 70
     1
102
RTVSPost2010Prop34
280
     0
102
RTVSPost2010PropOp34
 70
     1
102
RTVSPost2010Prop35
280
     0
102
RTVSPost2010PropOp35
 70
     1
102
RTVSPost2010Prop36
280
     0
102
RTVSPost2010PropOp36
 70
     1
102
RTVSPost2010Prop37
 90
       50
102
RTVSPost2010PropOp37
 70
     0
102
RTVSPost2010Prop38
140
0.0
102
RTVSPost2010PropOp38
 70
     0
102
RTVSPost2010Prop39
140
1.0
102
RTVSPost2010PropOp39
 70
     0
102
RTVSPost2010Prop40
 90
        0
102
RTVSPost2010PropOp40
 70
     0
102
RTVSPost2010Prop41ColorIndex
 90
       18
102
RTVSPost2010Prop41ColorRGB
 90
        0
102
RTVSPost2010PropOp41
 70
     0
102
RTVSPost2010Prop42
 90
       50
102
RTVSPost2010PropOp42
 70
     0
102
RTVSPost2010Prop43
 90
        3
102
RTVSPost2010PropOp43
 70
     0
102
RTVSPost2010Prop44ColorIndex
 90
        5
102
RTVSPost2010Prop44ColorRGB
 90
      255
102
RTVSPost2010PropOp44
 70
     0
102
RTVSPost2010Prop45
280
     0
102
RTVSPost2010PropOp45
 70
     1
102
RTVSPost2010Prop46
 90
       50
102
RTVSPost2010PropOp46
 70
     0
102
RTVSPost2010Prop47
 90
       50
102
RTVSPost2010PropOp47
 70
     0
102
RTVSPost2010Prop48
 90
       50
102
RTVSPost2010PropOp48
 70
     0
102
RTVSPost2010Prop49
280
     0
102
RTVSPost2010PropOp49
 70
     1
102
RTVSPost2010Prop50
 90
       50
102
RTVSPost2010PropOp50
 70
     0
102
RTVSPost2010Prop51ColorIndex
 90
      256
102
RTVSPost2010Prop51ColorRGB
 90
-16777216
102
RTVSPost2010PropOp51
 70
     0
102
RTVSPost2010Prop52
140
1.0
102
RTVSPost2010PropOp52
 70
     0
102
RTVSPost2010Prop53
 90
        2
102
RTVSPost2010PropOp53
 70
     0
102
RTVSPost2010Prop54
  1
strokes_ogs.tif
102
RTVSPost2010PropOp54
 70
     0
102
RTVSPost2010Prop55
280
     0
102
RTVSPost2010PropOp55
 70
     1
102
RTVSPost2010Prop56
140
1.0
102
RTVSPost2010PropOp56
 70
     0
102
RTVSPost2010Prop57
140
1.0
102
RTVSPost2010PropOp57
 70
     0
102
RTVSPropertyOp0
 70
     0
102
RTVSPropertyOp1
 70
     0
102
RTVSPropertyOp2
 70
     0
102
RTVSPropertyOp3
 70
     0
102
RTVSPropertyOp4
 70
     0
102
RTVSPropertyOp5
 70
     0
102
RTVSPropertyOp6
 70
     0
102
RTVSPropertyOp7
 70
     0
102
RTVSPropertyOp8
 70
     0
102
RTVSPropertyOp9
 70
     0
102
RTVSPropertyOp10
 70
     0
102
RTVSPropertyOp11
 70
     0
102
RTVSPropertyOp12
 70
     0
102
RTVSPropertyOp13
 70
     0
102
RTVSPropertyOp14
 70
     2
102
RTVSPropertyOp15
 70
     0
102
RTVSPropertyOp16
 70
     0
102
RTVSPropertyOp17
 70
     0
102
RTVSPropertyOp18
 70
     0
102
RTVSPropertyOp19
 70
     0
102
RTVSPropertyOp20
 70
     0
102
RTVSPropertyOp21
 70
     0
102
RTVSPropertyOp22
 70
     0
102
RTVSPropertyOp23
 70
     0
102
RTVSPropertyOp24
 70
     0
102
RTVSPropertyOp25
 70
     0
102
RTVSPropertyOp26
 70
     0
102
RTVSPropertyOp27
 70
     0
102
RTVSPropertyOp28
 70
     1
102
RTVSPropertyOp29
 70
     1
102
RTVSPropertyOp30
 70
     1
102
RTVSPropertyOp31
 70
     1
102
RTVSPropertyOp32
 70
     1
102
RTVSPropertyOp33
 70
     1
102
RTVSPropertyOp34
 70
     1
102
RTVSPropertyOp35
 70
     1
102
RTVSPropertyOp36
 70
     1
102
RTVSPropertyOp37
 70
     0
102
RTVSPropertyOp38
 70
     0
102
RTVSPropertyOp39
 70
     0
102
RTVSPropertyOp40
 70
     0
102
RTVSPropertyOp41
 70
     0
102
RTVSPropertyOp42
 70
     0
102
RTVSPropertyOp43
 70
     0
102
RTVSPropertyOp44
 70
     0
102
RTVSPropertyOp45
 70
     1
102
RTVSPropertyOp46
 70
     0
102
RTVSPropertyOp47
 70
     0
102
RTVSPropertyOp48
 70
     0
102
RTVSPropertyOp49
 70
     1
102
RTVSPropertyOp50
 70
     0
102
RTVSPropertyOp51
 70
     0
102
RTVSPropertyOp52
 70
     0
102
RTVSPropertyOp53
 70
     0
102
RTVSPropertyOp54
 70
     0
102
RTVSPropertyOp55
 70
     1
102
RTVSPropertyOp56
 70
     0
102
RTVSPropertyOp57
 70
     0
102
RTVSPropertyOp58
 70
     0
102
RTVSPropertyOp59
 70
     0
102
RTVSPropertyOp60
 70
     0
102
RTVSPropertyOp61
 70
     0
102
RTVSPropertyOp62
 70
     0
  0
XRECORD
  5
ACBA
102
{ACAD_REACTORS
330
ACB9
102
}
330
ACB9
100
AcDbXrecord
280
     1
102
RTVSPost2010Prop28
280
     0
102
RTVSPost2010PropOp28
 70
     1
102
RTVSPost2010Prop29
280
     1
102
RTVSPost2010PropOp29
 70
     1
102
RTVSPost2010Prop30
280
     1
102
RTVSPost2010PropOp30
 70
     1
102
RTVSPost2010Prop31
280
     0
102
RTVSPost2010PropOp31
 70
     1
102
RTVSPost2010Prop32
280
     0
102
RTVSPost2010PropOp32
 70
     1
102
RTVSPost2010Prop33
280
     0
102
RTVSPost2010PropOp33
 70
     1
102
RTVSPost2010Prop34
280
     0
102
RTVSPost2010PropOp34
 70
     1
102
RTVSPost2010Prop35
280
     0
102
RTVSPost2010PropOp35
 70
     1
102
RTVSPost2010Prop36
280
     0
102
RTVSPost2010PropOp36
 70
     1
102
RTVSPost2010Prop37
 90
       50
102
RTVSPost2010PropOp37
 70
     1
102
RTVSPost2010Prop38
140
0.0
102
RTVSPost2010PropOp38
 70
     1
102
RTVSPost2010Prop39
140
1.0
102
RTVSPost2010PropOp39
 70
     1
102
RTVSPost2010Prop40
 90
        0
102
RTVSPost2010PropOp40
 70
     1
102
RTVSPost2010Prop41ColorIndex
 90
       18
102
RTVSPost2010Prop41ColorRGB
 90
        0
102
RTVSPost2010PropOp41
 70
     1
102
RTVSPost2010Prop42
 90
       50
102
RTVSPost2010PropOp42
 70
     1
102
RTVSPost2010Prop43
 90
        3
102
RTVSPost2010PropOp43
 70
     1
102
RTVSPost2010Prop44ColorIndex
 90
        5
102
RTVSPost2010Prop44ColorRGB
 90
      255
102
RTVSPost2010PropOp44
 70
     1
102
RTVSPost2010Prop45
280
     0
102
RTVSPost2010PropOp45
 70
     1
102
RTVSPost2010Prop46
 90
       50
102
RTVSPost2010PropOp46
 70
     1
102
RTVSPost2010Prop47
 90
       50
102
RTVSPost2010PropOp47
 70
     1
102
RTVSPost2010Prop48
 90
       50
102
RTVSPost2010PropOp48
 70
     1
102
RTVSPost2010Prop49
280
     0
102
RTVSPost2010PropOp49
 70
     1
102
RTVSPost2010Prop50
 90
       50
102
RTVSPost2010PropOp50
 70
     1
102
RTVSPost2010Prop51ColorIndex
 90
      256
102
RTVSPost2010Prop51ColorRGB
 90
-16777216
102
RTVSPost2010PropOp51
 70
     0
102
RTVSPost2010Prop52
140
1.0
102
RTVSPost2010PropOp52
 70
     0
102
RTVSPost2010Prop53
 90
        2
102
RTVSPost2010PropOp53
 70
     1
102
RTVSPost2010Prop54
  1
strokes_ogs.tif
102
RTVSPost2010PropOp54
 70
     1
102
RTVSPost2010Prop55
280
     0
102
RTVSPost2010PropOp55
 70
     1
102
RTVSPost2010Prop56
140
1.0
102
RTVSPost2010PropOp56
 70
     1
102
RTVSPost2010Prop57
140
1.0
102
RTVSPost2010PropOp57
 70
     1
102
RTVSPropertyOp0
 70
     1
102
RTVSPropertyOp1
 70
     1
102
RTVSPropertyOp2
 70
     1
102
RTVSPropertyOp3
 70
     1
102
RTVSPropertyOp4
 70
     1
102
RTVSPropertyOp5
 70
     1
102
RTVSPropertyOp6
 70
     1
102
RTVSPropertyOp7
 70
     1
102
RTVSPropertyOp8
 70
     1
102
RTVSPropertyOp9
 70
     1
102
RTVSPropertyOp10
 70
     1
102
RTVSPropertyOp11
 70
     1
102
RTVSPropertyOp12
 70
     1
102
RTVSPropertyOp13
 70
     1
102
RTVSPropertyOp14
 70
     1
102
RTVSPropertyOp15
 70
     1
102
RTVSPropertyOp16
 70
     1
102
RTVSPropertyOp17
 70
     1
102
RTVSPropertyOp18
 70
     1
102
RTVSPropertyOp19
 70
     1
102
RTVSPropertyOp20
 70
     1
102
RTVSPropertyOp21
 70
     1
102
RTVSPropertyOp22
 70
     1
102
RTVSPropertyOp23
 70
     1
102
RTVSPropertyOp24
 70
     1
102
RTVSPropertyOp25
 70
     1
102
RTVSPropertyOp26
 70
     1
102
RTVSPropertyOp27
 70
     1
102
RTVSPropertyOp28
 70
     1
102
RTVSPropertyOp29
 70
     1
102
RTVSPropertyOp30
 70
     1
102
RTVSPropertyOp31
 70
     1
102
RTVSPropertyOp32
 70
     1
102
RTVSPropertyOp33
 70
     1
102
RTVSPropertyOp34
 70
     1
102
RTVSPropertyOp35
 70
     1
102
RTVSPropertyOp36
 70
     1
102
RTVSPropertyOp37
 70
     1
102
RTVSPropertyOp38
 70
     1
102
RTVSPropertyOp39
 70
     1
102
RTVSPropertyOp40
 70
     1
102
RTVSPropertyOp41
 70
     1
102
RTVSPropertyOp42
 70
     1
102
RTVSPropertyOp43
 70
     1
102
RTVSPropertyOp44
 70
     1
102
RTVSPropertyOp45
 70
     1
102
RTVSPropertyOp46
 70
     1
102
RTVSPropertyOp47
 70
     1
102
RTVSPropertyOp48
 70
     1
102
RTVSPropertyOp49
 70
     1
102
RTVSPropertyOp50
 70
     1
102
RTVSPropertyOp51
 70
     0
102
RTVSPropertyOp52
 70
     0
102
RTVSPropertyOp53
 70
     1
102
RTVSPropertyOp54
 70
     1
102
RTVSPropertyOp55
 70
     1
102
RTVSPropertyOp56
 70
     1
102
RTVSPropertyOp57
 70
     1
102
RTVSPropertyOp58
 70
     1
102
RTVSPropertyOp59
 70
     1
102
RTVSPropertyOp60
 70
     1
102
RTVSPropertyOp61
 70
     1
102
RTVSPropertyOp62
 70
     1
  0
XRECORD
  5
ACCC
102
{ACAD_REACTORS
330
ACCB
102
}
330
ACCB
100
AcDbXrecord
280
     1
102
RTVSPost2010Prop28
280
     0
102
RTVSPost2010PropOp28
 70
     1
102
RTVSPost2010Prop29
280
     1
102
RTVSPost2010PropOp29
 70
     1
102
RTVSPost2010Prop30
280
     1
102
RTVSPost2010PropOp30
 70
     1
102
RTVSPost2010Prop31
280
     0
102
RTVSPost2010PropOp31
 70
     1
102
RTVSPost2010Prop32
280
     0
102
RTVSPost2010PropOp32
 70
     1
102
RTVSPost2010Prop33
280
     0
102
RTVSPost2010PropOp33
 70
     1
102
RTVSPost2010Prop34
280
     0
102
RTVSPost2010PropOp34
 70
     1
102
RTVSPost2010Prop35
280
     0
102
RTVSPost2010PropOp35
 70
     1
102
RTVSPost2010Prop36
280
     0
102
RTVSPost2010PropOp36
 70
     1
102
RTVSPost2010Prop37
 90
       50
102
RTVSPost2010PropOp37
 70
     0
102
RTVSPost2010Prop38
140
0.0
102
RTVSPost2010PropOp38
 70
     0
102
RTVSPost2010Prop39
140
1.0
102
RTVSPost2010PropOp39
 70
     0
102
RTVSPost2010Prop40
 90
        0
102
RTVSPost2010PropOp40
 70
     0
102
RTVSPost2010Prop41ColorIndex
 90
       18
102
RTVSPost2010Prop41ColorRGB
 90
        0
102
RTVSPost2010PropOp41
 70
     0
102
RTVSPost2010Prop42
 90
       50
102
RTVSPost2010PropOp42
 70
     0
102
RTVSPost2010Prop43
 90
        3
102
RTVSPost2010PropOp43
 70
     0
102
RTVSPost2010Prop44ColorIndex
 90
        5
102
RTVSPost2010Prop44ColorRGB
 90
      255
102
RTVSPost2010PropOp44
 70
     0
102
RTVSPost2010Prop45
280
     0
102
RTVSPost2010PropOp45
 70
     1
102
RTVSPost2010Prop46
 90
       50
102
RTVSPost2010PropOp46
 70
     0
102
RTVSPost2010Prop47
 90
       50
102
RTVSPost2010PropOp47
 70
     0
102
RTVSPost2010Prop48
 90
       50
102
RTVSPost2010PropOp48
 70
     0
102
RTVSPost2010Prop49
280
     0
102
RTVSPost2010PropOp49
 70
     1
102
RTVSPost2010Prop50
 90
       50
102
RTVSPost2010PropOp50
 70
     0
102
RTVSPost2010Prop51ColorIndex
 90
      256
102
RTVSPost2010Prop51ColorRGB
 90
-16777216
102
RTVSPost2010PropOp51
 70
     0
102
RTVSPost2010Prop52
140
1.0
102
RTVSPost2010PropOp52
 70
     0
102
RTVSPost2010Prop53
 90
        2
102
RTVSPost2010PropOp53
 70
     0
102
RTVSPost2010Prop54
  1
strokes_ogs.tif
102
RTVSPost2010PropOp54
 70
     0
102
RTVSPost2010Prop55
280
     0
102
RTVSPost2010PropOp55
 70
     1
102
RTVSPost2010Prop56
140
1.0
102
RTVSPost2010PropOp56
 70
     0
102
RTVSPost2010Prop57
140
1.0
102
RTVSPost2010PropOp57
 70
     0
102
RTVSPropertyOp0
 70
     0
102
RTVSPropertyOp1
 70
     0
102
RTVSPropertyOp2
 70
     0
102
RTVSPropertyOp3
 70
     0
102
RTVSPropertyOp4
 70
     0
102
RTVSPropertyOp5
 70
     0
102
RTVSPropertyOp6
 70
     0
102
RTVSPropertyOp7
 70
     0
102
RTVSPropertyOp8
 70
     0
102
RTVSPropertyOp9
 70
     0
102
RTVSPropertyOp10
 70
     0
102
RTVSPropertyOp11
 70
     0
102
RTVSPropertyOp12
 70
     0
102
RTVSPropertyOp13
 70
     0
102
RTVSPropertyOp14
 70
     2
102
RTVSPropertyOp15
 70
     0
102
RTVSPropertyOp16
 70
     0
102
RTVSPropertyOp17
 70
     0
102
RTVSPropertyOp18
 70
     0
102
RTVSPropertyOp19
 70
     0
102
RTVSPropertyOp20
 70
     0
102
RTVSPropertyOp21
 70
     0
102
RTVSPropertyOp22
 70
     0
102
RTVSPropertyOp23
 70
     0
102
RTVSPropertyOp24
 70
     0
102
RTVSPropertyOp25
 70
     0
102
RTVSPropertyOp26
 70
     0
102
RTVSPropertyOp27
 70
     0
102
RTVSPropertyOp28
 70
     1
102
RTVSPropertyOp29
 70
     1
102
RTVSPropertyOp30
 70
     1
102
RTVSPropertyOp31
 70
     1
102
RTVSPropertyOp32
 70
     1
102
RTVSPropertyOp33
 70
     1
102
RTVSPropertyOp34
 70
     1
102
RTVSPropertyOp35
 70
     1
102
RTVSPropertyOp36
 70
     1
102
RTVSPropertyOp37
 70
     0
102
RTVSPropertyOp38
 70
     0
102
RTVSPropertyOp39
 70
     0
102
RTVSPropertyOp40
 70
     0
102
RTVSPropertyOp41
 70
     0
102
RTVSPropertyOp42
 70
     0
102
RTVSPropertyOp43
 70
     0
102
RTVSPropertyOp44
 70
     0
102
RTVSPropertyOp45
 70
     1
102
RTVSPropertyOp46
 70
     0
102
RTVSPropertyOp47
 70
     0
102
RTVSPropertyOp48
 70
     0
102
RTVSPropertyOp49
 70
     1
102
RTVSPropertyOp50
 70
     0
102
RTVSPropertyOp51
 70
     0
102
RTVSPropertyOp52
 70
     0
102
RTVSPropertyOp53
 70
     0
102
RTVSPropertyOp54
 70
     0
102
RTVSPropertyOp55
 70
     1
102
RTVSPropertyOp56
 70
     0
102
RTVSPropertyOp57
 70
     0
102
RTVSPropertyOp58
 70
     0
102
RTVSPropertyOp59
 70
     0
102
RTVSPropertyOp60
 70
     0
102
RTVSPropertyOp61
 70
     0
102
RTVSPropertyOp62
 70
     0
  0
XRECORD
  5
ACB2
102
{ACAD_REACTORS
330
ACB1
102
}
330
ACB1
100
AcDbXrecord
280
     1
102
RTVSPost2010Prop28
280
     0
102
RTVSPost2010PropOp28
 70
     1
102
RTVSPost2010Prop29
280
     1
102
RTVSPost2010PropOp29
 70
     1
102
RTVSPost2010Prop30
280
     1
102
RTVSPost2010PropOp30
 70
     1
102
RTVSPost2010Prop31
280
     0
102
RTVSPost2010PropOp31
 70
     1
102
RTVSPost2010Prop32
280
     0
102
RTVSPost2010PropOp32
 70
     1
102
RTVSPost2010Prop33
280
     0
102
RTVSPost2010PropOp33
 70
     1
102
RTVSPost2010Prop34
280
     0
102
RTVSPost2010PropOp34
 70
     1
102
RTVSPost2010Prop35
280
     0
102
RTVSPost2010PropOp35
 70
     1
102
RTVSPost2010Prop36
280
     0
102
RTVSPost2010PropOp36
 70
     1
102
RTVSPost2010Prop37
 90
       50
102
RTVSPost2010PropOp37
 70
     1
102
RTVSPost2010Prop38
140
0.0
102
RTVSPost2010PropOp38
 70
     1
102
RTVSPost2010Prop39
140
1.0
102
RTVSPost2010PropOp39
 70
     1
102
RTVSPost2010Prop40
 90
        0
102
RTVSPost2010PropOp40
 70
     1
102
RTVSPost2010Prop41ColorIndex
 90
       18
102
RTVSPost2010Prop41ColorRGB
 90
        0
102
RTVSPost2010PropOp41
 70
     1
102
RTVSPost2010Prop42
 90
       50
102
RTVSPost2010PropOp42
 70
     1
102
RTVSPost2010Prop43
 90
        3
102
RTVSPost2010PropOp43
 70
     1
102
RTVSPost2010Prop44ColorIndex
 90
        5
102
RTVSPost2010Prop44ColorRGB
 90
      255
102
RTVSPost2010PropOp44
 70
     1
102
RTVSPost2010Prop45
280
     0
102
RTVSPost2010PropOp45
 70
     1
102
RTVSPost2010Prop46
 90
       50
102
RTVSPost2010PropOp46
 70
     1
102
RTVSPost2010Prop47
 90
       50
102
RTVSPost2010PropOp47
 70
     1
102
RTVSPost2010Prop48
 90
       50
102
RTVSPost2010PropOp48
 70
     1
102
RTVSPost2010Prop49
280
     0
102
RTVSPost2010PropOp49
 70
     1
102
RTVSPost2010Prop50
 90
       50
102
RTVSPost2010PropOp50
 70
     1
102
RTVSPost2010Prop51ColorIndex
 90
      256
102
RTVSPost2010Prop51ColorRGB
 90
-16777216
102
RTVSPost2010PropOp51
 70
     0
102
RTVSPost2010Prop52
140
1.0
102
RTVSPost2010PropOp52
 70
     0
102
RTVSPost2010Prop53
 90
        2
102
RTVSPost2010PropOp53
 70
     1
102
RTVSPost2010Prop54
  1
strokes_ogs.tif
102
RTVSPost2010PropOp54
 70
     1
102
RTVSPost2010Prop55
280
     0
102
RTVSPost2010PropOp55
 70
     1
102
RTVSPost2010Prop56
140
1.0
102
RTVSPost2010PropOp56
 70
     1
102
RTVSPost2010Prop57
140
1.0
102
RTVSPost2010PropOp57
 70
     1
102
RTVSPropertyOp0
 70
     1
102
RTVSPropertyOp1
 70
     1
102
RTVSPropertyOp2
 70
     1
102
RTVSPropertyOp3
 70
     1
102
RTVSPropertyOp4
 70
     1
102
RTVSPropertyOp5
 70
     1
102
RTVSPropertyOp6
 70
     1
102
RTVSPropertyOp7
 70
     1
102
RTVSPropertyOp8
 70
     1
102
RTVSPropertyOp9
 70
     1
102
RTVSPropertyOp10
 70
     1
102
RTVSPropertyOp11
 70
     1
102
RTVSPropertyOp12
 70
     1
102
RTVSPropertyOp13
 70
     1
102
RTVSPropertyOp14
 70
     1
102
RTVSPropertyOp15
 70
     1
102
RTVSPropertyOp16
 70
     1
102
RTVSPropertyOp17
 70
     1
102
RTVSPropertyOp18
 70
     1
102
RTVSPropertyOp19
 70
     1
102
RTVSPropertyOp20
 70
     1
102
RTVSPropertyOp21
 70
     1
102
RTVSPropertyOp22
 70
     1
102
RTVSPropertyOp23
 70
     1
102
RTVSPropertyOp24
 70
     1
102
RTVSPropertyOp25
 70
     1
102
RTVSPropertyOp26
 70
     1
102
RTVSPropertyOp27
 70
     1
102
RTVSPropertyOp28
 70
     1
102
RTVSPropertyOp29
 70
     1
102
RTVSPropertyOp30
 70
     1
102
RTVSPropertyOp31
 70
     1
102
RTVSPropertyOp32
 70
     1
102
RTVSPropertyOp33
 70
     1
102
RTVSPropertyOp34
 70
     1
102
RTVSPropertyOp35
 70
     1
102
RTVSPropertyOp36
 70
     1
102
RTVSPropertyOp37
 70
     1
102
RTVSPropertyOp38
 70
     1
102
RTVSPropertyOp39
 70
     1
102
RTVSPropertyOp40
 70
     1
102
RTVSPropertyOp41
 70
     1
102
RTVSPropertyOp42
 70
     1
102
RTVSPropertyOp43
 70
     1
102
RTVSPropertyOp44
 70
     1
102
RTVSPropertyOp45
 70
     1
102
RTVSPropertyOp46
 70
     1
102
RTVSPropertyOp47
 70
     1
102
RTVSPropertyOp48
 70
     1
102
RTVSPropertyOp49
 70
     1
102
RTVSPropertyOp50
 70
     1
102
RTVSPropertyOp51
 70
     0
102
RTVSPropertyOp52
 70
     0
102
RTVSPropertyOp53
 70
     1
102
RTVSPropertyOp54
 70
     1
102
RTVSPropertyOp55
 70
     1
102
RTVSPropertyOp56
 70
     1
102
RTVSPropertyOp57
 70
     1
102
RTVSPropertyOp58
 70
     1
102
RTVSPropertyOp59
 70
     1
102
RTVSPropertyOp60
 70
     1
102
RTVSPropertyOp61
 70
     1
102
RTVSPropertyOp62
 70
     1
  0
XRECORD
  5
ACC8
102
{ACAD_REACTORS
330
ACC7
102
}
330
ACC7
100
AcDbXrecord
280
     1
102
RTVSPost2010Prop28
280
     0
102
RTVSPost2010PropOp28
 70
     1
102
RTVSPost2010Prop29
280
     1
102
RTVSPost2010PropOp29
 70
     1
102
RTVSPost2010Prop30
280
     1
102
RTVSPost2010PropOp30
 70
     1
102
RTVSPost2010Prop31
280
     0
102
RTVSPost2010PropOp31
 70
     1
102
RTVSPost2010Prop32
280
     0
102
RTVSPost2010PropOp32
 70
     1
102
RTVSPost2010Prop33
280
     0
102
RTVSPost2010PropOp33
 70
     1
102
RTVSPost2010Prop34
280
     0
102
RTVSPost2010PropOp34
 70
     1
102
RTVSPost2010Prop35
280
     0
102
RTVSPost2010PropOp35
 70
     1
102
RTVSPost2010Prop36
280
     0
102
RTVSPost2010PropOp36
 70
     1
102
RTVSPost2010Prop37
 90
       50
102
RTVSPost2010PropOp37
 70
     1
102
RTVSPost2010Prop38
140
0.0
102
RTVSPost2010PropOp38
 70
     1
102
RTVSPost2010Prop39
140
1.0
102
RTVSPost2010PropOp39
 70
     1
102
RTVSPost2010Prop40
 90
        0
102
RTVSPost2010PropOp40
 70
     1
102
RTVSPost2010Prop41ColorIndex
 90
       18
102
RTVSPost2010Prop41ColorRGB
 90
        0
102
RTVSPost2010PropOp41
 70
     1
102
RTVSPost2010Prop42
 90
       50
102
RTVSPost2010PropOp42
 70
     1
102
RTVSPost2010Prop43
 90
        3
102
RTVSPost2010PropOp43
 70
     1
102
RTVSPost2010Prop44ColorIndex
 90
        5
102
RTVSPost2010Prop44ColorRGB
 90
      255
102
RTVSPost2010PropOp44
 70
     1
102
RTVSPost2010Prop45
280
     0
102
RTVSPost2010PropOp45
 70
     1
102
RTVSPost2010Prop46
 90
       50
102
RTVSPost2010PropOp46
 70
     1
102
RTVSPost2010Prop47
 90
       50
102
RTVSPost2010PropOp47
 70
     1
102
RTVSPost2010Prop48
 90
       50
102
RTVSPost2010PropOp48
 70
     1
102
RTVSPost2010Prop49
280
     0
102
RTVSPost2010PropOp49
 70
     1
102
RTVSPost2010Prop50
 90
       50
102
RTVSPost2010PropOp50
 70
     1
102
RTVSPost2010Prop51ColorIndex
 90
      256
102
RTVSPost2010Prop51ColorRGB
 90
-16777216
102
RTVSPost2010PropOp51
 70
     0
102
RTVSPost2010Prop52
140
1.0
102
RTVSPost2010PropOp52
 70
     0
102
RTVSPost2010Prop53
 90
        2
102
RTVSPost2010PropOp53
 70
     1
102
RTVSPost2010Prop54
  1
strokes_ogs.tif
102
RTVSPost2010PropOp54
 70
     1
102
RTVSPost2010Prop55
280
     0
102
RTVSPost2010PropOp55
 70
     1
102
RTVSPost2010Prop56
140
1.0
102
RTVSPost2010PropOp56
 70
     1
102
RTVSPost2010Prop57
140
1.0
102
RTVSPost2010PropOp57
 70
     1
102
RTVSPropertyOp0
 70
     1
102
RTVSPropertyOp1
 70
     1
102
RTVSPropertyOp2
 70
     1
102
RTVSPropertyOp3
 70
     1
102
RTVSPropertyOp4
 70
     1
102
RTVSPropertyOp5
 70
     1
102
RTVSPropertyOp6
 70
     1
102
RTVSPropertyOp7
 70
     1
102
RTVSPropertyOp8
 70
     1
102
RTVSPropertyOp9
 70
     1
102
RTVSPropertyOp10
 70
     1
102
RTVSPropertyOp11
 70
     1
102
RTVSPropertyOp12
 70
     1
102
RTVSPropertyOp13
 70
     1
102
RTVSPropertyOp14
 70
     1
102
RTVSPropertyOp15
 70
     1
102
RTVSPropertyOp16
 70
     1
102
RTVSPropertyOp17
 70
     1
102
RTVSPropertyOp18
 70
     1
102
RTVSPropertyOp19
 70
     1
102
RTVSPropertyOp20
 70
     1
102
RTVSPropertyOp21
 70
     1
102
RTVSPropertyOp22
 70
     1
102
RTVSPropertyOp23
 70
     1
102
RTVSPropertyOp24
 70
     1
102
RTVSPropertyOp25
 70
     1
102
RTVSPropertyOp26
 70
     1
102
RTVSPropertyOp27
 70
     1
102
RTVSPropertyOp28
 70
     1
102
RTVSPropertyOp29
 70
     1
102
RTVSPropertyOp30
 70
     1
102
RTVSPropertyOp31
 70
     1
102
RTVSPropertyOp32
 70
     1
102
RTVSPropertyOp33
 70
     1
102
RTVSPropertyOp34
 70
     1
102
RTVSPropertyOp35
 70
     1
102
RTVSPropertyOp36
 70
     1
102
RTVSPropertyOp37
 70
     1
102
RTVSPropertyOp38
 70
     1
102
RTVSPropertyOp39
 70
     1
102
RTVSPropertyOp40
 70
     1
102
RTVSPropertyOp41
 70
     1
102
RTVSPropertyOp42
 70
     1
102
RTVSPropertyOp43
 70
     1
102
RTVSPropertyOp44
 70
     1
102
RTVSPropertyOp45
 70
     1
102
RTVSPropertyOp46
 70
     1
102
RTVSPropertyOp47
 70
     1
102
RTVSPropertyOp48
 70
     1
102
RTVSPropertyOp49
 70
     1
102
RTVSPropertyOp50
 70
     1
102
RTVSPropertyOp51
 70
     0
102
RTVSPropertyOp52
 70
     0
102
RTVSPropertyOp53
 70
     1
102
RTVSPropertyOp54
 70
     1
102
RTVSPropertyOp55
 70
     1
102
RTVSPropertyOp56
 70
     1
102
RTVSPropertyOp57
 70
     1
102
RTVSPropertyOp58
 70
     1
102
RTVSPropertyOp59
 70
     1
102
RTVSPropertyOp60
 70
     1
102
RTVSPropertyOp61
 70
     1
102
RTVSPropertyOp62
 70
     1
  0
XRECORD
  5
ACC6
102
{ACAD_REACTORS
330
ACC5
102
}
330
ACC5
100
AcDbXrecord
280
     1
102
RTVSPost2010Prop28
280
     0
102
RTVSPost2010PropOp28
 70
     1
102
RTVSPost2010Prop29
280
     1
102
RTVSPost2010PropOp29
 70
     1
102
RTVSPost2010Prop30
280
     1
102
RTVSPost2010PropOp30
 70
     1
102
RTVSPost2010Prop31
280
     0
102
RTVSPost2010PropOp31
 70
     1
102
RTVSPost2010Prop32
280
     0
102
RTVSPost2010PropOp32
 70
     1
102
RTVSPost2010Prop33
280
     0
102
RTVSPost2010PropOp33
 70
     1
102
RTVSPost2010Prop34
280
     0
102
RTVSPost2010PropOp34
 70
     1
102
RTVSPost2010Prop35
280
     0
102
RTVSPost2010PropOp35
 70
     1
102
RTVSPost2010Prop36
280
     0
102
RTVSPost2010PropOp36
 70
     1
102
RTVSPost2010Prop37
 90
       50
102
RTVSPost2010PropOp37
 70
     1
102
RTVSPost2010Prop38
140
0.0
102
RTVSPost2010PropOp38
 70
     1
102
RTVSPost2010Prop39
140
1.0
102
RTVSPost2010PropOp39
 70
     1
102
RTVSPost2010Prop40
 90
        0
102
RTVSPost2010PropOp40
 70
     1
102
RTVSPost2010Prop41ColorIndex
 90
       18
102
RTVSPost2010Prop41ColorRGB
 90
        0
102
RTVSPost2010PropOp41
 70
     1
102
RTVSPost2010Prop42
 90
       50
102
RTVSPost2010PropOp42
 70
     1
102
RTVSPost2010Prop43
 90
        3
102
RTVSPost2010PropOp43
 70
     1
102
RTVSPost2010Prop44ColorIndex
 90
        5
102
RTVSPost2010Prop44ColorRGB
 90
      255
102
RTVSPost2010PropOp44
 70
     1
102
RTVSPost2010Prop45
280
     0
102
RTVSPost2010PropOp45
 70
     1
102
RTVSPost2010Prop46
 90
       50
102
RTVSPost2010PropOp46
 70
     1
102
RTVSPost2010Prop47
 90
       50
102
RTVSPost2010PropOp47
 70
     1
102
RTVSPost2010Prop48
 90
       50
102
RTVSPost2010PropOp48
 70
     1
102
RTVSPost2010Prop49
280
     0
102
RTVSPost2010PropOp49
 70
     1
102
RTVSPost2010Prop50
 90
       50
102
RTVSPost2010PropOp50
 70
     1
102
RTVSPost2010Prop51ColorIndex
 90
      256
102
RTVSPost2010Prop51ColorRGB
 90
-16777216
102
RTVSPost2010PropOp51
 70
     0
102
RTVSPost2010Prop52
140
1.0
102
RTVSPost2010PropOp52
 70
     0
102
RTVSPost2010Prop53
 90
        2
102
RTVSPost2010PropOp53
 70
     1
102
RTVSPost2010Prop54
  1
strokes_ogs.tif
102
RTVSPost2010PropOp54
 70
     1
102
RTVSPost2010Prop55
280
     0
102
RTVSPost2010PropOp55
 70
     1
102
RTVSPost2010Prop56
140
1.0
102
RTVSPost2010PropOp56
 70
     1
102
RTVSPost2010Prop57
140
1.0
102
RTVSPost2010PropOp57
 70
     1
102
RTVSPropertyOp0
 70
     1
102
RTVSPropertyOp1
 70
     1
102
RTVSPropertyOp2
 70
     1
102
RTVSPropertyOp3
 70
     1
102
RTVSPropertyOp4
 70
     1
102
RTVSPropertyOp5
 70
     1
102
RTVSPropertyOp6
 70
     1
102
RTVSPropertyOp7
 70
     1
102
RTVSPropertyOp8
 70
     1
102
RTVSPropertyOp9
 70
     1
102
RTVSPropertyOp10
 70
     1
102
RTVSPropertyOp11
 70
     1
102
RTVSPropertyOp12
 70
     1
102
RTVSPropertyOp13
 70
     1
102
RTVSPropertyOp14
 70
     1
102
RTVSPropertyOp15
 70
     1
102
RTVSPropertyOp16
 70
     1
102
RTVSPropertyOp17
 70
     1
102
RTVSPropertyOp18
 70
     1
102
RTVSPropertyOp19
 70
     1
102
RTVSPropertyOp20
 70
     1
102
RTVSPropertyOp21
 70
     1
102
RTVSPropertyOp22
 70
     1
102
RTVSPropertyOp23
 70
     1
102
RTVSPropertyOp24
 70
     1
102
RTVSPropertyOp25
 70
     1
102
RTVSPropertyOp26
 70
     1
102
RTVSPropertyOp27
 70
     1
102
RTVSPropertyOp28
 70
     1
102
RTVSPropertyOp29
 70
     1
102
RTVSPropertyOp30
 70
     1
102
RTVSPropertyOp31
 70
     1
102
RTVSPropertyOp32
 70
     1
102
RTVSPropertyOp33
 70
     1
102
RTVSPropertyOp34
 70
     1
102
RTVSPropertyOp35
 70
     1
102
RTVSPropertyOp36
 70
     1
102
RTVSPropertyOp37
 70
     1
102
RTVSPropertyOp38
 70
     1
102
RTVSPropertyOp39
 70
     1
102
RTVSPropertyOp40
 70
     1
102
RTVSPropertyOp41
 70
     1
102
RTVSPropertyOp42
 70
     1
102
RTVSPropertyOp43
 70
     1
102
RTVSPropertyOp44
 70
     1
102
RTVSPropertyOp45
 70
     1
102
RTVSPropertyOp46
 70
     1
102
RTVSPropertyOp47
 70
     1
102
RTVSPropertyOp48
 70
     1
102
RTVSPropertyOp49
 70
     1
102
RTVSPropertyOp50
 70
     1
102
RTVSPropertyOp51
 70
     0
102
RTVSPropertyOp52
 70
     0
102
RTVSPropertyOp53
 70
     1
102
RTVSPropertyOp54
 70
     1
102
RTVSPropertyOp55
 70
     1
102
RTVSPropertyOp56
 70
     1
102
RTVSPropertyOp57
 70
     1
102
RTVSPropertyOp58
 70
     1
102
RTVSPropertyOp59
 70
     1
102
RTVSPropertyOp60
 70
     1
102
RTVSPropertyOp61
 70
     1
102
RTVSPropertyOp62
 70
     1
  0
XRECORD
  5
ACC0
102
{ACAD_REACTORS
330
ACBF
102
}
330
ACBF
100
AcDbXrecord
280
     1
102
RTVSPost2010Prop28
280
     0
102
RTVSPost2010PropOp28
 70
     1
102
RTVSPost2010Prop29
280
     1
102
RTVSPost2010PropOp29
 70
     1
102
RTVSPost2010Prop30
280
     1
102
RTVSPost2010PropOp30
 70
     1
102
RTVSPost2010Prop31
280
     0
102
RTVSPost2010PropOp31
 70
     1
102
RTVSPost2010Prop32
280
     0
102
RTVSPost2010PropOp32
 70
     1
102
RTVSPost2010Prop33
280
     0
102
RTVSPost2010PropOp33
 70
     1
102
RTVSPost2010Prop34
280
     0
102
RTVSPost2010PropOp34
 70
     1
102
RTVSPost2010Prop35
280
     0
102
RTVSPost2010PropOp35
 70
     1
102
RTVSPost2010Prop36
280
     0
102
RTVSPost2010PropOp36
 70
     1
102
RTVSPost2010Prop37
 90
       50
102
RTVSPost2010PropOp37
 70
     1
102
RTVSPost2010Prop38
140
0.0
102
RTVSPost2010PropOp38
 70
     1
102
RTVSPost2010Prop39
140
1.0
102
RTVSPost2010PropOp39
 70
     1
102
RTVSPost2010Prop40
 90
        0
102
RTVSPost2010PropOp40
 70
     1
102
RTVSPost2010Prop41ColorIndex
 90
       18
102
RTVSPost2010Prop41ColorRGB
 90
        0
102
RTVSPost2010PropOp41
 70
     1
102
RTVSPost2010Prop42
 90
       50
102
RTVSPost2010PropOp42
 70
     1
102
RTVSPost2010Prop43
 90
        3
102
RTVSPost2010PropOp43
 70
     1
102
RTVSPost2010Prop44ColorIndex
 90
        5
102
RTVSPost2010Prop44ColorRGB
 90
      255
102
RTVSPost2010PropOp44
 70
     1
102
RTVSPost2010Prop45
280
     0
102
RTVSPost2010PropOp45
 70
     1
102
RTVSPost2010Prop46
 90
       50
102
RTVSPost2010PropOp46
 70
     1
102
RTVSPost2010Prop47
 90
       50
102
RTVSPost2010PropOp47
 70
     1
102
RTVSPost2010Prop48
 90
       50
102
RTVSPost2010PropOp48
 70
     1
102
RTVSPost2010Prop49
280
     0
102
RTVSPost2010PropOp49
 70
     1
102
RTVSPost2010Prop50
 90
       50
102
RTVSPost2010PropOp50
 70
     1
102
RTVSPost2010Prop51ColorIndex
 90
      256
102
RTVSPost2010Prop51ColorRGB
 90
-16777216
102
RTVSPost2010PropOp51
 70
     0
102
RTVSPost2010Prop52
140
1.0
102
RTVSPost2010PropOp52
 70
     0
102
RTVSPost2010Prop53
 90
        2
102
RTVSPost2010PropOp53
 70
     1
102
RTVSPost2010Prop54
  1
strokes_ogs.tif
102
RTVSPost2010PropOp54
 70
     1
102
RTVSPost2010Prop55
280
     0
102
RTVSPost2010PropOp55
 70
     1
102
RTVSPost2010Prop56
140
1.0
102
RTVSPost2010PropOp56
 70
     1
102
RTVSPost2010Prop57
140
1.0
102
RTVSPost2010PropOp57
 70
     1
102
RTVSPropertyOp0
 70
     1
102
RTVSPropertyOp1
 70
     1
102
RTVSPropertyOp2
 70
     1
102
RTVSPropertyOp3
 70
     1
102
RTVSPropertyOp4
 70
     1
102
RTVSPropertyOp5
 70
     1
102
RTVSPropertyOp6
 70
     1
102
RTVSPropertyOp7
 70
     1
102
RTVSPropertyOp8
 70
     1
102
RTVSPropertyOp9
 70
     1
102
RTVSPropertyOp10
 70
     1
102
RTVSPropertyOp11
 70
     1
102
RTVSPropertyOp12
 70
     1
102
RTVSPropertyOp13
 70
     1
102
RTVSPropertyOp14
 70
     1
102
RTVSPropertyOp15
 70
     1
102
RTVSPropertyOp16
 70
     1
102
RTVSPropertyOp17
 70
     1
102
RTVSPropertyOp18
 70
     1
102
RTVSPropertyOp19
 70
     1
102
RTVSPropertyOp20
 70
     1
102
RTVSPropertyOp21
 70
     1
102
RTVSPropertyOp22
 70
     1
102
RTVSPropertyOp23
 70
     1
102
RTVSPropertyOp24
 70
     1
102
RTVSPropertyOp25
 70
     1
102
RTVSPropertyOp26
 70
     1
102
RTVSPropertyOp27
 70
     1
102
RTVSPropertyOp28
 70
     1
102
RTVSPropertyOp29
 70
     1
102
RTVSPropertyOp30
 70
     1
102
RTVSPropertyOp31
 70
     1
102
RTVSPropertyOp32
 70
     1
102
RTVSPropertyOp33
 70
     1
102
RTVSPropertyOp34
 70
     1
102
RTVSPropertyOp35
 70
     1
102
RTVSPropertyOp36
 70
     1
102
RTVSPropertyOp37
 70
     1
102
RTVSPropertyOp38
 70
     1
102
RTVSPropertyOp39
 70
     1
102
RTVSPropertyOp40
 70
     1
102
RTVSPropertyOp41
 70
     1
102
RTVSPropertyOp42
 70
     1
102
RTVSPropertyOp43
 70
     1
102
RTVSPropertyOp44
 70
     1
102
RTVSPropertyOp45
 70
     1
102
RTVSPropertyOp46
 70
     1
102
RTVSPropertyOp47
 70
     1
102
RTVSPropertyOp48
 70
     1
102
RTVSPropertyOp49
 70
     1
102
RTVSPropertyOp50
 70
     1
102
RTVSPropertyOp51
 70
     0
102
RTVSPropertyOp52
 70
     0
102
RTVSPropertyOp53
 70
     1
102
RTVSPropertyOp54
 70
     1
102
RTVSPropertyOp55
 70
     1
102
RTVSPropertyOp56
 70
     1
102
RTVSPropertyOp57
 70
     1
102
RTVSPropertyOp58
 70
     1
102
RTVSPropertyOp59
 70
     1
102
RTVSPropertyOp60
 70
     1
102
RTVSPropertyOp61
 70
     1
102
RTVSPropertyOp62
 70
     1
  0
XRECORD
  5
ACC2
102
{ACAD_REACTORS
330
ACC1
102
}
330
ACC1
100
AcDbXrecord
280
     1
102
RTVSPost2010Prop28
280
     0
102
RTVSPost2010PropOp28
 70
     1
102
RTVSPost2010Prop29
280
     1
102
RTVSPost2010PropOp29
 70
     1
102
RTVSPost2010Prop30
280
     1
102
RTVSPost2010PropOp30
 70
     1
102
RTVSPost2010Prop31
280
     0
102
RTVSPost2010PropOp31
 70
     1
102
RTVSPost2010Prop32
280
     0
102
RTVSPost2010PropOp32
 70
     1
102
RTVSPost2010Prop33
280
     0
102
RTVSPost2010PropOp33
 70
     1
102
RTVSPost2010Prop34
280
     0
102
RTVSPost2010PropOp34
 70
     1
102
RTVSPost2010Prop35
280
     0
102
RTVSPost2010PropOp35
 70
     1
102
RTVSPost2010Prop36
280
     0
102
RTVSPost2010PropOp36
 70
     1
102
RTVSPost2010Prop37
 90
       50
102
RTVSPost2010PropOp37
 70
     1
102
RTVSPost2010Prop38
140
0.0
102
RTVSPost2010PropOp38
 70
     1
102
RTVSPost2010Prop39
140
1.0
102
RTVSPost2010PropOp39
 70
     1
102
RTVSPost2010Prop40
 90
        0
102
RTVSPost2010PropOp40
 70
     1
102
RTVSPost2010Prop41ColorIndex
 90
       18
102
RTVSPost2010Prop41ColorRGB
 90
        0
102
RTVSPost2010PropOp41
 70
     1
102
RTVSPost2010Prop42
 90
       50
102
RTVSPost2010PropOp42
 70
     1
102
RTVSPost2010Prop43
 90
        3
102
RTVSPost2010PropOp43
 70
     1
102
RTVSPost2010Prop44ColorIndex
 90
        5
102
RTVSPost2010Prop44ColorRGB
 90
      255
102
RTVSPost2010PropOp44
 70
     1
102
RTVSPost2010Prop45
280
     0
102
RTVSPost2010PropOp45
 70
     1
102
RTVSPost2010Prop46
 90
       50
102
RTVSPost2010PropOp46
 70
     1
102
RTVSPost2010Prop47
 90
       50
102
RTVSPost2010PropOp47
 70
     1
102
RTVSPost2010Prop48
 90
       50
102
RTVSPost2010PropOp48
 70
     1
102
RTVSPost2010Prop49
280
     0
102
RTVSPost2010PropOp49
 70
     1
102
RTVSPost2010Prop50
 90
       50
102
RTVSPost2010PropOp50
 70
     1
102
RTVSPost2010Prop51ColorIndex
 90
      256
102
RTVSPost2010Prop51ColorRGB
 90
-16777216
102
RTVSPost2010PropOp51
 70
     0
102
RTVSPost2010Prop52
140
1.0
102
RTVSPost2010PropOp52
 70
     0
102
RTVSPost2010Prop53
 90
        2
102
RTVSPost2010PropOp53
 70
     1
102
RTVSPost2010Prop54
  1
strokes_ogs.tif
102
RTVSPost2010PropOp54
 70
     1
102
RTVSPost2010Prop55
280
     0
102
RTVSPost2010PropOp55
 70
     1
102
RTVSPost2010Prop56
140
1.0
102
RTVSPost2010PropOp56
 70
     1
102
RTVSPost2010Prop57
140
1.0
102
RTVSPost2010PropOp57
 70
     1
102
RTVSPropertyOp0
 70
     1
102
RTVSPropertyOp1
 70
     1
102
RTVSPropertyOp2
 70
     1
102
RTVSPropertyOp3
 70
     1
102
RTVSPropertyOp4
 70
     1
102
RTVSPropertyOp5
 70
     1
102
RTVSPropertyOp6
 70
     1
102
RTVSPropertyOp7
 70
     1
102
RTVSPropertyOp8
 70
     1
102
RTVSPropertyOp9
 70
     1
102
RTVSPropertyOp10
 70
     1
102
RTVSPropertyOp11
 70
     1
102
RTVSPropertyOp12
 70
     1
102
RTVSPropertyOp13
 70
     1
102
RTVSPropertyOp14
 70
     1
102
RTVSPropertyOp15
 70
     1
102
RTVSPropertyOp16
 70
     1
102
RTVSPropertyOp17
 70
     1
102
RTVSPropertyOp18
 70
     1
102
RTVSPropertyOp19
 70
     1
102
RTVSPropertyOp20
 70
     1
102
RTVSPropertyOp21
 70
     1
102
RTVSPropertyOp22
 70
     1
102
RTVSPropertyOp23
 70
     1
102
RTVSPropertyOp24
 70
     1
102
RTVSPropertyOp25
 70
     1
102
RTVSPropertyOp26
 70
     1
102
RTVSPropertyOp27
 70
     1
102
RTVSPropertyOp28
 70
     1
102
RTVSPropertyOp29
 70
     1
102
RTVSPropertyOp30
 70
     1
102
RTVSPropertyOp31
 70
     1
102
RTVSPropertyOp32
 70
     1
102
RTVSPropertyOp33
 70
     1
102
RTVSPropertyOp34
 70
     1
102
RTVSPropertyOp35
 70
     1
102
RTVSPropertyOp36
 70
     1
102
RTVSPropertyOp37
 70
     1
102
RTVSPropertyOp38
 70
     1
102
RTVSPropertyOp39
 70
     1
102
RTVSPropertyOp40
 70
     1
102
RTVSPropertyOp41
 70
     1
102
RTVSPropertyOp42
 70
     1
102
RTVSPropertyOp43
 70
     1
102
RTVSPropertyOp44
 70
     1
102
RTVSPropertyOp45
 70
     1
102
RTVSPropertyOp46
 70
     1
102
RTVSPropertyOp47
 70
     1
102
RTVSPropertyOp48
 70
     1
102
RTVSPropertyOp49
 70
     1
102
RTVSPropertyOp50
 70
     1
102
RTVSPropertyOp51
 70
     0
102
RTVSPropertyOp52
 70
     0
102
RTVSPropertyOp53
 70
     1
102
RTVSPropertyOp54
 70
     1
102
RTVSPropertyOp55
 70
     1
102
RTVSPropertyOp56
 70
     1
102
RTVSPropertyOp57
 70
     1
102
RTVSPropertyOp58
 70
     1
102
RTVSPropertyOp59
 70
     1
102
RTVSPropertyOp60
 70
     1
102
RTVSPropertyOp61
 70
     1
102
RTVSPropertyOp62
 70
     1
  0
XRECORD
  5
ACB8
102
{ACAD_REACTORS
330
ACB7
102
}
330
ACB7
100
AcDbXrecord
280
     1
102
RTVSPost2010Prop28
280
     0
102
RTVSPost2010PropOp28
 70
     1
102
RTVSPost2010Prop29
280
     1
102
RTVSPost2010PropOp29
 70
     1
102
RTVSPost2010Prop30
280
     1
102
RTVSPost2010PropOp30
 70
     1
102
RTVSPost2010Prop31
280
     0
102
RTVSPost2010PropOp31
 70
     1
102
RTVSPost2010Prop32
280
     0
102
RTVSPost2010PropOp32
 70
     1
102
RTVSPost2010Prop33
280
     0
102
RTVSPost2010PropOp33
 70
     1
102
RTVSPost2010Prop34
280
     0
102
RTVSPost2010PropOp34
 70
     1
102
RTVSPost2010Prop35
280
     0
102
RTVSPost2010PropOp35
 70
     1
102
RTVSPost2010Prop36
280
     0
102
RTVSPost2010PropOp36
 70
     1
102
RTVSPost2010Prop37
 90
       50
102
RTVSPost2010PropOp37
 70
     1
102
RTVSPost2010Prop38
140
0.0
102
RTVSPost2010PropOp38
 70
     1
102
RTVSPost2010Prop39
140
1.0
102
RTVSPost2010PropOp39
 70
     1
102
RTVSPost2010Prop40
 90
        0
102
RTVSPost2010PropOp40
 70
     1
102
RTVSPost2010Prop41ColorIndex
 90
       18
102
RTVSPost2010Prop41ColorRGB
 90
        0
102
RTVSPost2010PropOp41
 70
     1
102
RTVSPost2010Prop42
 90
       50
102
RTVSPost2010PropOp42
 70
     1
102
RTVSPost2010Prop43
 90
        3
102
RTVSPost2010PropOp43
 70
     1
102
RTVSPost2010Prop44ColorIndex
 90
        5
102
RTVSPost2010Prop44ColorRGB
 90
      255
102
RTVSPost2010PropOp44
 70
     1
102
RTVSPost2010Prop45
280
     0
102
RTVSPost2010PropOp45
 70
     1
102
RTVSPost2010Prop46
 90
       50
102
RTVSPost2010PropOp46
 70
     1
102
RTVSPost2010Prop47
 90
       50
102
RTVSPost2010PropOp47
 70
     1
102
RTVSPost2010Prop48
 90
       50
102
RTVSPost2010PropOp48
 70
     1
102
RTVSPost2010Prop49
280
     0
102
RTVSPost2010PropOp49
 70
     1
102
RTVSPost2010Prop50
 90
       50
102
RTVSPost2010PropOp50
 70
     1
102
RTVSPost2010Prop51ColorIndex
 90
      256
102
RTVSPost2010Prop51ColorRGB
 90
-16777216
102
RTVSPost2010PropOp51
 70
     0
102
RTVSPost2010Prop52
140
1.0
102
RTVSPost2010PropOp52
 70
     0
102
RTVSPost2010Prop53
 90
        2
102
RTVSPost2010PropOp53
 70
     1
102
RTVSPost2010Prop54
  1
strokes_ogs.tif
102
RTVSPost2010PropOp54
 70
     1
102
RTVSPost2010Prop55
280
     0
102
RTVSPost2010PropOp55
 70
     1
102
RTVSPost2010Prop56
140
1.0
102
RTVSPost2010PropOp56
 70
     1
102
RTVSPost2010Prop57
140
1.0
102
RTVSPost2010PropOp57
 70
     1
102
RTVSPropertyOp0
 70
     1
102
RTVSPropertyOp1
 70
     1
102
RTVSPropertyOp2
 70
     1
102
RTVSPropertyOp3
 70
     1
102
RTVSPropertyOp4
 70
     1
102
RTVSPropertyOp5
 70
     1
102
RTVSPropertyOp6
 70
     1
102
RTVSPropertyOp7
 70
     1
102
RTVSPropertyOp8
 70
     1
102
RTVSPropertyOp9
 70
     1
102
RTVSPropertyOp10
 70
     1
102
RTVSPropertyOp11
 70
     1
102
RTVSPropertyOp12
 70
     1
102
RTVSPropertyOp13
 70
     1
102
RTVSPropertyOp14
 70
     1
102
RTVSPropertyOp15
 70
     1
102
RTVSPropertyOp16
 70
     1
102
RTVSPropertyOp17
 70
     1
102
RTVSPropertyOp18
 70
     1
102
RTVSPropertyOp19
 70
     1
102
RTVSPropertyOp20
 70
     1
102
RTVSPropertyOp21
 70
     1
102
RTVSPropertyOp22
 70
     1
102
RTVSPropertyOp23
 70
     1
102
RTVSPropertyOp24
 70
     1
102
RTVSPropertyOp25
 70
     1
102
RTVSPropertyOp26
 70
     1
102
RTVSPropertyOp27
 70
     1
102
RTVSPropertyOp28
 70
     1
102
RTVSPropertyOp29
 70
     1
102
RTVSPropertyOp30
 70
     1
102
RTVSPropertyOp31
 70
     1
102
RTVSPropertyOp32
 70
     1
102
RTVSPropertyOp33
 70
     1
102
RTVSPropertyOp34
 70
     1
102
RTVSPropertyOp35
 70
     1
102
RTVSPropertyOp36
 70
     1
102
RTVSPropertyOp37
 70
     1
102
RTVSPropertyOp38
 70
     1
102
RTVSPropertyOp39
 70
     1
102
RTVSPropertyOp40
 70
     1
102
RTVSPropertyOp41
 70
     1
102
RTVSPropertyOp42
 70
     1
102
RTVSPropertyOp43
 70
     1
102
RTVSPropertyOp44
 70
     1
102
RTVSPropertyOp45
 70
     1
102
RTVSPropertyOp46
 70
     1
102
RTVSPropertyOp47
 70
     1
102
RTVSPropertyOp48
 70
     1
102
RTVSPropertyOp49
 70
     1
102
RTVSPropertyOp50
 70
     1
102
RTVSPropertyOp51
 70
     0
102
RTVSPropertyOp52
 70
     0
102
RTVSPropertyOp53
 70
     1
102
RTVSPropertyOp54
 70
     1
102
RTVSPropertyOp55
 70
     1
102
RTVSPropertyOp56
 70
     1
102
RTVSPropertyOp57
 70
     1
102
RTVSPropertyOp58
 70
     1
102
RTVSPropertyOp59
 70
     1
102
RTVSPropertyOp60
 70
     1
102
RTVSPropertyOp61
 70
     1
102
RTVSPropertyOp62
 70
     1
  0
XRECORD
  5
ACAC
102
{ACAD_REACTORS
330
ACAB
102
}
330
ACAB
100
AcDbXrecord
280
     1
102
RTVSPost2010Prop28
280
     0
102
RTVSPost2010PropOp28
 70
     1
102
RTVSPost2010Prop29
280
     1
102
RTVSPost2010PropOp29
 70
     1
102
RTVSPost2010Prop30
280
     1
102
RTVSPost2010PropOp30
 70
     1
102
RTVSPost2010Prop31
280
     0
102
RTVSPost2010PropOp31
 70
     1
102
RTVSPost2010Prop32
280
     0
102
RTVSPost2010PropOp32
 70
     1
102
RTVSPost2010Prop33
280
     0
102
RTVSPost2010PropOp33
 70
     1
102
RTVSPost2010Prop34
280
     0
102
RTVSPost2010PropOp34
 70
     1
102
RTVSPost2010Prop35
280
     0
102
RTVSPost2010PropOp35
 70
     1
102
RTVSPost2010Prop36
280
     0
102
RTVSPost2010PropOp36
 70
     1
102
RTVSPost2010Prop37
 90
       50
102
RTVSPost2010PropOp37
 70
     1
102
RTVSPost2010Prop38
140
0.0
102
RTVSPost2010PropOp38
 70
     1
102
RTVSPost2010Prop39
140
1.0
102
RTVSPost2010PropOp39
 70
     1
102
RTVSPost2010Prop40
 90
        0
102
RTVSPost2010PropOp40
 70
     1
102
RTVSPost2010Prop41ColorIndex
 90
       18
102
RTVSPost2010Prop41ColorRGB
 90
        0
102
RTVSPost2010PropOp41
 70
     1
102
RTVSPost2010Prop42
 90
       50
102
RTVSPost2010PropOp42
 70
     1
102
RTVSPost2010Prop43
 90
        3
102
RTVSPost2010PropOp43
 70
     1
102
RTVSPost2010Prop44ColorIndex
 90
        5
102
RTVSPost2010Prop44ColorRGB
 90
      255
102
RTVSPost2010PropOp44
 70
     1
102
RTVSPost2010Prop45
280
     0
102
RTVSPost2010PropOp45
 70
     1
102
RTVSPost2010Prop46
 90
       50
102
RTVSPost2010PropOp46
 70
     1
102
RTVSPost2010Prop47
 90
       50
102
RTVSPost2010PropOp47
 70
     1
102
RTVSPost2010Prop48
 90
       50
102
RTVSPost2010PropOp48
 70
     1
102
RTVSPost2010Prop49
280
     0
102
RTVSPost2010PropOp49
 70
     1
102
RTVSPost2010Prop50
 90
       50
102
RTVSPost2010PropOp50
 70
     1
102
RTVSPost2010Prop51ColorIndex
 90
      256
102
RTVSPost2010Prop51ColorRGB
 90
-16777216
102
RTVSPost2010PropOp51
 70
     0
102
RTVSPost2010Prop52
140
1.0
102
RTVSPost2010PropOp52
 70
     0
102
RTVSPost2010Prop53
 90
        2
102
RTVSPost2010PropOp53
 70
     1
102
RTVSPost2010Prop54
  1
strokes_ogs.tif
102
RTVSPost2010PropOp54
 70
     1
102
RTVSPost2010Prop55
280
     0
102
RTVSPost2010PropOp55
 70
     1
102
RTVSPost2010Prop56
140
1.0
102
RTVSPost2010PropOp56
 70
     1
102
RTVSPost2010Prop57
140
1.0
102
RTVSPost2010PropOp57
 70
     1
102
RTVSPropertyOp0
 70
     1
102
RTVSPropertyOp1
 70
     1
102
RTVSPropertyOp2
 70
     1
102
RTVSPropertyOp3
 70
     1
102
RTVSPropertyOp4
 70
     1
102
RTVSPropertyOp5
 70
     1
102
RTVSPropertyOp6
 70
     1
102
RTVSPropertyOp7
 70
     1
102
RTVSPropertyOp8
 70
     1
102
RTVSPropertyOp9
 70
     1
102
RTVSPropertyOp10
 70
     1
102
RTVSPropertyOp11
 70
     1
102
RTVSPropertyOp12
 70
     1
102
RTVSPropertyOp13
 70
     1
102
RTVSPropertyOp14
 70
     1
102
RTVSPropertyOp15
 70
     1
102
RTVSPropertyOp16
 70
     1
102
RTVSPropertyOp17
 70
     1
102
RTVSPropertyOp18
 70
     1
102
RTVSPropertyOp19
 70
     1
102
RTVSPropertyOp20
 70
     1
102
RTVSPropertyOp21
 70
     1
102
RTVSPropertyOp22
 70
     1
102
RTVSPropertyOp23
 70
     1
102
RTVSPropertyOp24
 70
     1
102
RTVSPropertyOp25
 70
     1
102
RTVSPropertyOp26
 70
     1
102
RTVSPropertyOp27
 70
     1
102
RTVSPropertyOp28
 70
     1
102
RTVSPropertyOp29
 70
     1
102
RTVSPropertyOp30
 70
     1
102
RTVSPropertyOp31
 70
     1
102
RTVSPropertyOp32
 70
     1
102
RTVSPropertyOp33
 70
     1
102
RTVSPropertyOp34
 70
     1
102
RTVSPropertyOp35
 70
     1
102
RTVSPropertyOp36
 70
     1
102
RTVSPropertyOp37
 70
     1
102
RTVSPropertyOp38
 70
     1
102
RTVSPropertyOp39
 70
     1
102
RTVSPropertyOp40
 70
     1
102
RTVSPropertyOp41
 70
     1
102
RTVSPropertyOp42
 70
     1
102
RTVSPropertyOp43
 70
     1
102
RTVSPropertyOp44
 70
     1
102
RTVSPropertyOp45
 70
     1
102
RTVSPropertyOp46
 70
     1
102
RTVSPropertyOp47
 70
     1
102
RTVSPropertyOp48
 70
     1
102
RTVSPropertyOp49
 70
     1
102
RTVSPropertyOp50
 70
     1
102
RTVSPropertyOp51
 70
     0
102
RTVSPropertyOp52
 70
     0
102
RTVSPropertyOp53
 70
     1
102
RTVSPropertyOp54
 70
     1
102
RTVSPropertyOp55
 70
     1
102
RTVSPropertyOp56
 70
     1
102
RTVSPropertyOp57
 70
     1
102
RTVSPropertyOp58
 70
     1
102
RTVSPropertyOp59
 70
     1
102
RTVSPropertyOp60
 70
     1
102
RTVSPropertyOp61
 70
     1
102
RTVSPropertyOp62
 70
     1
  0
XRECORD
  5
ACC4
102
{ACAD_REACTORS
330
ACC3
102
}
330
ACC3
100
AcDbXrecord
280
     1
102
RTVSPost2010Prop28
280
     0
102
RTVSPost2010PropOp28
 70
     1
102
RTVSPost2010Prop29
280
     1
102
RTVSPost2010PropOp29
 70
     1
102
RTVSPost2010Prop30
280
     1
102
RTVSPost2010PropOp30
 70
     1
102
RTVSPost2010Prop31
280
     0
102
RTVSPost2010PropOp31
 70
     1
102
RTVSPost2010Prop32
280
     0
102
RTVSPost2010PropOp32
 70
     1
102
RTVSPost2010Prop33
280
     0
102
RTVSPost2010PropOp33
 70
     1
102
RTVSPost2010Prop34
280
     0
102
RTVSPost2010PropOp34
 70
     1
102
RTVSPost2010Prop35
280
     0
102
RTVSPost2010PropOp35
 70
     1
102
RTVSPost2010Prop36
280
     0
102
RTVSPost2010PropOp36
 70
     1
102
RTVSPost2010Prop37
 90
       50
102
RTVSPost2010PropOp37
 70
     1
102
RTVSPost2010Prop38
140
0.0
102
RTVSPost2010PropOp38
 70
     1
102
RTVSPost2010Prop39
140
1.0
102
RTVSPost2010PropOp39
 70
     1
102
RTVSPost2010Prop40
 90
        0
102
RTVSPost2010PropOp40
 70
     1
102
RTVSPost2010Prop41ColorIndex
 90
       18
102
RTVSPost2010Prop41ColorRGB
 90
        0
102
RTVSPost2010PropOp41
 70
     1
102
RTVSPost2010Prop42
 90
       50
102
RTVSPost2010PropOp42
 70
     1
102
RTVSPost2010Prop43
 90
        3
102
RTVSPost2010PropOp43
 70
     1
102
RTVSPost2010Prop44ColorIndex
 90
        5
102
RTVSPost2010Prop44ColorRGB
 90
      255
102
RTVSPost2010PropOp44
 70
     1
102
RTVSPost2010Prop45
280
     0
102
RTVSPost2010PropOp45
 70
     1
102
RTVSPost2010Prop46
 90
       50
102
RTVSPost2010PropOp46
 70
     1
102
RTVSPost2010Prop47
 90
       50
102
RTVSPost2010PropOp47
 70
     1
102
RTVSPost2010Prop48
 90
       50
102
RTVSPost2010PropOp48
 70
     1
102
RTVSPost2010Prop49
280
     0
102
RTVSPost2010PropOp49
 70
     1
102
RTVSPost2010Prop50
 90
       50
102
RTVSPost2010PropOp50
 70
     1
102
RTVSPost2010Prop51ColorIndex
 90
      256
102
RTVSPost2010Prop51ColorRGB
 90
-16777216
102
RTVSPost2010PropOp51
 70
     0
102
RTVSPost2010Prop52
140
1.0
102
RTVSPost2010PropOp52
 70
     0
102
RTVSPost2010Prop53
 90
        2
102
RTVSPost2010PropOp53
 70
     1
102
RTVSPost2010Prop54
  1
strokes_ogs.tif
102
RTVSPost2010PropOp54
 70
     1
102
RTVSPost2010Prop55
280
     0
102
RTVSPost2010PropOp55
 70
     1
102
RTVSPost2010Prop56
140
1.0
102
RTVSPost2010PropOp56
 70
     1
102
RTVSPost2010Prop57
140
1.0
102
RTVSPost2010PropOp57
 70
     1
102
RTVSPropertyOp0
 70
     1
102
RTVSPropertyOp1
 70
     1
102
RTVSPropertyOp2
 70
     1
102
RTVSPropertyOp3
 70
     1
102
RTVSPropertyOp4
 70
     1
102
RTVSPropertyOp5
 70
     1
102
RTVSPropertyOp6
 70
     1
102
RTVSPropertyOp7
 70
     1
102
RTVSPropertyOp8
 70
     1
102
RTVSPropertyOp9
 70
     1
102
RTVSPropertyOp10
 70
     1
102
RTVSPropertyOp11
 70
     1
102
RTVSPropertyOp12
 70
     1
102
RTVSPropertyOp13
 70
     1
102
RTVSPropertyOp14
 70
     1
102
RTVSPropertyOp15
 70
     1
102
RTVSPropertyOp16
 70
     1
102
RTVSPropertyOp17
 70
     1
102
RTVSPropertyOp18
 70
     1
102
RTVSPropertyOp19
 70
     1
102
RTVSPropertyOp20
 70
     1
102
RTVSPropertyOp21
 70
     1
102
RTVSPropertyOp22
 70
     1
102
RTVSPropertyOp23
 70
     1
102
RTVSPropertyOp24
 70
     1
102
RTVSPropertyOp25
 70
     1
102
RTVSPropertyOp26
 70
     1
102
RTVSPropertyOp27
 70
     1
102
RTVSPropertyOp28
 70
     1
102
RTVSPropertyOp29
 70
     1
102
RTVSPropertyOp30
 70
     1
102
RTVSPropertyOp31
 70
     1
102
RTVSPropertyOp32
 70
     1
102
RTVSPropertyOp33
 70
     1
102
RTVSPropertyOp34
 70
     1
102
RTVSPropertyOp35
 70
     1
102
RTVSPropertyOp36
 70
     1
102
RTVSPropertyOp37
 70
     1
102
RTVSPropertyOp38
 70
     1
102
RTVSPropertyOp39
 70
     1
102
RTVSPropertyOp40
 70
     1
102
RTVSPropertyOp41
 70
     1
102
RTVSPropertyOp42
 70
     1
102
RTVSPropertyOp43
 70
     1
102
RTVSPropertyOp44
 70
     1
102
RTVSPropertyOp45
 70
     1
102
RTVSPropertyOp46
 70
     1
102
RTVSPropertyOp47
 70
     1
102
RTVSPropertyOp48
 70
     1
102
RTVSPropertyOp49
 70
     1
102
RTVSPropertyOp50
 70
     1
102
RTVSPropertyOp51
 70
     0
102
RTVSPropertyOp52
 70
     0
102
RTVSPropertyOp53
 70
     1
102
RTVSPropertyOp54
 70
     1
102
RTVSPropertyOp55
 70
     1
102
RTVSPropertyOp56
 70
     1
102
RTVSPropertyOp57
 70
     1
102
RTVSPropertyOp58
 70
     1
102
RTVSPropertyOp59
 70
     1
102
RTVSPropertyOp60
 70
     1
102
RTVSPropertyOp61
 70
     1
102
RTVSPropertyOp62
 70
     1
  0
ENDSEC
  0
EOF
